#TITLE:Never Say Goodbye;
#SUBTITLE:;
#ARTIST:Mario & Nasty;
#TITLETRANSLIT:;
#SUBTITLETRANSLIT:;
#ARTISTTRANSLIT:;
#CREDIT:;
#BANNER:Never Say Goodbye-bn.png;
#BACKGROUND:Never Say Goodbye-bg.png;
#LYRICSPATH:;
#CDTITLE:zimon.png;
#MUSIC:Never Say Goodbye.mp3;
#OFFSET:-0.300;
#SAMPLESTART:100.050;
#SAMPLELENGTH:11.920;
#SELECTABLE:YES;
#BPMS:0.000=200.000;
#STOPS:225.000=1.200
,301.000=1.200
;
#BGCHANGES:0.000=Never Say Goodbye.avi=1.000=1=1=0,
99999=-nosongbg-=1.000=0=0=0 // don't automatically add -songbackground-
;

//---------------dance-single - ----------------
#NOTES:
     dance-single:
     :
     Beginner:
     2:
     0.167,0.160,0.024,0.064,0.000: // measure 1
0000
0000
0000
0000
,  // measure 2
0000
0000
0000
0000
,  // measure 3
0000
0001
0000
0000
,  // measure 4
0000
1000
0000
0000
,  // measure 5
0000
1000
0000
0000
,  // measure 6
0000
0001
0000
0010
,  // measure 7
0000
0001
0000
0000
,  // measure 8
0000
1000
0000
0000
,  // measure 9
0000
0001
0000
0000
,  // measure 10
0000
1000
0000
0010
,  // measure 11
0000
0200
0300
0000
,  // measure 12
0000
1000
0000
0000
,  // measure 13
0000
1000
0000
0000
,  // measure 14
0000
0100
0000
1000
,  // measure 15
0000
0001
0000
0000
,  // measure 16
0000
0010
0000
0000
,  // measure 17
0000
0010
0000
0000
,  // measure 18
0000
0010
0000
0000
,  // measure 19
0000
0100
0000
0000
,  // measure 20
0000
0010
0000
1000
,  // measure 21
0000
1000
0000
0000
,  // measure 22
0000
0001
0000
0000
,  // measure 23
0000
1000
0000
0000
,  // measure 24
0000
0001
0000
0001
,  // measure 25
0000
1000
0000
0000
,  // measure 26
0000
1000
0000
0000
,  // measure 27
0000
0001
0000
0000
,  // measure 28
0000
0100
0000
0000
,  // measure 29
0000
0010
0000
0010
,  // measure 30
0000
0010
0000
0000
,  // measure 31
0000
0100
0000
0100
,  // measure 32
0000
0100
0000
0000
,  // measure 33
0000
0002
0000
0003
,  // measure 34
0000
0200
0000
0300
,  // measure 35
0000
2000
0000
3000
,  // measure 36
0000
0020
0000
0030
,  // measure 37
0000
0100
0000
0000
,  // measure 38
0000
0100
0000
0100
,  // measure 39
0000
0100
0000
0010
,  // measure 40
0000
0010
0000
0010
,  // measure 41
0000
1000
0000
0000
,  // measure 42
0000
0001
0000
0000
,  // measure 43
0000
1000
0000
0100
,  // measure 44
0000
0010
0000
0000
,  // measure 45
0000
0001
0000
0000
,  // measure 46
0000
0001
0000
0000
,  // measure 47
0000
0100
0000
0010
,  // measure 48
0000
0010
0000
0000
,  // measure 49
0000
0100
0000
0000
,  // measure 50
0000
0100
0000
0000
,  // measure 51
0000
0010
0000
0010
,  // measure 52
0000
0100
0000
0000
,  // measure 53
0000
1000
0000
0000
,  // measure 54
0000
0010
0000
0000
,  // measure 55
0000
1000
0000
0000
,  // measure 56
0000
0010
0000
0000
,  // measure 57
0000
0110
0000
0001
,  // measure 58
0000
0100
0000
0000
,  // measure 59
0000
0010
0000
0000
,  // measure 60
0000
0001
0000
0100
,  // measure 61
0000
0010
0000
0000
,  // measure 62
0000
1000
0000
1000
,  // measure 63
0000
0010
0000
0000
,  // measure 64
0000
1000
0000
0001
,  // measure 65
0000
1000
0000
0000
,  // measure 66
0000
0010
0000
0100
,  // measure 67
0000
0010
0000
0010
,  // measure 68
0000
1000
0000
0010
,  // measure 69
0000
0100
0000
0000
,  // measure 70
0000
1000
0000
1000
,  // measure 71
0000
0010
0000
0000
,  // measure 72
0000
0010
0000
0100
,  // measure 73
0000
0001
0000
0000
,  // measure 74
0000
0001
0000
1000
,  // measure 75
0000
1000
0000
0000
,  // measure 76
0000
0110
0000
1000
,  // measure 77
0000
0001
0000
1000
,  // measure 78
0000
0002
0003
0000
,  // measure 79
0000
0010
0000
1000
,  // measure 80
0000
1000
0000
0000
,  // measure 81
0000
0010
0000
0010
,  // measure 82
0000
0100
0000
0100
,  // measure 83
0000
1000
0000
1000
,  // measure 84
0000
0001
0000
0000
,  // measure 85
0000
0100
0000
0001
,  // measure 86
0000
0010
0000
0000
,  // measure 87
0000
1000
0000
1000
,  // measure 88
0000
1000
0000
0000
,  // measure 89
0000
0100
0000
0010
,  // measure 90
0000
0010
0000
0000
,  // measure 91
0000
0010
0000
0010
,  // measure 92
0000
1000
0000
0000
,  // measure 93
0000
0010
0000
0001
,  // measure 94
0000
0100
0000
0001
,  // measure 95
0000
0010
0000
0100
,  // measure 96
0000
0100
0000
0100
,  // measure 97
0000
1000
0000
0010
,  // measure 98
0000
0001
0000
1000
,  // measure 99
0000
2002
0000
0000
,  // measure 100
0000
0000
0000
0000
,  // measure 101
0000
3003
0000
0000
;

//---------------dance-single - ----------------
#NOTES:
     dance-single:
     :
     Easy:
     3:
     0.353,0.360,0.016,0.088,0.000: // measure 1
0000
0000
0000
0000
,  // measure 2
0000
0000
0000
0000
,  // measure 3
0000
0001
0000
0000
,  // measure 4
1000
1000
0100
0000
,  // measure 5
0001
1000
0000
0000
,  // measure 6
0000
0001
0100
0010
,  // measure 7
1000
0001
0000
0000
,  // measure 8
1000
0001
1000
0000
,  // measure 9
0010
0100
0000
0000
,  // measure 10
0100
1000
0001
0000
,  // measure 11
0010
0200
0000
0300
,  // measure 12
0000
0100
1000
0000
,  // measure 13
0010
1000
0000
0000
,  // measure 14
1000
0100
0001
0000
,  // measure 15
1000
0001
0000
0000
,  // measure 16
0010
0100
0010
0000
,  // measure 17
0100
0010
0000
0000
,  // measure 18
1000
0010
0100
0000
,  // measure 19
0100
0010
0000
0010
,  // measure 20
0000
0100
0010
1000
,  // measure 21
0000
1000
1000
0001
,  // measure 22
0000
0001
1000
0000
,  // measure 23
0010
1000
0000
1000
,  // measure 24
0000
0001
0001
0001
,  // measure 25
0010
1000
0000
0000
,  // measure 26
1000
1000
0001
0000
,  // measure 27
0010
0001
0000
0000
,  // measure 28
1000
1000
1000
0000
,  // measure 29
0010
0010
1000
1000
,  // measure 30
0010
1000
0010
0000
,  // measure 31
0100
0100
0001
0001
,  // measure 32
0010
0001
1000
0001
,  // measure 33
0100
0002
0000
0000
,  // measure 34
0000
0203
0000
0000
,  // measure 35
0300
2000
3000
0001
,  // measure 36
0100
1000
0000
1000
,  // measure 37
0010
0001
1000
0100
,  // measure 38
1000
0100
0001
1000
,  // measure 39
0001
1000
1000
0010
,  // measure 40
1000
0010
1000
0002
,  // measure 41
0003
1000
0001
0010
,  // measure 42
0000
0010
0100
0000
,  // measure 43
1000
1000
0000
0100
,  // measure 44
0001
0010
0100
0000
,  // measure 45
0100
0001
0000
0010
,  // measure 46
1000
0010
0001
0000
,  // measure 47
0001
0001
0000
0010
,  // measure 48
0001
0010
1000
0000
,  // measure 49
0100
0010
0000
0010
,  // measure 50
0100
0010
1000
0000
,  // measure 51
0100
0010
0000
0010
,  // measure 52
0100
0010
0001
0000
,  // measure 53
0100
1000
0000
0100
,  // measure 54
1000
0010
0001
0000
,  // measure 55
0001
1000
0000
0010
,  // measure 56
0100
0010
1000
1000
,  // measure 57
0001
0100
1000
0002
,  // measure 58
0003
0200
0300
0000
,  // measure 59
1000
0010
1000
0000
,  // measure 60
0000
0001
1000
0100
,  // measure 61
0001
0010
0100
0000
,  // measure 62
0100
0001
0001
0010
,  // measure 63
1000
0010
0100
0000
,  // measure 64
0100
0010
0010
0100
,  // measure 65
0001
0010
0010
0000
,  // measure 66
0100
0010
0001
0100
,  // measure 67
0001
0010
0001
0000
,  // measure 68
0100
1000
0001
0010
,  // measure 69
0010
0010
0100
0000
,  // measure 70
0100
1000
0010
1000
,  // measure 71
0010
0010
1000
0000
,  // measure 72
0100
1000
0100
0100
,  // measure 73
0001
0010
1000
0000
,  // measure 74
0010
1000
0010
0100
,  // measure 75
1000
0010
0001
0000
,  // measure 76
1000
0110
0001
2000
,  // measure 77
3000
0100
0010
1000
,  // measure 78
0001
0010
0002
0000
,  // measure 79
0003
0010
0010
1000
,  // measure 80
0010
1000
0001
0000
,  // measure 81
0010
1000
0010
1000
,  // measure 82
0001
0100
0100
0100
,  // measure 83
1000
1000
0100
1000
,  // measure 84
0010
0010
0001
0000
,  // measure 85
0010
0100
0010
0001
,  // measure 86
1000
0010
0010
0000
,  // measure 87
1000
0010
1000
0001
,  // measure 88
1000
0010
0001
0000
,  // measure 89
0010
1000
0010
1000
,  // measure 90
0010
1000
0100
0001
,  // measure 91
0100
0010
0100
0100
,  // measure 92
0100
1000
0001
0001
,  // measure 93
0001
0010
0000
0001
,  // measure 94
0100
0100
0000
0001
,  // measure 95
0010
0010
0000
0100
,  // measure 96
1000
0100
0000
0100
,  // measure 97
0100
1000
0000
0010
,  // measure 98
0100
0001
0100
1000
,  // measure 99
0001
2002
0000
0000
,  // measure 100
0000
0000
0000
0000
,  // measure 101
0000
3003
0000
0000
;

//---------------dance-single - ----------------
#NOTES:
     dance-single:
     :
     Medium:
     6:
     0.649,0.559,0.717,0.295,0.000: // measure 1
0000
0000
0000
0000
,  // measure 2
0000
0000
0000
0000
,  // measure 3
0000
0002
1003
1001
,  // measure 4
0010
0100
1000
0000
0100
0000
1100
0000
,  // measure 5
0001
2000
3001
0011
,  // measure 6
0010
0100
0001
0000
0100
0000
1010
0000
,  // measure 7
1000
0002
0013
0011
,  // measure 8
0100
0010
0001
0000
1000
0000
1100
0000
,  // measure 9
0010
0200
0310
0110
,  // measure 10
0100
0010
1000
0000
0001
0000
0110
0000
,  // measure 11
0010
0200
0301
1001
,  // measure 12
0001
0010
0100
0000
1000
0000
0110
0000
,  // measure 13
0001
2000
3001
0011
,  // measure 14
1000
0010
0100
0000
0001
0000
1100
0000
,  // measure 15
1000
0002
0013
1001
,  // measure 16
1000
0010
0100
0000
0010
0000
0011
0000
,  // measure 17
0100
2000
3001
0011
,  // measure 18
1000
0100
0010
0000
0010
0000
1001
0000
,  // measure 19
1000
1000
0001
0100
,  // measure 20
0010
1000
0110
2002
,  // measure 21
3003
0000
1000
0000
0010
0100
0001
0000
,  // measure 22
0010
0100
0001
0000
1000
0000
0110
0000
,  // measure 23
0010
0100
1000
0000
0010
0100
1000
0000
,  // measure 24
0001
0101
0101
0101
,  // measure 25
0010
0100
1000
0000
0010
0100
1000
0000
,  // measure 26
0010
0100
1000
0000
0001
0000
1100
0000
,  // measure 27
0010
0100
0001
0000
0010
0100
0001
0000
,  // measure 28
1000
1010
2020
3030
,  // measure 29
0010
0001
0010
0000
1000
0100
1000
0000
,  // measure 30
0010
0100
1000
0000
0022
0000
0033
0000
,  // measure 31
0010
1000
0010
0000
0001
0100
0001
0000
,  // measure 32
0010
0100
0001
0000
1100
0000
0001
0010
,  // measure 33
0100
1000
0002
0000
1000
0000
1000
0000
,  // measure 34
0100
0203
0001
0001
,  // measure 35
0301
2000
3100
0011
,  // measure 36
0100
0010
1000
0000
0010
0000
1001
0000
,  // measure 37
0010
0001
1000
0000
1000
0000
0110
0000
,  // measure 38
1000
0010
0100
0000
0001
0000
0110
0000
,  // measure 39
0001
1000
1000
0000
1000
0000
0110
0000
,  // measure 40
1000
0100
0010
0000
1000
0000
0220
0000
,  // measure 41
0330
1000
0001
0110
,  // measure 42
1000
0100
0010
0000
0100
0000
0011
0000
,  // measure 43
0100
2002
3003
0110
,  // measure 44
0001
0100
0010
0000
0100
0000
1010
0000
,  // measure 45
0100
2002
3003
0110
,  // measure 46
1000
0100
0010
0000
0001
0000
0011
0000
,  // measure 47
0100
1000
0001
0110
,  // measure 48
0001
0100
0010
0000
1000
0000
1010
0000
,  // measure 49
0100
0001
0100
0011
,  // measure 50
0010
0100
0010
0000
1000
0000
1001
0000
,  // measure 51
0100
0001
1000
1010
,  // measure 52
0010
0100
0010
0000
0001
0000
1001
0000
,  // measure 53
0100
1000
0010
0110
,  // measure 54
1000
0100
0010
0000
0001
0000
0110
0000
,  // measure 55
0001
1000
0100
0110
,  // measure 56
0001
0100
0010
0000
1000
0000
1001
0000
,  // measure 57
0001
0110
1000
0022
,  // measure 58
0033
0200
0300
1100
,  // measure 59
1000
0100
0010
0000
2002
0000
0000
0000
,  // measure 60
3003
1000
1000
0110
,  // measure 61
0001
0100
0010
0000
0100
0000
1001
0000
,  // measure 62
0100
0001
0001
0110
,  // measure 63
1000
0100
0010
0000
0100
0000
0110
0000
,  // measure 64
0100
0010
0010
0110
,  // measure 65
0001
0100
0010
0000
0100
0000
1100
0000
,  // measure 66
0100
0010
0001
0110
,  // measure 67
1000
0100
0010
0000
0001
0000
1001
0000
,  // measure 68
0100
1000
0001
0011
,  // measure 69
0010
0100
0010
0000
0001
0000
1001
0000
,  // measure 70
0100
1000
0010
1010
,  // measure 71
0010
0100
0010
0000
1000
0000
0011
0000
,  // measure 72
0100
1000
0100
0110
,  // measure 73
0001
0100
0010
0000
1000
0000
0110
0000
,  // measure 74
0010
1000
0010
0110
,  // measure 75
1000
0100
0010
0000
0001
0000
1001
0000
,  // measure 76
1000
0110
0001
2200
,  // measure 77
3300
0100
0010
1000
,  // measure 78
0001
0100
0010
0000
2002
0000
0000
0000
,  // measure 79
3003
0000
0010
0000
0010
0100
1000
0000
,  // measure 80
0010
0100
1000
0000
0001
0000
1001
0000
,  // measure 81
0010
0100
1000
0000
0010
0100
1000
0000
,  // measure 82
0001
0101
0101
0101
,  // measure 83
1000
0100
1000
0000
1000
0100
1000
0000
,  // measure 84
0010
0001
0010
0000
0001
0000
1001
0000
,  // measure 85
0010
0100
0001
0000
0010
0100
0001
0000
,  // measure 86
1000
1010
1010
1010
,  // measure 87
1000
0001
0010
0000
1000
0001
0010
0000
,  // measure 88
1000
0001
0010
0000
0001
0000
1100
0000
,  // measure 89
0010
0100
1000
0000
0010
0100
1000
0000
,  // measure 90
0010
0100
1000
0000
1100
0000
0001
0010
,  // measure 91
0100
1000
0020
0000
0100
0000
0100
0000
,  // measure 92
1000
2030
0001
0001
,  // measure 93
3001
0002
0103
0011
,  // measure 94
0100
0010
1000
0000
0010
0000
1001
0000
,  // measure 95
0010
0100
0100
0000
1000
0000
0110
0000
,  // measure 96
1000
0001
0100
0000
1000
0000
0110
0000
,  // measure 97
0100
0010
1000
0000
0100
0000
1001
0000
,  // measure 98
0100
0010
1000
0000
0100
0010
1000
0000
,  // measure 99
0001
2002
0000
0000
,  // measure 100
0000
0000
0000
0000
,  // measure 101
0000
3003
0000
0000
;

//---------------dance-single - ----------------
#NOTES:
     dance-single:
     :
     Hard:
     8:
     0.720,0.679,0.582,0.215,0.000: // measure 1
0000
0000
0000
0000
,  // measure 2
0000
0000
0000
0000
,  // measure 3
0000
0002
1003
1001
,  // measure 4
0010
0100
1000
0010
0100
0001
1000
0000
,  // measure 5
0001
2000
3001
0011
,  // measure 6
0010
0100
0001
1000
0100
0001
1000
0000
,  // measure 7
1000
0002
0013
0011
,  // measure 8
0100
0010
0001
0100
1000
0010
1000
0000
,  // measure 9
0010
0200
0310
0110
,  // measure 10
0100
0010
1000
0010
0001
1000
0100
0000
,  // measure 11
0010
0200
0301
1001
,  // measure 12
0001
0010
0100
0001
1000
0010
0100
0000
,  // measure 13
0001
2000
3001
0011
,  // measure 14
1000
0010
0100
0010
0001
0100
1000
0000
,  // measure 15
1000
0002
0013
1001
,  // measure 16
1000
0010
0100
0001
0010
0100
0001
0000
,  // measure 17
0100
2000
3001
0011
,  // measure 18
1000
0100
0010
1000
0010
0001
0001
0000
,  // measure 19
1000
0000
1100
0000
0001
0010
0100
0001
,  // measure 20
0010
0100
1000
0000
0110
0000
2002
0000
,  // measure 21
3003
0000
1000
0000
0010
0100
0001
0000
,  // measure 22
0010
0100
0001
0000
1000
0000
0110
0000
,  // measure 23
0010
0100
1000
0000
0010
0100
1000
0000
,  // measure 24
0001
0101
0101
0101
,  // measure 25
0010
0100
1000
0000
0010
0100
1000
0000
,  // measure 26
0010
0100
1000
0000
0001
0000
1100
0000
,  // measure 27
0010
0100
0001
0000
0010
0100
0001
0000
,  // measure 28
1000
1010
2020
3030
,  // measure 29
0010
0001
0010
0100
1000
0100
1000
0001
,  // measure 30
0010
0100
1000
0000
0022
0000
0033
0000
,  // measure 31
0010
1000
0010
0100
0001
0100
0001
1000
,  // measure 32
0010
0100
0001
0000
1100
0000
0001
0010
,  // measure 33
0100
1000
0002
0000
1000
0000
1000
0000
,  // measure 34
0100
0203
0001
0001
,  // measure 35
0301
2000
3100
0011
,  // measure 36
0100
0010
1000
0000
0010
0000
1001
0000
,  // measure 37
0010
0000
0100
0001
1000
0010
0100
0001
,  // measure 38
1000
0010
0100
0010
0001
0100
1000
0010
,  // measure 39
0001
0100
1000
0001
1000
0100
0010
0001
,  // measure 40
1000
0100
0010
0001
1000
0100
0020
0000
,  // measure 41
0030
1000
0001
0110
,  // measure 42
1000
0100
0010
0100
0010
1000
0001
0000
,  // measure 43
0100
1001
0001
0110
,  // measure 44
0001
0100
0010
1000
0100
0010
1000
0000
,  // measure 45
0100
1001
1000
0110
,  // measure 46
1000
0100
0010
1000
0001
0010
0100
0000
,  // measure 47
0100
1100
0001
0110
,  // measure 48
0001
0100
0010
0100
1000
0001
1000
0000
,  // measure 49
0100
0011
0100
0011
,  // measure 50
0010
0100
0010
0100
1000
0001
1000
0000
,  // measure 51
0100
1001
1000
1010
,  // measure 52
0010
0100
0010
1000
0001
0010
1001
0000
,  // measure 53
0100
1010
0010
0110
,  // measure 54
1000
0100
0010
1000
0001
0010
0100
0000
,  // measure 55
0001
1010
0100
0110
,  // measure 56
0001
0100
0010
0001
1000
0001
1000
0000
,  // measure 57
0001
0110
1000
1001
,  // measure 58
1000
0001
1000
0000
0100
0010
0100
0001
,  // measure 59
1000
0100
0010
0000
2002
0000
0000
0000
,  // measure 60
3003
1000
1000
0110
,  // measure 61
0001
0100
0010
0001
0100
0010
0001
0000
,  // measure 62
0100
1001
0001
0110
,  // measure 63
1000
0100
0010
0001
0100
0001
0100
0000
,  // measure 64
0100
0011
0010
0110
,  // measure 65
0001
0100
0010
1000
0100
0010
1000
0000
,  // measure 66
0100
0110
0001
0110
,  // measure 67
1000
0100
0010
0100
0001
1000
0001
0000
,  // measure 68
0100
1100
0001
0011
,  // measure 69
0010
0100
0010
1000
0001
0100
1001
0000
,  // measure 70
0100
1100
0010
1010
,  // measure 71
0010
0100
0010
0100
1000
0001
0001
0000
,  // measure 72
0100
1010
0100
0110
,  // measure 73
0001
0100
0010
0100
1000
0001
0100
0000
,  // measure 74
0010
1100
0010
0110
,  // measure 75
1000
0100
0010
0100
0001
1000
0001
0000
,  // measure 76
1000
0110
0001
1100
,  // measure 77
0010
0001
0100
0000
0010
0100
1000
0001
,  // measure 78
0001
0100
0010
0000
2002
0000
0000
0000
,  // measure 79
3003
0000
0010
0000
0010
0100
1000
0000
,  // measure 80
0010
0100
1000
0000
0001
0000
1001
0000
,  // measure 81
0010
0100
1000
0000
0010
0100
1000
0000
,  // measure 82
0001
0101
0101
0101
,  // measure 83
1000
0100
1000
0000
1000
0100
1000
0000
,  // measure 84
0010
0001
0010
0000
0001
0000
1001
0000
,  // measure 85
0010
0100
0001
0000
0010
0100
0001
0000
,  // measure 86
1000
1010
1010
1010
,  // measure 87
1000
0001
0010
0100
1000
0001
0010
0100
,  // measure 88
1000
0001
0010
0000
0001
0000
1100
0000
,  // measure 89
0010
0100
1000
0001
0010
0100
1000
0001
,  // measure 90
0010
0100
1000
0000
1100
0000
0001
0010
,  // measure 91
0100
1000
0020
0000
0100
0000
0100
0000
,  // measure 92
1000
2030
0001
0001
,  // measure 93
3001
0002
0103
0011
,  // measure 94
0100
0010
1000
0000
0010
0000
1001
0000
,  // measure 95
0010
0000
0100
0000
1000
0001
0100
0010
,  // measure 96
1000
0001
0100
0010
1000
0001
0100
0010
,  // measure 97
0100
0010
1000
0001
0100
0010
1000
0001
,  // measure 98
0100
0010
1000
0001
0100
0010
1000
0001
,  // measure 99
1000
2002
0000
0000
,  // measure 100
0000
0000
0000
0000
,  // measure 101
0000
3003
0000
0000
;
