#TITLE:Magnetic;
#SUBTITLE:;
#ARTIST:ILLIT;
#TITLETRANSLIT:;
#SUBTITLETRANSLIT:;
#ARTISTTRANSLIT:;
#CREDIT:zimon@imut;
#BANNER:magnetic-bn.png;
#BACKGROUND:magnetic-bg.png;
#LYRICSPATH:;
#CDTITLE:zimon.png;
#MUSIC:magnetic.mp3;
#OFFSET:-0.020;
#SAMPLESTART:45.802;
#SAMPLELENGTH:11.980;
#SELECTABLE:YES;
#BPMS:0.000=131.000;
#STOPS:76.000=1.600
,114.500=0.800
,128.500=0.800
;
#BGCHANGES:0.000=magnetic.avi=1.000=1=1=0,
99999=-nosongbg-=1.000=0=0=0 // don't automatically add -songbackground-
;

//---------------dance-single - Copied from----------------
#NOTES:
     dance-single:
     Copied from:
     Easy:
     3:
     0.239,0.233,0.015,0.106,0.000:
0000
0000
0000
0000
,
0000
0000
0000
0000
,
0000
0000
0000
0000
,
0000
0000
0000
0000
,
1000
1000
0001
1000
,
0010
0000
0001
1000
,
1000
0010
0100
0001
,
0010
0000
0001
1000
,
0002
0000
0203
0000
,
2300
0000
3000
0100
,
0020
0000
0032
0000
,
2003
0000
3001
0001
,
0010
0100
0100
0100
,
0100
0001
0100
0010
,
0000
1000
0001
1000
,
1000
0001
1000
0001
,
0001
0000
0100
0000
,
0100
0000
0010
0000
,
1000
0000
0101
0000
,
0100
0010
0000
0010
0000
0010
0000
0010
,
0000
0010
0000
0100
0000
0001
0000
0000
,
0000
1000
0000
1000
0000
1000
0000
1000
,
0000
1000
0000
0001
0000
0010
0000
0000
,
0000
0100
0000
0100
0000
0100
0000
0100
,
0000
0100
0000
1000
0000
0010
0000
0000
,
0000
0001
0000
0001
0000
0001
0000
0001
,
0000
0001
0000
0100
0000
0100
0000
0010
,
0000
1000
0000
0010
0000
1000
0000
0010
,
0000
0001
0000
0100
0000
0001
1000
0000
,
0100
1000
0100
0001
,
1000
0001
1000
0010
,
0100
0001
0001
0010
,
1000
0001
0100
0000
0100
0000
0010
0000
,
0001
0100
1000
0200
,
0000
0300
0000
0000
;

//---------------dance-single - Copied from Copied f----------------
#NOTES:
     dance-single:
     Copied from Copied f:
     Hard:
     7:
     0.470,0.468,0.015,0.151,0.000:
0000
0000
0000
0000
,
0000
0000
0000
0000
,
0000
0000
0000
0000
,
0000
0000
0000
0000
,
1000
0000
1000
0000
0001
1000
1000
0100
,
0010
0000
0000
0001
0001
0010
1000
0001
,
1000
0000
0010
0000
0100
0010
0001
0100
,
0010
0000
0001
0001
0001
0100
1000
0000
,
0002
0100
0203
1000
,
2300
0100
3100
0100
,
0020
0001
0032
1000
,
2003
0001
3001
0001
,
0010
1000
0100
1000
0100
1000
0100
1000
,
0100
0010
0001
0010
0100
0100
0010
0000
,
1000
0100
1000
0010
0001
0010
1000
0100
,
1000
0010
0001
0001
1000
0000
0001
0000
,
0002
0000
0100
0000
0103
1000
0010
1000
,
0100
0001
0010
0010
0010
1000
1000
0001
,
2000
0000
3001
1000
,
0100
0001
0010
0001
0010
0001
0010
0001
,
0010
1000
1000
0010
0010
0001
0100
1000
,
1000
0010
1000
0010
1000
0010
0001
0001
,
0001
0100
1000
1000
0010
0001
0100
1000
,
0001
0100
0001
0100
0001
0100
0001
0010
,
1000
0100
1000
0100
1000
0001
0001
0100
,
0010
0010
1000
1000
0100
0100
0100
0010
,
0010
0100
0010
0001
0001
0100
1000
0100
,
0001
0010
0010
0100
0100
0010
0010
0100
,
0100
0010
0010
0001
1000
0100
0010
1000
,
1000
0001
1000
0010
0001
0100
0100
1000
,
0001
0100
1000
0001
0010
0010
0010
1000
,
1000
1000
0001
0100
1000
0100
1000
1000
,
0010
0100
1000
0100
0100
0010
0010
0100
,
0001
1000
0100
1000
0100
1000
0001
1000
,
0202
0000
0303
0000
;

//---------------dance-single - Copied from Copied f----------------
#NOTES:
     dance-single:
     Copied from Copied f:
     Medium:
     5:
     0.429,0.442,0.121,0.181,0.000:
0000
0000
0000
0000
,
0000
0000
0000
0000
,
0000
0000
0000
0000
,
0000
0000
0000
0000
,
1000
0000
1000
0000
0001
1000
1000
0000
,
0010
0011
0100
1000
,
0001
0001
0010
0000
0100
0000
0101
0000
,
0010
0000
0001
0000
0001
0100
1000
0000
,
0002
0100
0203
1000
,
2300
0100
3100
0100
,
0020
0001
0032
1000
,
2003
0001
3001
0101
,
0010
1000
0100
1000
0100
1000
0100
1000
,
0100
0010
0001
0010
0100
0000
1010
0000
,
0000
0100
1000
0010
0001
0010
1000
0100
,
1000
0010
0001
0000
1000
0000
1100
0000
,
0202
0000
0000
0303
0000
1000
0010
1000
,
0100
0000
0010
0100
0000
1000
0000
2000
,
0000
0000
3001
1000
,
0110
0001
0010
0001
0010
0001
0010
0001
,
0010
0000
0000
0010
0010
0001
0100
1000
,
0000
0010
1000
0010
1000
0010
0001
0001
,
0001
0000
1000
1000
0010
0001
0100
1000
,
0000
0000
0010
0100
0010
0100
0010
0100
,
0010
0000
0000
0100
1000
0001
0001
0100
,
0000
0010
1000
1000
0100
0100
0100
0010
,
0001
0000
0000
0001
0001
0100
1000
0100
,
0000
0010
0010
0100
0100
0010
0010
0100
,
0100
0010
0010
0001
1000
0100
0010
1000
,
1000
0001
1000
0010
0001
0100
0100
1000
,
0001
0100
1000
0001
0010
0010
0010
1000
,
1000
1000
0001
0100
1000
0100
1000
1000
,
0010
0100
1000
0100
0100
0010
0010
0100
,
0001
2000
0000
0000
3100
0010
0001
1000
,
0202
0000
0303
0000
;

//---------------dance-single - Copied from Copied from----------------
#NOTES:
     dance-single:
     Copied from Copied from:
     Beginner:
     1:
     0.138,0.129,0.000,0.015,0.000: // measure 1
0000
0000
0000
0000
,  // measure 2
0000
0000
0000
0000
,  // measure 3
0000
0000
0000
0000
,  // measure 4
0000
0000
0000
0000
,  // measure 5
1000
0000
0001
0000
,  // measure 6
0010
0000
0001
0000
,  // measure 7
1000
0000
0010
0000
,  // measure 8
0001
0000
0001
0000
,  // measure 9
1000
0000
0100
0000
,  // measure 10
0001
0000
0010
0000
,  // measure 11
0010
0000
0001
0000
,  // measure 12
1000
0000
0001
0000
,  // measure 13
0010
0000
0100
0000
,  // measure 14
0100
0000
0100
0000
,  // measure 15
0001
0000
0001
0000
,  // measure 16
0001
0000
1000
0000
,  // measure 17
1000
0000
0100
0000
,  // measure 18
0100
0000
0010
0000
,  // measure 19
1000
0000
0100
0000
,  // measure 20
0100
0010
0000
0000
0000
0010
0000
0000
,  // measure 21
0000
0010
0000
0000
0000
0001
0000
0000
,  // measure 22
0000
1000
0000
0000
0000
1000
0000
0000
,  // measure 23
0000
1000
0000
0000
0000
0001
0000
0000
,  // measure 24
0000
0100
0000
0000
0000
0100
0000
0000
,  // measure 25
0000
0100
0000
0000
0000
0010
0000
0000
,  // measure 26
0000
0001
0000
0000
0000
0001
0000
0000
,  // measure 27
0000
0001
0000
0000
0000
0100
0000
0000
,  // measure 28
0000
1000
0000
0000
0000
1000
0000
0000
,  // measure 29
0000
0001
0000
0000
0000
0001
1000
0000
,  // measure 30
0000
1000
0000
0001
,  // measure 31
0000
0001
0000
0010
,  // measure 32
0000
0001
0000
0010
,  // measure 33
0000
0001
0100
0000
0000
0000
0010
0000
,  // measure 34
0000
0100
0000
2000
,  // measure 35
0000
3000
0000
0000
;
