#TITLE:Koi;
#SUBTITLE:;
#ARTIST:Unknown artist;
#TITLETRANSLIT:;
#SUBTITLETRANSLIT:;
#ARTISTTRANSLIT:;
#CREDIT:zimon@imut;
#BANNER:koi-bn.png;
#BACKGROUND:koi-bg.png;
#LYRICSPATH:;
#CDTITLE:;
#MUSIC:Koi.mp3;
#OFFSET:-0.020;
#SAMPLESTART:37.994;
#SAMPLELENGTH:11.900;
#SELECTABLE:YES;
#BPMS:0.000=158.001;
#STOPS:;
#BGCHANGES:0.000=Koi.avi=1.000=0=0=0,
99999=-nosongbg-=1.000=0=0=0 // don't automatically add -songbackground-
;

//---------------dance-single - Copied from----------------
#NOTES:
     dance-single:
     Copied from:
     Easy:
     3:
     0.254,0.262,0.113,0.011,0.000: // measure 1
1000
0000
0010
0000
,  // measure 2
1000
0000
0001
0000
,  // measure 3
0100
0000
0010
0000
,  // measure 4
0001
0000
0100
0000
,  // measure 5
1001
0000
0100
0000
,  // measure 6
0011
0000
0001
0000
,  // measure 7
1000
0000
1000
0000
0010
0000
0000
1000
,  // measure 8
0000
1000
0000
0010
0000
0000
0000
0000
,  // measure 9
0101
0000
0000
0000
0000
1000
0000
0000
,  // measure 10
0001
0000
0000
0001
0000
0000
0000
0000
,  // measure 11
0010
0000
0000
0000
0000
0001
0000
0000
,  // measure 12
1000
0000
0000
1000
0000
0000
0000
0000
,  // measure 13
0001
0000
0000
0000
0000
0100
0000
0000
,  // measure 14
0001
0000
0000
0001
0000
0000
0000
0000
,  // measure 15
0100
0001
0100
0000
,  // measure 16
1010
0000
0000
0000
0000
0010
0000
0000
,  // measure 17
1000
0000
0000
0000
0000
0001
0000
0000
,  // measure 18
1000
0000
0000
0010
0000
0000
0000
0000
,  // measure 19
0001
0000
0000
0000
0000
0100
0000
0000
,  // measure 20
0010
0000
0000
0100
0000
0000
0000
0000
,  // measure 21
0110
0000
0000
0000
0000
1000
0000
0000
,  // measure 22
0100
0000
0000
0100
0000
0000
0000
0000
,  // measure 23
0010
0010
0010
0000
,  // measure 24
0101
0000
0000
0000
0000
0001
0000
0000
,  // measure 25
0010
0000
1000
0000
,  // measure 26
0001
0000
0110
0000
,  // measure 27
1000
0000
0001
0000
,  // measure 28
0001
0000
1000
0100
,  // measure 29
0100
0000
0001
0000
,  // measure 30
0001
0001
0001
0000
,  // measure 31
0010
0000
0100
0000
0001
0000
0000
1000
,  // measure 32
0000
1000
0000
0001
0000
0000
0000
0000
,  // measure 33
0001
1000
0001
0000
,  // measure 34
0010
0100
0010
0000
,  // measure 35
0100
1000
0010
0000
,  // measure 36
0100
0001
0010
0000
,  // measure 37
0001
1000
0001
0000
,  // measure 38
0010
0000
0100
0000
0100
0000
0000
0010
,  // measure 39
0000
0000
0010
0000
0100
0000
0000
0001
,  // measure 40
0000
0100
0000
0010
0000
0000
0000
0000
,  // measure 41
0100
0100
0100
0000
,  // measure 42
0001
0001
1000
0000
,  // measure 43
0001
0001
0001
0000
,  // measure 44
0001
0010
0010
0000
,  // measure 45
0100
0001
0100
0000
,  // measure 46
0010
0000
0001
0000
1000
0000
0000
0001
,  // measure 47
0000
0000
0100
0000
0100
0000
0000
1000
,  // measure 48
0000
0000
0100
0000
0001
0000
0000
1000
,  // measure 49
0000
0001
1000
0000
,  // measure 50
0001
1000
0100
0010
,  // measure 51
0001
0000
0100
0000
,  // measure 52
1010
0000
0001
0000
,  // measure 53
1000
0000
0010
0000
,  // measure 54
1001
0000
0010
0000
,  // measure 55
1000
0000
0100
0000
,  // measure 56
1100
0000
0010
0000
,  // measure 57
1000
0000
0010
0000
0001
0000
0000
0010
,  // measure 58
0000
1000
0000
0002
0000
0000
0000
0000
,  // measure 59
1003
0000
0000
0000
;

//---------------dance-single - Copied from Copied f----------------
#NOTES:
     dance-single:
     Copied from Copied f:
     Beginner:
     2:
     0.191,0.197,0.000,0.000,0.000:
1000
0000
0010
0000
,
1000
0000
0001
0000
,
0100
0000
0010
0000
,
0001
0000
0100
0000
,
0001
0000
0100
0000
,
0001
0000
0001
0000
,
1000
0000
0000
0000
0010
0000
0000
1000
,
0000
0000
0000
0010
0000
0000
0000
0000
,
0001
0000
0000
0000
0000
1000
0000
0000
,
0001
0000
0000
0001
0000
0000
0000
0000
,
0010
0000
0000
0000
0000
0001
0000
0000
,
1000
0000
0000
1000
0000
0000
0000
0000
,
0001
0000
0000
0000
0000
0100
0000
0000
,
0001
0000
0000
0001
0000
0000
0000
0000
,
0100
0001
0100
0000
,
0010
0000
0000
0000
0000
0010
0000
0000
,
1000
0000
0000
0000
0000
0001
0000
0000
,
1000
0000
0000
0010
0000
0000
0000
0000
,
0001
0000
0000
0000
0000
0100
0000
0000
,
0010
0000
0000
0100
0000
0000
0000
0000
,
0100
0000
0000
0000
0000
1000
0000
0000
,
0100
0000
0000
0100
0000
0000
0000
0000
,
0010
0000
0010
0000
,
0100
0000
0000
0000
0000
0001
0000
0000
,
0010
0000
1000
0000
,
0001
0000
0100
0000
,
1000
0000
0001
0000
,
0001
0000
1000
0000
,
0100
0000
0001
0000
,
0001
0000
0001
0000
,
0010
0000
0000
0000
0001
0000
0000
1000
,
0000
0000
0000
0001
0000
0000
0000
0000
,
0001
0000
0001
0000
,
0010
0000
0010
0000
,
0100
0000
0010
0000
,
0100
0000
0010
0000
,
0001
0000
0001
0000
,
0010
0000
0000
0000
0100
0000
0000
0010
,
0000
0000
0000
0000
0100
0000
0000
0001
,
0000
0000
0000
0010
0000
0000
0000
0000
,
0100
0000
0100
0000
,
0001
0000
1000
0000
,
0001
0000
0001
0000
,
0001
0000
0010
0000
,
0100
0000
0100
0000
,
0010
0000
0000
0000
1000
0000
0000
0001
,
0000
0000
0000
0000
0100
0000
0000
1000
,
0000
0000
0000
0000
0001
0000
0000
1000
,
0000
0000
1000
0000
,
0001
0000
0100
0000
,
0001
0000
0100
0000
,
1000
0000
0001
0000
,
1000
0000
0010
0000
,
1000
0000
0010
0000
,
1000
0000
0100
0000
,
1000
0000
0010
0000
,
1000
0000
0000
0000
0001
0000
0000
0010
,
0000
0000
0000
0001
0000
0000
0000
0000
,
1000
0000
0000
0000
;

//---------------dance-single - Copied from Copied f----------------
#NOTES:
     dance-single:
     Copied from Copied f:
     Medium:
     5:
     0.349,0.361,0.430,0.057,0.000:
1000
0000
0010
0000
,
1000
0000
0001
0000
,
0100
0000
0010
0000
,
0001
0000
0100
0000
,
1001
0001
0100
1000
,
0011
0010
0001
0000
,
1000
0000
0001
0000
1010
0000
0000
1000
,
0000
1000
0000
0110
0000
0000
0000
0000
,
0101
0000
0000
0000
0000
1000
0000
0000
,
0101
0000
0000
0001
0000
0000
0000
0000
,
0010
0000
0000
0000
0000
0001
0000
0000
,
1100
0000
0000
1000
0000
0000
0000
0000
,
0011
0000
0000
0000
0000
0100
0000
0000
,
0011
0000
0000
0001
0000
0000
0000
0000
,
0100
0001
0100
0000
,
1010
0000
0000
0000
0000
0010
0000
0000
,
1010
0000
0000
0000
0000
0001
0000
0000
,
1100
0000
0000
0010
0000
0000
0000
0000
,
1001
0000
0000
0000
0000
0100
0000
0000
,
0110
0000
0000
0100
0000
0000
0000
0000
,
0110
0000
0000
0000
0000
1000
0000
0000
,
0101
0000
0000
0100
0000
0000
0000
0000
,
0010
0010
0010
0000
,
0101
0000
0000
0000
0000
0001
0000
0000
,
0110
0000
1000
0000
,
0001
0000
0110
0000
,
1000
0000
1001
0000
,
0001
0000
1000
0100
,
1100
0000
0001
0000
,
0001
0001
1001
0000
,
0010
0000
0100
0000
0001
0000
0001
1000
,
0000
1000
0000
0202
0000
0000
0303
0000
,
0001
1000
0001
1100
,
0010
0000
0100
0000
0001
0010
0010
0000
,
0100
1000
0010
1001
,
0100
0000
0001
0000
0010
0100
0100
0000
,
0001
1000
0001
0110
,
0010
0000
0100
0000
0001
0001
0001
0010
,
0000
0000
0010
0000
0100
0000
0001
0001
,
0000
0100
0000
2020
0000
0000
3030
0000
,
0100
0100
0100
1001
,
0001
0000
0001
0000
1000
0010
0100
0000
,
0001
0001
0001
1000
,
0001
0000
0010
0000
0010
0100
1000
0001
,
0100
0001
0100
0100
,
0010
0000
0001
0000
1000
0010
0010
0001
,
0000
0000
0100
0000
0110
0000
1000
1000
,
0000
0000
0100
0000
0011
0000
0100
0100
,
0000
0001
1000
1000
,
0001
1100
0100
0011
,
0001
0000
0100
0000
,
1010
0000
0001
0000
,
1100
0000
0010
0000
,
1001
0000
0010
0000
,
1001
0000
0100
0000
,
1100
0000
0010
0000
,
1100
0000
0010
0000
0001
0000
0000
0010
,
0000
1000
0000
0002
0000
0000
0000
0000
,
1003
0000
0000
0000
;

//---------------dance-single - Copied from Copied f----------------
#NOTES:
     dance-single:
     Copied from Copied f:
     Hard:
     7:
     0.504,0.492,0.475,0.192,0.000:
1000
0000
0010
0000
,
1000
0000
0001
0000
,
0100
0000
0010
0000
,
0001
0000
0100
0000
,
1001
0010
0100
1000
,
0011
0100
0001
0010
,
1000
0000
1000
0000
1010
0000
0000
1000
,
0000
1000
0000
0220
0000
0330
0000
0000
,
0101
0000
1000
0000
0010
2000
0000
0000
,
3001
0000
0000
1001
0000
0000
0100
1000
,
0010
1000
0010
0001
1000
0002
0000
0000
,
0103
0000
0000
2000
0000
0000
3000
0000
,
0001
0001
0010
1000
0001
0200
0000
0000
,
0310
0000
0000
0101
0000
0000
0100
1000
,
0100
1000
0001
0010
0100
0001
0001
0100
,
1000
0000
0000
0000
0000
0110
0000
0000
,
1010
0000
0001
0010
0100
0020
0000
0000
,
1030
0000
0000
0110
0000
0000
1000
0100
,
0001
0010
0100
1000
0010
0002
0000
0000
,
0013
0000
0000
1100
0000
0000
0000
0000
,
0100
0100
0010
0001
0010
2000
0000
0000
,
3100
0000
0000
0110
0000
0000
1000
0100
,
0010
0001
0010
0001
0010
0100
1000
0000
,
0202
0000
0000
0303
0000
1001
0000
0000
,
0110
0000
1100
0000
,
0011
0000
0110
0000
,
1000
0000
1001
0000
,
1001
0000
1010
0101
,
1100
0000
0001
0000
,
0101
0001
1001
0000
,
0010
0000
1100
0000
0011
0000
0001
1010
,
0000
1010
0000
0202
0000
0000
0303
0000
,
0001
1000
0001
1000
0001
0000
1100
0000
,
0010
0000
0100
0000
0001
1000
1000
0000
,
0100
0010
1000
0100
0010
0000
1001
0000
,
0100
0000
0001
0000
0010
0100
0100
0000
,
0001
0010
1000
0100
0001
0000
1000
0000
,
0010
0000
0100
0000
0001
0010
0010
1000
,
0000
0000
0010
0000
0100
0001
0001
0001
,
0000
0100
0000
2020
0000
0000
3030
0000
,
0100
0010
0100
0010
0100
0000
1000
0001
,
0001
0000
0001
0000
1000
0010
0010
0000
,
0001
0010
0001
0010
0001
0100
1000
0000
,
0001
0000
0010
0000
0010
1000
1000
0000
,
0100
0010
0001
1000
0100
0010
0100
1000
,
0010
0000
0001
0000
0010
1000
1000
0001
,
0000
0000
0100
0000
0110
0000
1000
1000
,
0000
0000
0100
0000
0011
0000
0100
0100
,
0000
0001
1001
1001
,
0001
1000
0100
0010
,
0101
0000
0010
0100
0010
0001
0100
1000
,
0010
0000
0000
0001
1000
0100
0001
0010
,
0100
0000
0000
0001
0010
0100
1000
0001
,
0010
0000
0000
0100
0010
0100
0001
0010
,
1000
0000
0000
1000
0100
0001
1000
0001
,
0010
0000
0000
0100
0010
0100
0001
0010
,
0001
0000
0010
0000
1001
0000
0000
0110
,
0000
1100
0000
0202
0000
0000
0300
0000
,
1003
0000
0000
0000
;
