#TITLE:Kegagalan Cinta;
#SUBTITLE:;
#ARTIST:3 Kembang;
#TITLETRANSLIT:;
#SUBTITLETRANSLIT:;
#ARTISTTRANSLIT:;
#CREDIT:zimon@kaskus;
#BANNER:Kegagalan Cinta-bn.jpg;
#BACKGROUND:Kegagalan Cinta-bg.jpg;
#LYRICSPATH:;
#CDTITLE:zimon.png;
#MUSIC:Kegagalan Cinta.mp3;
#OFFSET:-0.440;
#SAMPLESTART:100.030;
#SAMPLELENGTH:11.980;
#SELECTABLE:YES;
#BPMS:0.000=180.000;
#STOPS:;
#BGCHANGES:0.000=kegagalancinta.avi=1.000=0=0=1,
99999=-nosongbg-=1.000=0=0=0 // don't automatically add -songbackground-
;

//---------------dance-single - ----------------
#NOTES:
     dance-single:
     :
     Beginner:
     2:
     0.224,0.373,0.000,0.119,0.000: // measure 1
0001
0000
1000
0000
,  // measure 2
0010
0000
0100
0000
,  // measure 3
0001
0000
0100
0000
,  // measure 4
0010
0000
1000
0000
,  // measure 5
0001
0000
0001
0000
,  // measure 6
0001
0000
0001
0000
,  // measure 7
1000
0000
0010
0000
,  // measure 8
0100
0000
0001
0000
,  // measure 9
1000
0000
1000
0000
,  // measure 10
1000
0000
1000
0000
,  // measure 11
0001
0000
0100
0000
,  // measure 12
1000
0000
0000
0000
,  // measure 13
1000
0000
0001
0000
,  // measure 14
1000
0000
0000
0000
,  // measure 15
1000
0000
1000
0000
,  // measure 16
0001
0000
0000
0000
,  // measure 17
0001
0000
1000
0000
,  // measure 18
0001
0000
0000
0000
,  // measure 19
0100
0000
0010
0000
,  // measure 20
0001
0000
0000
0000
,  // measure 21
0001
0000
0100
0000
,  // measure 22
1000
0000
0000
0000
,  // measure 23
0010
0000
0010
0000
,  // measure 24
1000
0000
0000
0000
,  // measure 25
1000
0000
0010
0000
,  // measure 26
1000
0000
0000
0000
,  // measure 27
0001
0000
0100
0000
,  // measure 28
1000
0000
0100
0000
,  // measure 29
0001
0000
1000
0000
,  // measure 30
0001
0000
1000
0000
,  // measure 31
1000
0000
0001
0000
,  // measure 32
1000
0000
0000
0000
,  // measure 33
0100
0000
0100
0000
,  // measure 34
0010
0000
0000
0000
,  // measure 35
1000
0000
1000
0000
,  // measure 36
0001
0000
1000
0000
,  // measure 37
0010
0000
0001
0000
,  // measure 38
1000
0000
0001
0000
,  // measure 39
0100
0000
0010
0000
,  // measure 40
0001
0000
0000
0000
,  // measure 41
0010
0000
0100
0000
,  // measure 42
0010
0000
1000
0000
,  // measure 43
0010
0000
0010
0000
,  // measure 44
0010
0000
1000
0000
,  // measure 45
0001
0000
0001
0000
,  // measure 46
1000
0000
0001
0000
,  // measure 47
1000
0000
1000
0000
,  // measure 48
0001
0000
0100
0100
,  // measure 49
0100
0000
1000
0000
,  // measure 50
1000
0000
0010
0000
,  // measure 51
0001
0000
1000
0000
,  // measure 52
0001
0001
0001
0000
,  // measure 53
0100
0100
0100
0000
,  // measure 54
1000
1000
1000
0000
,  // measure 55
0010
0010
0010
0000
,  // measure 56
0001
0000
0001
0000
,  // measure 57
1000
0000
0000
0000
,  // measure 58
0001
0000
0001
0000
,  // measure 59
1000
0000
0000
0000
,  // measure 60
0100
0000
0100
0000
,  // measure 61
0001
0000
0000
0000
,  // measure 62
1000
0000
0001
0000
,  // measure 63
1000
0000
0001
0000
,  // measure 64
1000
0000
0000
0000
,  // measure 65
1000
0000
0001
0000
,  // measure 66
0010
0000
0000
0000
,  // measure 67
1000
0000
0001
0000
,  // measure 68
0010
0000
0010
0000
,  // measure 69
0100
0000
0100
0000
,  // measure 70
1000
0000
0010
0000
,  // measure 71
0010
0000
0001
0000
,  // measure 72
0010
0000
0001
0000
,  // measure 73
1000
0000
0000
0000
,  // measure 74
0001
0000
0001
0000
,  // measure 75
0001
0000
0000
0000
,  // measure 76
0100
0010
0100
0000
,  // measure 77
1000
1000
1000
0000
,  // measure 78
0010
0100
0010
0000
,  // measure 79
0001
0001
0001
0000
,  // measure 80
1000
0100
1000
0000
,  // measure 81
0100
0100
0100
0000
,  // measure 82
0001
0010
0001
0000
,  // measure 83
0010
0010
0010
0000
,  // measure 84
0100
0000
0100
0000
,  // measure 85
1000
0000
0001
0000
,  // measure 86
0200
0300
0020
0030
,  // measure 87
2000
3000
0002
0003
,  // measure 88
1000
0000
0001
0000
,  // measure 89
0100
0000
0100
0000
,  // measure 90
0001
0000
0010
0000
,  // measure 91
1000
0000
0001
0000
,  // measure 92
0001
0000
0010
0000
,  // measure 93
1000
0000
0000
0000
,  // measure 94
1000
0000
0001
0000
,  // measure 95
1000
0000
0000
0000
,  // measure 96
1000
0000
1000
0000
,  // measure 97
0001
0000
0100
0000
,  // measure 98
0010
0000
0010
0000
,  // measure 99
0010
0000
0100
0000
,  // measure 100
0100
0000
0010
0000
,  // measure 101
0001
0000
0000
0000
,  // measure 102
0001
0000
0100
0000
,  // measure 103
1000
0000
0000
0000
,  // measure 104
0010
0000
0100
0000
,  // measure 105
0001
0000
1000
0000
,  // measure 106
2000
3000
0020
0030
,  // measure 107
2000
3000
0200
0300
,  // measure 108
0002
0000
2000
3000
,  // measure 109
2000
0000
3003
0000
,  // measure 110
2000
3000
0020
0030
,  // measure 111
0200
0300
0002
0003
,  // measure 112
2000
3000
0000
0002
0003
0000
2000
3000
,  // measure 113
0000
0100
0000
0001
0001
0000
1000
0000
;

//---------------dance-single - ----------------
#NOTES:
     dance-single:
     :
     Easy:
     3:
     0.381,0.448,0.179,0.232,0.000: // measure 1
0001
0000
0000
1000
0000
0000
0000
0000
,  // measure 2
0010
0000
0000
0100
0000
0000
0000
0000
,  // measure 3
0002
0000
0203
0000
,  // measure 4
0320
0000
2030
3000
,  // measure 5
2002
0000
0000
0000
,  // measure 6
0000
0000
3003
0000
,  // measure 7
2000
0000
3020
0000
,  // measure 8
0230
0000
0302
0003
,  // measure 9
2002
0000
0000
0000
,  // measure 10
3003
0000
0001
1000
,  // measure 11
0001
0010
0001
0100
,  // measure 12
2000
3000
0100
0001
,  // measure 13
1000
1000
0001
0010
,  // measure 14
1000
0000
0011
0000
,  // measure 15
1000
0100
1000
0010
,  // measure 16
0002
0003
0010
1000
,  // measure 17
0001
0001
1000
0100
,  // measure 18
0001
0000
1100
0000
,  // measure 19
0100
0100
0010
1000
,  // measure 20
0002
0003
0100
0001
,  // measure 21
0001
0010
0100
1000
,  // measure 22
1000
0000
0011
0000
,  // measure 23
0010
0010
0100
0001
,  // measure 24
2000
3000
0010
1000
,  // measure 25
1000
0100
0010
0001
,  // measure 26
1000
0000
0011
0000
,  // measure 27
0001
0020
0130
0000
,  // measure 28
1000
0020
0130
0000
,  // measure 29
0001
0200
0310
0000
,  // measure 30
1000
0020
0031
0000
,  // measure 31
1000
1000
0001
1000
,  // measure 32
0001
0000
1100
0000
,  // measure 33
0100
0010
1000
0001
,  // measure 34
0010
0000
0110
0000
,  // measure 35
1000
0100
1000
0010
,  // measure 36
0001
0000
1100
0000
,  // measure 37
0001
0001
0010
0001
,  // measure 38
1000
0000
0011
0000
,  // measure 39
0100
0100
0010
1000
,  // measure 40
0001
0000
0110
0000
,  // measure 41
0001
0010
0100
1000
,  // measure 42
1000
0000
0011
0000
,  // measure 43
0010
0010
0100
0100
,  // measure 44
0100
0000
1010
0000
,  // measure 45
0001
0010
0001
0100
,  // measure 46
1000
0010
0010
0000
,  // measure 47
1000
1000
0001
0010
,  // measure 48
1000
0010
0010
0000
,  // measure 49
1000
0100
1000
0010
,  // measure 50
0001
0100
0010
0000
,  // measure 51
0001
0001
1000
0100
,  // measure 52
0001
0001
0001
0010
,  // measure 53
0100
0100
0100
0000
,  // measure 54
1000
1000
1000
0100
,  // measure 55
0010
0010
0010
0000
,  // measure 56
0001
0010
0001
0100
,  // measure 57
1000
0000
0110
0000
,  // measure 58
0001
1000
0001
0010
,  // measure 59
1000
0000
0011
0000
,  // measure 60
1000
0100
1000
0010
,  // measure 61
0001
0000
0110
0000
,  // measure 62
1000
1000
0001
0000
,  // measure 63
0100
0100
0001
0001
,  // measure 64
1000
0100
0010
0000
,  // measure 65
1000
0100
0001
0000
,  // measure 66
0010
0010
0100
1000
,  // measure 67
1000
0001
0001
0000
,  // measure 68
0010
0010
1000
0000
,  // measure 69
0100
0100
0001
0010
,  // measure 70
1000
0100
0010
0000
,  // measure 71
1000
0001
0001
0000
,  // measure 72
0010
0010
0001
0001
,  // measure 73
1000
0001
0010
0000
,  // measure 74
0001
0100
0001
0000
,  // measure 75
0100
0010
0010
1000
,  // measure 76
0001
0100
0001
0000
,  // measure 77
1000
0100
1000
0000
,  // measure 78
0010
0010
0001
0000
,  // measure 79
0100
0001
1000
0001
,  // measure 80
1000
0100
1000
0000
,  // measure 81
0001
0100
0001
0000
,  // measure 82
0010
0010
1000
0100
,  // measure 83
0100
1000
0001
0000
,  // measure 84
0010
1000
0100
0000
,  // measure 85
1000
0010
0001
0100
,  // measure 86
1000
0001
1000
0001
,  // measure 87
0001
1000
1000
1000
,  // measure 88
0100
0001
1000
0000
,  // measure 89
0001
0010
1000
0010
,  // measure 90
0001
1000
0010
0000
,  // measure 91
1000
0001
0001
0000
,  // measure 92
0001
0010
0001
0100
,  // measure 93
1000
0000
0110
0000
,  // measure 94
1000
1000
0001
0010
,  // measure 95
1000
0000
0011
0000
,  // measure 96
1000
0100
1000
0010
,  // measure 97
0001
0000
0110
0000
,  // measure 98
1000
0000
0000
1000
0000
0000
0110
0000
,  // measure 99
0000
0001
0000
1000
1000
0000
1001
0000
,  // measure 100
0100
0100
0010
1000
,  // measure 101
0001
0000
1001
0000
,  // measure 102
0001
0010
0100
1000
,  // measure 103
1000
0000
0011
0000
,  // measure 104
0010
0010
0100
0001
,  // measure 105
1000
0000
1001
0000
,  // measure 106
2000
3000
0020
0030
,  // measure 107
2000
3000
0200
0300
,  // measure 108
0002
0000
2000
3000
,  // measure 109
2000
0000
3003
0000
,  // measure 110
2000
3000
0020
0030
,  // measure 111
0200
0300
0002
0003
,  // measure 112
2002
3003
0000
0002
0003
0000
2000
3000
,  // measure 113
0000
0110
0000
0001
0001
0000
1001
0000
;

//---------------dance-single - ----------------
#NOTES:
     dance-single:
     :
     Medium:
     5:
     0.567,0.597,0.510,0.271,0.000: // measure 1
0001
0000
0000
1000
0000
0000
0010
0000
,  // measure 2
0010
0000
0000
0001
0000
0000
1000
0000
,  // measure 3
0002
0000
0203
0000
,  // measure 4
0320
0000
2030
3000
,  // measure 5
2002
0000
0000
0000
,  // measure 6
0000
0000
3003
0000
,  // measure 7
2000
0000
3020
0000
,  // measure 8
0230
0000
0302
0003
,  // measure 9
2002
0000
0000
0000
,  // measure 10
3003
0000
0000
0001
0001
0000
1000
0000
,  // measure 11
0001
0010
0001
0100
,  // measure 12
2000
0000
3000
0010
0100
0000
0001
0000
,  // measure 13
1000
1000
0001
0010
,  // measure 14
1000
0011
0011
1000
,  // measure 15
1000
0100
1000
0010
,  // measure 16
0002
0000
0003
0100
0010
0000
1000
0000
,  // measure 17
0001
0001
1000
0100
,  // measure 18
0001
1100
1100
0001
,  // measure 19
0100
0100
0010
1000
,  // measure 20
0002
0000
0003
1000
0100
0000
0001
0000
,  // measure 21
0001
0010
0100
1000
,  // measure 22
1000
0011
0011
1000
,  // measure 23
0010
0010
0100
0001
,  // measure 24
2000
0000
3000
0001
0010
0000
1000
0000
,  // measure 25
1000
0100
0010
0001
,  // measure 26
1000
0011
0011
1000
,  // measure 27
0001
0000
0100
0000
0100
1000
0010
0000
,  // measure 28
1000
0000
0010
0100
0010
0000
0100
0000
,  // measure 29
0001
0000
0100
0010
0100
0000
0010
0000
,  // measure 30
1000
0000
0010
0001
0010
0000
0100
0000
,  // measure 31
0010
0010
0001
1000
,  // measure 32
0002
0000
1003
0000
1100
0000
0010
0001
,  // measure 33
0100
0010
1000
0001
,  // measure 34
0010
1100
1100
0001
,  // measure 35
1000
0100
1000
0010
,  // measure 36
0002
0000
1003
0000
1100
0000
0001
0010
,  // measure 37
0001
0001
0010
0001
,  // measure 38
1000
1100
1100
0001
,  // measure 39
0100
0100
0010
1000
,  // measure 40
0002
0000
0103
0000
0110
0000
0001
0100
,  // measure 41
0001
0010
0100
1000
,  // measure 42
1000
0011
0011
1000
,  // measure 43
0010
0100
0010
0000
0100
0010
0100
0000
,  // measure 44
1000
0000
0010
0000
0100
0001
1000
0000
,  // measure 45
0001
0010
0001
0100
,  // measure 46
2000
0000
3010
0000
0011
0000
0001
0100
,  // measure 47
1000
1000
0001
0010
,  // measure 48
1000
0011
0011
1000
,  // measure 49
1001
0100
1000
0010
,  // measure 50
0002
0000
0103
0000
0110
0000
1000
0010
,  // measure 51
0001
0001
1100
0100
,  // measure 52
0001
0000
0001
0000
0001
0000
0100
0010
,  // measure 53
0100
1000
1000
0011
,  // measure 54
1000
0000
1000
0000
1000
0000
0010
0100
,  // measure 55
0010
0001
0001
1100
,  // measure 56
0001
0010
0001
0100
,  // measure 57
2000
0000
3010
0000
0110
0000
0001
1000
,  // measure 58
0001
1000
0001
0010
,  // measure 59
1000
0011
0011
1000
,  // measure 60
1000
0100
1000
0010
,  // measure 61
0002
0000
0103
0000
0110
0000
1000
0001
,  // measure 62
1000
1000
1000
0011
,  // measure 63
0001
0010
0100
1000
0000
1000
0000
0000
,  // measure 64
1100
0100
0011
1000
,  // measure 65
1000
0010
0100
0001
0000
0001
0000
0000
,  // measure 66
0011
0010
0100
1000
,  // measure 67
1000
0001
1000
0001
0000
0001
0000
0000
,  // measure 68
0010
0100
0010
0100
0000
0000
1001
0000
,  // measure 69
0100
0010
0100
0010
0001
0100
0010
0100
,  // measure 70
1000
0100
0010
1001
,  // measure 71
1000
0011
0011
1001
,  // measure 72
0010
0000
0010
0100
0001
0000
0001
0000
,  // measure 73
1000
0000
0001
0100
0010
0100
1000
0000
,  // measure 74
0001
0000
0100
0010
0001
0000
0010
0000
,  // measure 75
0100
0000
0010
0001
0010
0001
1000
0100
,  // measure 76
0001
0100
0001
1001
,  // measure 77
1000
0010
0100
0001
1000
0000
1001
0000
,  // measure 78
0010
0100
0010
1000
0001
0000
0110
0000
,  // measure 79
0100
0010
0001
0010
1000
0000
0110
0000
,  // measure 80
1000
0010
0100
0001
1000
0000
1001
0000
,  // measure 81
0001
0010
0100
1000
0001
0000
1001
0000
,  // measure 82
0010
0100
0010
0001
1000
0000
0110
0000
,  // measure 83
0100
0010
1000
0010
0001
0000
1001
0000
,  // measure 84
0010
0100
1000
0001
0100
0000
0110
0000
,  // measure 85
1000
0100
0010
0100
0001
0000
0110
0000
,  // measure 86
1000
0001
0110
0011
,  // measure 87
0011
1100
1100
1001
,  // measure 88
0100
0010
0001
0100
1000
0000
0110
0000
,  // measure 89
0001
0100
0010
0100
1000
0000
0110
0000
,  // measure 90
0001
1000
0110
1010
,  // measure 91
1010
0101
0101
1001
,  // measure 92
0001
0010
0001
0100
,  // measure 93
2000
0000
3100
0000
0110
0000
0001
0100
,  // measure 94
1000
1000
0001
0010
,  // measure 95
1000
0011
0011
1000
,  // measure 96
1000
0100
1000
0010
,  // measure 97
0002
0000
0013
0000
0110
0000
1000
0010
,  // measure 98
1000
0000
0000
1000
0000
0000
0001
0000
,  // measure 99
0000
0110
0000
1000
1000
0000
1001
0000
,  // measure 100
0100
0100
0010
1000
,  // measure 101
0002
0000
1003
0000
1001
0000
0001
0100
,  // measure 102
0001
0010
0100
1000
,  // measure 103
1000
0011
0011
1000
,  // measure 104
0010
0010
0100
0001
,  // measure 105
2000
0000
3001
0000
1001
0000
1000
0010
,  // measure 106
2000
3100
0020
0031
,  // measure 107
2000
3010
0200
0301
,  // measure 108
0002
0000
1000
1000
,  // measure 109
2000
0000
3003
0000
,  // measure 110
2000
3100
0020
0031
,  // measure 111
0200
0301
0002
1003
,  // measure 112
2002
3003
0000
0002
0003
0000
2000
3000
,  // measure 113
0000
0110
0000
0001
0001
0000
1001
0000
;

//---------------dance-single - ----------------
#NOTES:
     dance-single:
     :
     Hard:
     7:
     0.602,0.597,0.457,0.238,0.000: // measure 1
0001
0000
0000
1000
0000
0000
0010
0000
,  // measure 2
0010
0000
0000
0001
0000
0000
1000
0000
,  // measure 3
0002
0000
0203
0000
,  // measure 4
0320
0000
2030
3000
,  // measure 5
2002
0000
0000
0000
,  // measure 6
0000
0000
3003
0000
,  // measure 7
2000
0000
3020
0000
,  // measure 8
0230
0000
0302
0003
,  // measure 9
2002
0000
0000
0000
,  // measure 10
3003
0000
0000
0001
0001
0000
1000
0000
,  // measure 11
0001
0010
0001
0100
,  // measure 12
2000
0000
3100
0010
0100
0010
0001
0100
,  // measure 13
1000
1000
0001
0010
,  // measure 14
1000
0011
0011
1000
,  // measure 15
1000
0100
1000
0010
,  // measure 16
0002
0000
0013
0100
0010
0100
1000
0010
,  // measure 17
0001
0001
1000
0100
,  // measure 18
0001
1100
1100
0001
,  // measure 19
0100
0100
0010
1000
,  // measure 20
0002
0000
0013
1000
0100
1000
0001
0100
,  // measure 21
0001
0010
0100
1000
,  // measure 22
1000
0011
0011
1000
,  // measure 23
0010
0010
0100
0001
,  // measure 24
2000
0000
3100
0001
0010
0001
1000
0010
,  // measure 25
1000
0100
0010
0001
,  // measure 26
1000
0011
0011
1000
,  // measure 27
0001
0010
0100
0010
0100
1000
0010
0000
,  // measure 28
1000
0100
0010
0100
0010
0001
0100
0000
,  // measure 29
0001
0010
0100
0010
0100
1000
0010
0000
,  // measure 30
1000
0100
0010
0100
0010
0001
0100
0000
,  // measure 31
0010
0010
0001
1000
,  // measure 32
0002
1003
1100
0010
,  // measure 33
0100
0010
1000
0001
,  // measure 34
0010
1100
1100
0001
,  // measure 35
1000
0100
1000
0010
,  // measure 36
0002
0000
1003
0000
1100
0000
0001
0010
,  // measure 37
0001
0001
0010
0001
,  // measure 38
1000
1100
1100
0001
,  // measure 39
0100
0100
0010
1000
,  // measure 40
0002
0000
0103
0000
0110
0000
0001
0100
,  // measure 41
0001
0010
0100
1000
,  // measure 42
1000
0011
0011
1000
,  // measure 43
0010
0100
0010
0000
0100
0010
0100
0000
,  // measure 44
1000
0100
0010
0001
0100
0001
1000
0000
,  // measure 45
0001
0010
0001
0100
,  // measure 46
2000
0000
3010
0000
0011
0000
0001
0100
,  // measure 47
1000
1000
0001
0010
,  // measure 48
1000
0011
0011
1000
,  // measure 49
1001
0100
1000
0010
,  // measure 50
0002
0000
0103
0000
0110
0000
1000
0010
,  // measure 51
0001
0001
1100
0100
,  // measure 52
0001
0000
0001
0000
0001
0000
0100
0010
,  // measure 53
0100
1000
1000
0011
,  // measure 54
1000
0000
1000
0000
1000
0000
0010
0100
,  // measure 55
0010
0001
0001
1100
,  // measure 56
0001
0010
0001
0100
,  // measure 57
2000
0000
3010
0000
0110
0000
0001
1000
,  // measure 58
0001
1000
0001
0010
,  // measure 59
1000
0011
0011
1000
,  // measure 60
1000
0100
1000
0010
,  // measure 61
0002
0000
0103
0000
0110
0000
1000
0001
,  // measure 62
1000
0001
1000
0100
1000
0000
0011
0000
,  // measure 63
0001
0010
0100
0010
0100
1000
0010
0100
,  // measure 64
1000
0010
0100
1000
0001
0000
1000
0000
,  // measure 65
0001
0010
0100
1000
0100
1000
0001
0100
,  // measure 66
0001
0010
0100
1000
,  // measure 67
1000
0001
1000
0001
0010
0001
0100
0001
,  // measure 68
0010
0100
0010
0100
1000
0000
1001
0000
,  // measure 69
0100
0010
0100
0010
0001
0100
0010
0100
,  // measure 70
1000
0100
0010
1001
,  // measure 71
1000
0011
0011
1001
,  // measure 72
0010
0000
0010
0100
0001
0000
0001
0000
,  // measure 73
1000
0000
0001
0100
0010
0100
1000
0000
,  // measure 74
0001
0000
0100
0010
0001
0000
0010
0000
,  // measure 75
0100
0000
0010
0001
0010
0001
1000
0100
,  // measure 76
0001
0100
0001
1001
,  // measure 77
1000
0010
0100
0001
1000
0000
1001
0000
,  // measure 78
0010
0100
0010
1000
0001
0000
0110
0000
,  // measure 79
0100
0010
0001
0010
1000
0000
0110
0000
,  // measure 80
1000
0010
0100
0001
1000
0000
1001
0000
,  // measure 81
0001
0010
0100
1000
0001
0000
1001
0000
,  // measure 82
0010
0100
0010
0001
1000
0000
0110
0000
,  // measure 83
0100
0010
1000
0010
0001
0000
1001
0000
,  // measure 84
0010
0100
1000
0001
0100
0000
0110
0000
,  // measure 85
1000
0100
0010
0100
0001
0000
0110
0000
,  // measure 86
1000
0001
0110
0011
,  // measure 87
0011
1100
1100
1001
,  // measure 88
0100
0010
0001
0100
1000
0000
0110
0000
,  // measure 89
0001
0100
0010
0100
1000
0000
0110
0000
,  // measure 90
0001
1000
0110
1010
,  // measure 91
1010
0101
0101
1001
,  // measure 92
0001
0010
0001
0100
,  // measure 93
1001
0000
0100
0010
0100
1000
0001
0100
,  // measure 94
1000
1000
0001
0010
,  // measure 95
1000
0000
0010
0100
0010
0001
1000
0100
,  // measure 96
1000
0100
1001
0010
,  // measure 97
0001
0000
0010
1000
0100
0010
1000
0001
,  // measure 98
1000
0000
0000
1001
0000
0000
0001
0000
,  // measure 99
0000
0110
0000
1000
1000
0000
1001
0000
,  // measure 100
0100
0100
0010
1000
,  // measure 101
0001
0000
1000
0100
1000
0100
0001
0010
,  // measure 102
0001
0010
0100
1000
,  // measure 103
1000
0000
0010
0100
0010
0001
1000
0100
,  // measure 104
0010
0010
0100
0001
,  // measure 105
1000
0000
0001
0010
0001
0100
1000
0010
,  // measure 106
1000
0100
0020
0031
,  // measure 107
2000
3010
0200
0301
,  // measure 108
0002
1000
1000
1000
,  // measure 109
2000
0000
3003
0000
,  // measure 110
2000
3100
0020
0031
,  // measure 111
0200
0301
0002
1003
,  // measure 112
2002
3003
0000
0002
0003
0000
2000
3000
,  // measure 113
0000
0110
0000
0001
0001
0000
1001
0000
;
