#TITLE:Jiyuu Eno Shoutai;
#SUBTITLE:;
#ARTIST:L'Arc-en-Ciel;
#TITLETRANSLIT:;
#SUBTITLETRANSLIT:;
#ARTISTTRANSLIT:;
#CREDIT:zimon@imut;
#BANNER:jiyuuenoshoutai-bn.png;
#BACKGROUND:jiyuuenoshoutai-bg.png;
#LYRICSPATH:;
#CDTITLE:;
#MUSIC:Jiyuu Eno Shoutai.mp3;
#OFFSET:-0.100;
#SAMPLESTART:34.583;
#SAMPLELENGTH:11.980;
#SELECTABLE:YES;
#BPMS:0.000=174.001;
#STOPS:187.000=1.000
;
#BGCHANGES:0.000=Jiyuu Eno Shoutai.avi=1.000=0=0=0,
99999=-nosongbg-=1.000=0=0=0 // don't automatically add -songbackground-
;

//---------------dance-single - ----------------
#NOTES:
     dance-single:
     :
     Beginner:
     2:
     0.270,0.287,0.129,0.073,0.000:
0000
0000
0000
0010
,
0000
0010
0000
0001
,
0000
1000
0000
0001
,
0000
1000
0000
0100
,
0000
1000
0000
1000
,
0000
0001
0000
1000
,
0000
0001
0000
0100
,
0000
0100
0000
0100
,
0000
0010
0000
0001
,
0000
0010
0000
0001
,
0000
0010
0000
0100
,
0000
1000
0000
0010
,
0000
1000
0000
0010
,
1000
1000
0000
0010
,
0001
0001
0000
0100
,
0100
0100
0000
1000
,
0100
0001
0000
0100
,
0100
0100
0000
0010
,
0001
1000
0000
0001
,
1000
0100
0000
0001
,
1000
0001
0000
0110
,
0000
1000
0000
0100
,
0000
0001
0000
1001
,
0000
1000
0000
0010
,
0000
0100
0000
0010
,
0000
0100
0000
1000
,
0000
0001
0000
1100
,
0000
0100
0000
0010
,
0000
0101
0000
1000
,
0010
0001
0000
1000
,
1000
0001
0000
0100
,
0010
0100
0000
0010
,
0010
1000
0000
1000
,
1000
0001
0000
0100
,
0100
0001
0000
0100
,
0010
0001
0000
1000
,
0100
0010
0000
0100
,
0000
0000
1000
0000
0000
1000
0000
0000
,
0000
0011
0000
1000
,
0001
0100
0000
0001
,
1000
0100
0000
0100
,
0000
0000
1000
0000
0000
0001
0000
0000
,
0000
1010
0000
1000
,
0010
0010
0000
1000
,
0001
0100
0000
0001
,
0100
0010
0000
2002
,
0000
3003
0000
0100
,
0010
0000
0010
1000
,
0100
0000
0010
1000
,
0001
0000
0011
0000
,
1000
0001
0010
0000
,
0200
0000
0301
0000
,
2000
0000
3100
0000
,
0001
1000
1000
0000
,
0101
0000
0010
0010
,
0200
0000
0301
0000
,
0020
0000
1030
0000
,
1001
0000
1000
0001
,
0100
0000
1010
0000
,
0001
0001
0001
0000
,
1000
1000
1000
0000
,
0100
0100
0100
0000
,
0010
0010
0010
0000
,
1000
0000
0110
0000
,
0001
0000
1001
0000
,
1000
0001
1000
0000
,
1000
0100
0010
0000
,
0001
1000
0001
0000
,
0001
0010
0001
0000
,
1000
1000
0001
0000
,
0100
0001
0001
0000
,
1000
0010
0100
0000
,
0001
1000
0100
0000
,
2002
0000
0000
0000
,
0000
0000
0000
0000
,
0000
0000
0000
0000
,
0000
0000
0000
0000
,
0000
0000
0000
0000
,
3003
0000
0000
0000
;

//---------------dance-single - Copied from----------------
#NOTES:
     dance-single:
     Copied from:
     Easy:
     3:
     0.353,0.358,0.073,0.156,0.000:
0000
0000
0000
0010
,
0000
0010
1000
0001
,
0000
1000
0001
0001
,
0000
1000
0010
0100
,
0000
1000
0010
0010
,
0000
0001
1000
1000
,
0000
0001
0010
0100
,
0000
0100
0001
0100
,
0000
0010
1000
0001
,
0001
0010
0010
0001
,
0001
0010
0010
0100
,
0100
1000
1000
0010
,
0010
1000
1000
0010
,
1000
1000
0100
0010
,
0001
0001
1000
0000
,
0100
0100
0001
1000
,
0100
0001
1000
0000
,
0100
0100
1000
0010
,
0001
1000
1000
0000
,
1000
0100
0001
0001
,
1000
0001
1000
0220
,
0000
0330
0000
0001
,
0000
0001
0000
0000
0100
0000
2000
0000
,
0000
0000
0000
3010
,
0000
0100
0000
0000
0100
0000
0010
0000
,
0000
0100
0000
0000
0001
0000
1000
0000
,
0000
0100
0000
0000
0010
0000
0002
0000
,
0000
0003
1000
0020
,
0000
0030
0000
0010
,
0010
0001
1000
1000
,
1000
0001
1000
0000
,
0010
0100
0010
0100
,
0001
1000
1000
0000
,
0001
0001
1000
0010
,
0100
0001
0001
0000
,
0001
0001
1000
0001
,
0100
0010
0001
0100
,
0000
0000
1000
0000
0000
2000
0000
0000
,
3000
0011
0000
1000
,
0001
0100
1000
0001
,
1000
0100
0100
0100
,
0000
0000
1000
0000
0000
0002
0000
0000
,
0003
1100
0000
1000
,
0010
0010
1000
1000
,
0001
0100
1000
0001
,
0100
0010
0100
2002
,
0000
0000
3003
0101
,
0010
1000
0010
1000
,
0100
0001
0010
1000
,
0001
0100
0011
1000
,
1000
0001
0010
1000
,
0200
0000
0301
1000
,
2000
0000
3100
0001
,
0001
1000
1000
0010
,
0001
0100
0010
0010
,
0200
0000
0301
1000
,
0020
0000
1030
0001
,
2002
0000
3003
0001
,
0100
0010
1000
1000
,
0001
0001
0001
0010
,
1000
1000
1000
0001
,
0100
0100
0100
1000
,
0010
0010
0010
1000
,
1000
0001
0100
1000
,
0001
1000
0001
0010
,
1000
0001
1000
0001
,
1000
0100
0010
1000
,
0001
0001
0001
0010
,
0001
0010
0001
0100
,
1000
1000
0001
0010
,
0100
1000
0001
0100
,
1000
0010
0100
0001
,
0001
1000
0100
0010
,
2002
0000
0000
0000
,
0000
0000
0000
0000
,
0000
0000
0000
0000
,
0000
0000
0000
0000
,
0000
0000
0000
0000
,
3003
0000
0000
0000
;

//---------------dance-single - Copied from Copied f----------------
#NOTES:
     dance-single:
     Copied from Copied f:
     Medium:
     5:
     0.428,0.430,0.450,0.248,0.000:
0000
0000
0000
0020
,
0000
0130
0000
0002
,
0000
1003
0001
2000
,
0000
3010
0000
0100
,
0000
1000
0000
0000
0010
0000
0020
0000
,
0000
0031
0000
0000
1000
0000
2000
0000
,
0000
3001
0000
0000
1000
0000
0200
0000
,
0000
0000
0301
0200
,
0000
0310
1000
0001
,
0001
0010
0010
0001
,
0001
0010
0010
0100
,
0100
1000
1000
0010
,
0010
1000
1000
0010
,
1000
1000
0100
0011
,
0001
0001
1000
1100
,
0100
0100
0010
1100
,
0100
0001
0100
0110
,
1000
0100
1000
0011
,
0001
1000
0100
0011
,
1000
0100
1000
0101
,
1000
0001
1000
0220
,
0000
0000
0330
0001
,
0000
0001
0000
0000
0100
0000
2000
0000
,
0000
0000
0000
3010
,
0000
0100
0000
0000
0100
0000
0020
0000
,
0000
0130
0000
0000
0001
0000
2000
0000
,
0000
3100
0000
0000
0010
0000
0002
0000
,
0000
0003
1000
0022
,
0000
0033
0000
0010
,
0010
0001
0100
1010
,
1000
0001
1000
1100
,
0010
0100
0010
1100
,
0001
1000
1000
0110
,
0001
0001
1000
1010
,
0100
0001
0001
0110
,
0001
0001
1000
0011
,
0100
0010
0001
0110
,
1000
0000
0101
0000
0000
2020
0000
0000
,
3030
0001
0100
1000
,
0001
0100
1001
0001
,
1000
0100
0011
0100
,
0001
0000
1010
0000
0000
0202
0000
0000
,
0303
1000
0100
1000
,
0010
0010
0001
1000
,
0001
1100
0010
0001
,
0100
0010
1000
1010
,
0100
0010
0001
0101
,
0020
1000
0000
1000
,
0000
1030
0002
0010
,
0000
0010
0000
0013
,
1000
0001
0110
1000
,
0200
0001
0000
0001
,
0000
0301
0100
0001
,
1100
0001
1000
0010
,
0101
0100
0010
0010
,
2000
0010
0000
0010
,
0000
3010
0100
0001
,
2002
0000
3003
0001
,
0100
0010
1000
0011
,
0001
0001
0100
0110
,
1000
1000
1100
1100
,
0010
0001
0100
1001
,
0010
0010
0011
0011
,
1000
0001
0100
1010
,
0001
1010
0001
0010
,
1000
0001
1000
0101
,
1000
0100
0010
0101
,
0001
1000
0001
1010
,
0001
0010
0001
1100
,
1000
1000
0001
0110
,
0100
0001
0001
0110
,
1001
0010
0100
1000
,
0101
1000
0100
0011
,
2002
0000
0000
0000
,
0000
0000
0000
0000
,
0000
0000
0000
0000
,
0000
0000
0000
0000
,
0000
0000
0000
0000
,
3003
0000
0000
0000
;

//---------------dance-single - Copied from Copied f----------------
#NOTES:
     dance-single:
     Copied from Copied f:
     Hard:
     8:
     0.584,0.609,0.248,0.184,0.000: // measure 1
0000
0000
0000
0020
,  // measure 2
0000
0130
0000
0002
,  // measure 3
0000
1003
0001
2000
,  // measure 4
0000
3010
0000
0100
,  // measure 5
0000
1000
0000
0000
0010
0000
0020
0000
,  // measure 6
0000
0031
0000
0000
1000
0000
2000
0000
,  // measure 7
0000
3001
0000
0000
1000
0000
0200
0000
,  // measure 8
0000
0000
0301
0200
,  // measure 9
0000
0000
0310
0000
1000
0000
0001
1000
,  // measure 10
0001
0000
0010
0100
0010
0000
0001
0010
,  // measure 11
0001
0000
0010
0100
0010
0000
0100
1000
,  // measure 12
0100
1000
0010
0100
0001
0000
0000
0001
,  // measure 13
0010
0100
1000
0100
1000
0010
0001
0000
,  // measure 14
1000
1000
0101
0010
,  // measure 15
0101
0100
1010
1100
,  // measure 16
0100
0100
0011
1000
,  // measure 17
0101
0001
1100
0110
,  // measure 18
1000
0100
1000
0011
,  // measure 19
0010
1100
0100
0011
,  // measure 20
1000
0100
1000
0101
,  // measure 21
1100
0010
1000
0220
,  // measure 22
0000
0000
0330
0001
,  // measure 23
1000
0001
0000
0000
0110
0000
1000
0001
,  // measure 24
0100
1000
0010
0001
0010
0000
0000
0100
,  // measure 25
0010
0100
0001
1000
0100
0000
0020
0000
,  // measure 26
0000
0130
0000
0000
1001
0000
2000
0000
,  // measure 27
0000
3100
0000
0000
0010
0000
0001
0000
,  // measure 28
0100
0001
0100
0010
1000
0000
0000
0001
,  // measure 29
0010
0001
0100
1000
0001
0000
0010
0100
,  // measure 30
0010
1000
0001
0010
0100
0001
1000
0100
,  // measure 31
1000
0010
0001
0001
1000
0000
0101
0000
,  // measure 32
0010
1000
0100
0001
0010
1000
0100
0001
,  // measure 33
0001
0100
1000
0100
1000
0000
1100
0000
,  // measure 34
0001
0010
0001
0010
1000
0100
0010
0001
,  // measure 35
0100
0010
0001
1000
0001
0000
0110
0000
,  // measure 36
0001
0010
0001
0100
1000
1000
0001
0010
,  // measure 37
0100
1000
0010
0100
0001
0000
0110
0000
,  // measure 38
1000
0010
0001
0001
1000
0100
0000
0010
,  // measure 39
0001
0100
0000
1000
0100
0010
1000
1000
,  // measure 40
0001
0010
0100
0100
1000
0000
0001
0010
,  // measure 41
1000
0010
0100
1000
0001
0000
0200
0000
,  // measure 42
0301
0001
1000
1000
0010
0001
0000
1000
,  // measure 43
0100
0010
1000
0001
0100
0000
1000
0100
,  // measure 44
0010
0001
0010
0100
0001
0000
1000
1000
,  // measure 45
0001
0100
0100
0000
0010
1000
0001
1000
,  // measure 46
0100
0001
0010
0100
1000
0100
1000
0001
,  // measure 47
0100
1000
0010
0100
0001
1000
0001
0000
,  // measure 48
0020
1000
0000
1000
,  // measure 49
0000
1030
0002
0010
,  // measure 50
0000
0010
0000
0013
,  // measure 51
1000
0010
0001
0100
0010
0001
1000
0000
,  // measure 52
0200
0001
0000
0001
,  // measure 53
0000
0000
0301
0000
0100
0010
0001
0010
,  // measure 54
0100
1000
0001
0010
1000
0001
0010
1000
,  // measure 55
0001
1000
0100
0100
0010
0001
0010
0000
,  // measure 56
2000
0010
0000
0010
,  // measure 57
0000
3010
0100
0001
,  // measure 58
2002
0000
0000
0000
3003
0000
0001
1000
,  // measure 59
0100
0010
0010
0001
1000
0100
0001
0000
,  // measure 60
0001
0010
0001
0010
0100
1000
0010
0001
,  // measure 61
1000
0100
1000
0100
1000
0000
1100
0000
,  // measure 62
0010
0100
0001
0010
0100
0010
1000
0100
,  // measure 63
0010
1000
0010
0001
0010
0000
1100
0000
,  // measure 64
0001
0010
0001
1000
0100
0010
1000
0100
,  // measure 65
0001
0000
1010
0000
0001
0100
0010
0001
,  // measure 66
1000
0100
0001
0100
1000
0010
0101
0010
,  // measure 67
1000
0001
0100
1000
0010
0000
0101
0000
,  // measure 68
0001
0100
1000
0100
0001
0100
1000
0000
,  // measure 69
0001
0001
0010
0001
0001
0100
1000
0000
,  // measure 70
1000
0100
1000
0010
0001
0010
0100
0000
,  // measure 71
0100
1000
0001
0010
0001
0010
0100
0000
,  // measure 72
0001
0100
0010
0001
0100
0010
1000
0001
,  // measure 73
0001
0100
1000
0010
0100
1000
0010
0100
,  // measure 74
2002
0000
0000
0000
,  // measure 75
0000
0000
0000
0000
,  // measure 76
0000
0000
0000
0000
,  // measure 77
0000
0000
0000
0000
,  // measure 78
0000
0000
0000
0000
,  // measure 79
3003
0000
0000
0000
;
