#TITLE:Hikayat Cinta;
#SUBTITLE:;
#ARTIST:Glenn Fredly Feat. Dewi Persik;
#TITLETRANSLIT:;
#SUBTITLETRANSLIT:;
#ARTISTTRANSLIT:;
#CREDIT:zimon@imut;
#BANNER:Hikayat Cinta-bn.png;
#BACKGROUND:Hikayat Cinta-bg.png;
#LYRICSPATH:;
#CDTITLE:zimon.png;
#MUSIC:Hikayat Cinta.mp3;
#OFFSET:-0.440;
#SAMPLESTART:0.050;
#SAMPLELENGTH:12.000;
#SELECTABLE:YES;
#BPMS:0.000=196.001;
#STOPS:;
#BGCHANGES:0.000=Hikayat Cinta.avi=1.000=1=1=0,
99999=-nosongbg-=1.000=0=0=0 // don't automatically add -songbackground-
;

//---------------dance-single - ----------------
#NOTES:
     dance-single:
     :
     Beginner:
     2:
     0.235,0.238,0.012,0.035,0.000:
0001
0000
0000
1000
0000
0000
0001
0000
,
0000
0000
0000
0100
0000
0000
0001
0000
,
0000
0000
0000
1000
0000
0000
1000
0000
,
0000
0000
0001
0000
,
1000
0000
0000
0010
0000
0000
0010
0000
,
0000
0000
0000
0010
0000
0000
1000
0000
,
0000
0000
0000
0001
0000
0000
0100
0000
,
0000
0010
0010
0000
,
2002
0000
0000
0000
,
0000
0000
3003
0000
,
0000
0010
0000
0000
0100
0000
0000
0000
,
0000
0001
0000
0000
0010
0000
0000
0000
,
0000
0100
0000
0000
1000
0000
0000
0000
,
0000
0100
0000
0000
0000
0100
0000
0000
,
0000
1000
0000
0000
0010
0000
0000
0000
,
0000
0001
0000
0000
0010
0000
0000
0000
,
0000
0100
0000
0000
1000
0000
0000
0000
,
0000
0100
0000
0000
0000
0010
0000
0000
,
0000
0001
0000
0000
0010
0000
0000
0000
,
0000
0001
0000
0000
0100
0000
0000
0000
,
0000
0100
0000
0000
1000
0000
0000
0000
,
0000
0100
0000
0000
0000
0100
0000
0000
,
0000
0001
0000
0000
1000
0000
0000
0000
,
0000
0100
0000
0000
0010
0000
0000
0000
,
0000
0100
0000
0000
1000
0000
0000
0000
,
0000
0100
0000
0000
0000
1000
0000
0000
,
0000
1000
0000
0000
0001
0000
0000
0000
,
0000
0001
0000
0000
0010
0000
0000
0000
,
0000
0100
0000
0000
1000
0000
0000
0000
,
0000
0010
0000
0000
0000
0100
0000
0000
,
0000
0001
0000
0000
0010
0000
0000
0000
,
0000
0100
0000
0000
0100
0000
0000
0000
,
0000
0100
0000
0000
1000
0000
0000
0000
,
0000
0100
0000
0000
0000
0001
0000
0000
,
0000
1000
0000
0000
0001
0000
0000
0000
,
0000
0100
0000
0000
0000
0100
0000
0000
,
0000
0001
0000
0000
0100
0000
0000
0000
,
0000
0001
0000
0000
0010
0000
0000
0000
,
0000
0100
0000
0000
0010
0000
0000
0000
,
0000
0100
0000
0000
0000
1000
0000
0000
,
0000
0001
0000
0000
0010
0000
0000
0000
,
0000
0100
0000
0000
0100
0000
0000
0000
,
0000
0010
0000
0000
0100
0000
0000
0000
,
0000
0100
0000
0000
0000
0100
0000
0000
,
0000
0010
0000
0000
0010
0000
0000
0000
,
0000
0001
0000
0000
0100
0000
0000
0000
,
0000
0010
0000
0000
0100
0000
0000
0000
,
0000
0100
0000
0000
0000
0100
0000
0000
,
0000
1000
0000
0000
0010
0000
0000
0000
,
0000
1000
0000
0000
0100
0000
0000
0000
,
0000
0100
0000
0000
1000
0000
0000
0000
,
0000
0100
0000
0000
0000
0010
0000
0000
,
0000
0001
0000
0000
0010
0000
0000
0000
,
0000
1000
0000
0000
0100
0000
0000
0000
,
0000
0100
0000
0000
1000
0000
0000
0000
,
0000
0010
0000
0000
0000
0100
0000
0000
,
0000
0001
0000
0000
0010
0000
0000
0000
,
0000
0010
0000
0000
0100
0000
0000
0000
,
0000
0100
0000
0000
0010
0000
0000
0000
,
0000
0100
0000
0000
0000
1000
0000
0000
,
0000
0001
0000
0000
0100
0000
0000
0000
,
0000
0010
0000
0000
0100
0000
0000
0000
,
0000
0100
0000
0000
0010
0000
0000
0000
,
0000
0001
0000
0000
0000
1000
0000
0000
,
0000
1000
0000
0000
0010
0000
0000
1000
,
0000
0100
0000
0000
0010
0000
0000
1000
,
0000
0100
0000
0000
0001
0000
0000
0010
,
2000
0000
3000
0000
;

//---------------dance-single - ----------------
#NOTES:
     dance-single:
     :
     Easy:
     3:
     0.354,0.278,0.012,0.035,0.000: // measure 1
0001
0000
0000
1000
0000
0000
0001
0000
,  // measure 2
0000
0000
0000
0100
0000
0000
0001
0000
,  // measure 3
0000
0000
0000
1000
0000
0000
0010
0000
,  // measure 4
0000
0100
0001
0001
,  // measure 5
1000
0000
0000
0001
0000
0000
1000
0000
,  // measure 6
0000
0000
0000
0010
0000
0000
1000
0000
,  // measure 7
0000
0000
0000
0001
0000
0000
0100
0000
,  // measure 8
0000
0010
1000
0001
,  // measure 9
2002
0000
0000
0000
,  // measure 10
0000
0000
3003
0000
,  // measure 11
0000
0010
0000
0000
0100
0000
0000
1000
,  // measure 12
0000
0001
0000
0000
0010
0000
0000
0100
,  // measure 13
0000
0100
0000
0000
1000
0000
0000
0010
,  // measure 14
0000
0100
0000
0001
0000
0010
0000
0010
,  // measure 15
0000
1000
0000
0000
0010
0000
0000
1000
,  // measure 16
0000
0001
0000
0000
0010
0000
0000
0100
,  // measure 17
0000
0100
0000
0000
1000
0000
0000
0100
,  // measure 18
0000
0100
0000
0001
0000
1000
0000
1000
,  // measure 19
0000
0001
0000
0000
0010
0000
0000
0001
,  // measure 20
0000
0001
0000
0000
0100
0000
0000
1000
,  // measure 21
0000
0100
0000
0000
1000
0000
0000
0100
,  // measure 22
0000
0100
0000
0010
0000
1000
0000
1000
,  // measure 23
0000
0001
0000
0000
1000
0000
0000
0100
,  // measure 24
0000
0100
0000
0000
0010
0000
0000
0001
,  // measure 25
0000
0100
0000
0000
1000
0000
0000
0010
,  // measure 26
0000
0100
0000
0001
0000
0100
0000
0100
,  // measure 27
0000
1000
0000
0000
0001
0000
0000
1000
,  // measure 28
0000
0001
0000
0000
0010
0000
0000
0001
,  // measure 29
0000
0100
0000
0000
1000
0000
0000
0100
,  // measure 30
0000
0010
0000
0001
0000
1000
0000
1000
,  // measure 31
0000
0001
0000
0000
0010
0000
0000
1000
,  // measure 32
0000
0100
0000
0000
0100
0000
0000
1000
,  // measure 33
0000
0100
0000
0000
1000
0000
0000
0010
,  // measure 34
0000
0100
0000
0001
0000
0010
0000
0010
,  // measure 35
0000
1000
0000
0000
0001
0000
0000
1000
,  // measure 36
0000
0100
0000
0100
0000
0010
0000
1000
,  // measure 37
0000
0001
0000
0000
0100
0000
0000
0100
,  // measure 38
0000
0001
0000
0000
0010
0000
0000
1000
,  // measure 39
0000
0100
0000
0000
0010
0000
0000
0010
,  // measure 40
0000
0100
0000
1000
0000
0100
0000
0100
,  // measure 41
0000
0001
0000
0000
0010
0000
0000
1000
,  // measure 42
0000
0100
0000
0000
0100
0000
0000
1000
,  // measure 43
0000
0010
0000
0000
0100
0000
0000
0010
,  // measure 44
0000
0100
0000
1000
0000
0001
0000
0001
,  // measure 45
0000
0010
0000
0000
0010
0000
0000
1000
,  // measure 46
0000
0001
0000
0000
0100
0000
0000
1000
,  // measure 47
0000
0010
0000
0000
0100
0000
0000
0010
,  // measure 48
0000
0100
0000
0001
0000
0100
0000
0001
,  // measure 49
0000
1000
0000
0000
0010
0000
0000
1000
,  // measure 50
0000
1000
0000
0000
0100
0000
0000
0010
,  // measure 51
0000
0100
0000
0000
1000
0000
0000
0010
,  // measure 52
0000
0100
0000
0001
0000
1000
0000
1000
,  // measure 53
0000
0001
0000
0000
0010
0000
0000
0100
,  // measure 54
0000
1000
0000
0000
0100
0000
0000
0010
,  // measure 55
0000
0100
0000
0000
1000
0000
0000
0010
,  // measure 56
0000
0010
0000
1000
0000
0100
0000
1000
,  // measure 57
0000
0001
0000
0000
0010
0000
0000
1000
,  // measure 58
0000
0010
0000
0000
0100
0000
0000
1000
,  // measure 59
0000
0100
0000
0000
0010
0000
0000
0010
,  // measure 60
0000
0100
0000
0010
0000
1000
0000
1000
,  // measure 61
0000
0001
0000
0000
0100
0000
0000
1000
,  // measure 62
0000
0010
0000
0000
0100
0000
0000
1000
,  // measure 63
0000
0100
0000
0000
0010
0000
0000
0010
,  // measure 64
0000
0001
0000
1000
0000
0100
0000
0010
,  // measure 65
0000
1000
0000
0000
0010
0000
0000
1000
,  // measure 66
0000
0100
0000
0000
0010
0000
0000
1000
,  // measure 67
0000
0100
0000
0000
0001
0000
0000
0010
,  // measure 68
2000
0000
3000
0000
;

//---------------dance-single - ----------------
#NOTES:
     dance-single:
     :
     Medium:
     5:
     0.406,0.436,0.012,0.047,0.000:
0001
0000
0000
1000
0000
0000
0001
0000
,
0001
0000
0000
0100
0000
0000
0001
0000
,
1000
0000
0000
1000
0000
0000
0010
0000
,
0010
0000
0100
0000
0001
1000
0001
0000
,
1000
0000
0000
0001
0000
0000
1000
0000
,
1000
0000
0000
0010
0000
0000
1000
0000
,
0001
0000
0000
0001
0000
0000
0100
0000
,
0100
0000
0010
0000
1000
0001
1000
0000
,
2002
0000
0000
0000
,
0000
0000
3003
0000
,
0000
0010
0000
0000
0100
0000
0000
1000
,
0000
0001
0000
0000
0010
0000
0000
0100
,
0000
0100
0000
0000
1000
0000
0000
0010
,
0000
0100
0000
0001
0000
0010
0010
0010
,
0000
1000
0000
0000
0010
0000
0000
1000
,
0000
0001
0000
0000
0010
0000
0000
0100
,
0000
0100
0000
0000
1000
0000
0000
0100
,
0000
0100
0000
0001
0000
1000
1000
1000
,
0000
0001
0000
0000
0010
0000
0000
0001
,
0000
0001
0000
0000
0100
0000
0000
1000
,
0000
0100
0000
0000
1000
0000
0000
0100
,
0000
0100
0000
0010
0000
1000
1000
1000
,
0000
0001
0000
0000
1000
0000
0000
0100
,
0000
0100
0000
0000
0010
0000
0000
0001
,
0000
0100
0000
0000
1000
0000
0000
0010
,
0000
0100
0000
0001
0000
0100
0100
0100
,
0000
1000
0000
0000
0001
0000
0000
1000
,
0000
0001
0000
0000
0010
0000
0000
0001
,
0000
0100
0000
0000
1000
0000
0000
0100
,
0000
0010
0000
0001
0000
1000
0100
1000
,
0000
0001
0000
0000
0010
0000
0000
1000
,
0000
0100
0000
0000
0100
0000
0000
1000
,
0000
0100
0000
0000
1000
0000
0000
0010
,
0000
0100
0000
0001
0000
0010
0001
0010
,
0000
1000
0000
0000
0001
0000
0000
1000
,
0000
0100
0010
0100
0010
0100
0010
1000
,
0000
0001
0000
0000
0100
0000
0000
0100
,
0000
0001
0000
0000
0010
0000
0000
1000
,
0000
0100
0000
0000
0010
0000
0000
0010
,
0000
0100
0000
1000
0000
0100
0010
0100
,
0000
0001
0000
0000
0010
0000
0000
1000
,
0000
0100
0000
0000
0100
0000
0000
1000
,
0000
0010
0000
0000
0100
0000
0000
0010
,
0000
0100
0000
1000
0000
0001
1000
0001
,
0000
0010
0000
0000
0010
0000
0000
1000
,
0000
0001
0000
0000
0100
0000
0000
1000
,
0000
0010
0000
0000
0100
0000
0000
0010
,
0000
0100
0000
0001
0000
0100
1000
0100
,
0000
1000
0000
0000
0010
0000
0000
1000
,
0000
1000
0000
0000
0100
0000
0000
0010
,
0000
0100
0000
0000
1000
0000
0000
0010
,
0000
0100
0000
0001
0000
1000
0001
1000
,
0000
0001
0000
0000
0010
0000
0000
0100
,
0000
1000
0000
0000
0100
0000
0000
0010
,
0000
0100
0000
0000
1000
0000
0000
0010
,
0000
0010
0000
1000
0000
0100
0010
0100
,
0000
0001
0000
0000
0010
0000
0000
1000
,
0000
0010
0000
0000
0100
0000
0000
1000
,
0000
0100
0000
0000
0010
0000
0000
0010
,
0000
0100
0000
0010
0000
1000
0001
1000
,
0000
0001
0000
0000
0100
0000
0000
1000
,
0000
0010
0000
0000
0100
0000
0000
1000
,
0000
0100
0000
0000
0010
0000
0000
0010
,
0000
0001
0000
1000
0000
0010
0001
0010
,
0000
2000
0000
3000
0000
0001
0000
1000
,
0010
1000
0000
0100
0001
0100
0000
1000
,
0010
1000
0000
0001
0010
0001
0000
0010
,
2000
0000
3000
0000
;

//---------------dance-single - ----------------
#NOTES:
     dance-single:
     :
     Hard:
     7:
     0.766,0.635,0.729,0.071,0.000:
0011
0000
0000
0010
0100
1000
0001
0000
,
1001
0000
0000
0100
0010
1000
0001
0000
,
1010
0000
0000
1000
0010
0100
0010
0000
,
0101
0000
1000
0010
0001
1000
0001
0000
,
0110
0000
0000
0001
0100
0010
1000
0000
,
1010
0000
0000
0010
0100
0001
1000
0000
,
0011
0000
0000
0001
1000
0010
0100
0000
,
1001
0000
0010
0001
1000
0001
1000
0000
,
2002
0000
0000
0000
,
0000
0000
3003
0000
,
0000
1010
0000
0001
0100
1000
0010
1000
,
0000
0011
0000
1000
0010
0100
1000
0010
,
0000
1100
0000
0001
1000
0010
0001
0010
,
0000
1100
0000
0001
1000
0010
0010
0010
,
0000
1001
0000
0001
0010
0100
0001
1000
,
0000
0011
0000
1000
0010
0100
0010
0100
,
0000
0011
0000
0010
1000
0100
1000
0100
,
0000
0110
0000
0001
0100
1000
1000
1000
,
0000
0011
0000
1000
0010
0100
0010
0001
,
0000
0101
0000
0010
0100
0001
0100
1000
,
0000
1100
0000
0010
1000
0100
0001
0100
,
0000
1100
0000
0010
0001
1000
1000
1000
,
0000
1001
0000
0010
1000
0100
0010
0100
,
0000
0110
0000
0001
0010
1000
0100
0001
,
0000
0110
0000
0001
1000
0100
0010
0010
,
0000
0110
0000
0001
1000
0100
0100
0100
,
0000
1001
0000
0010
0001
1000
0100
1000
,
0000
1001
0000
0100
0010
0100
0010
0001
,
0000
0101
0000
0010
1000
0100
0010
0100
,
0000
0011
0000
0001
0010
1000
0100
1000
,
0000
1001
0000
0100
0010
0100
0001
1000
,
0000
1100
0000
0010
0100
0010
0001
1000
,
0000
1100
0000
0010
1000
0100
0001
0010
,
0000
0110
0000
0001
0100
0010
0001
0010
,
0000
2002
0000
3003
0001
0010
0100
1000
,
0001
0100
0010
0100
0010
0100
0010
0001
,
0000
1001
0000
0010
0100
0010
1000
0100
,
0000
0011
0000
0100
0010
0001
0100
1000
,
0000
1100
0000
0001
0010
0100
0001
0010
,
0000
0110
0000
1000
0001
0100
0010
0100
,
0000
0011
0000
1000
0010
0100
0001
1000
,
0000
0101
0000
0010
0100
0100
0010
1000
,
0000
0110
0000
1000
0100
0010
0100
0010
,
0000
0101
0000
1000
0100
0001
1000
0001
,
0000
0110
0000
0001
0010
0100
0010
1000
,
0000
1001
0000
0010
0100
0010
0001
1000
,
0000
0110
0000
0001
0100
1000
0001
0010
,
0000
1100
0000
0001
0010
0100
1000
0100
,
0000
1001
0000
1000
0010
0001
0100
1000
,
0000
1001
0000
0010
0100
0100
0001
0010
,
0000
1100
0000
0001
1000
0100
0001
0010
,
0000
1100
0000
0001
0100
1000
0001
1000
,
0000
0011
0000
1000
0010
0100
0010
0100
,
0000
1001
0000
0010
0100
0001
0100
0010
,
0000
0101
0000
0001
1000
0100
1000
0010
,
0000
0110
0000
1000
0001
0100
0010
0100
,
0000
1001
0000
0100
0010
0001
0010
1000
,
0000
0110
0000
0001
0100
0010
0001
1000
,
0000
0110
0000
1000
0010
0100
0001
0010
,
0000
0101
0000
0010
0100
1000
0001
1000
,
0000
1002
0003
0100
0100
1000
0001
1000
,
0000
0110
0000
0001
0100
0001
0010
1000
,
0001
1100
0000
0100
0010
0100
0001
0010
,
0000
0001
0010
0001
0100
0010
0001
0010
,
0000
1100
0000
0001
1000
0010
0000
1000
,
0010
1000
0000
0100
0001
0100
0000
1000
,
0010
1000
0000
0001
0010
0001
0000
0010
,
2000
0000
3000
0000
;
