#TITLE:Cupid;
#SUBTITLE:;
#ARTIST:Fifty Fifty;
#TITLETRANSLIT:;
#SUBTITLETRANSLIT:;
#ARTISTTRANSLIT:;
#CREDIT:zimon@imut;
#BANNER:cupid-bn.png;
#BACKGROUND:cupid-bg.png;
#LYRICSPATH:;
#CDTITLE:zimon.png;
#MUSIC:cupid.mp3;
#OFFSET:-0.360;
#SAMPLESTART:50.100;
#SAMPLELENGTH:11.960;
#SELECTABLE:YES;
#BPMS:0.000=120.000;
#STOPS:;
#BGCHANGES:0.000=cupid.avi=1.000=0=0=0,
99999=-nosongbg-=1.000=0=0=0 // don't automatically add -songbackground-
;

//---------------dance-single - ----------------
#NOTES:
     dance-single:
     :
     Beginner:
     1:
     0.154,0.148,0.025,0.050,0.000:
1000
0000
0000
0000
0100
0000
0000
0001
,
0000
0000
0010
0000
,
0100
0000
0000
0000
1000
0000
0000
0010
,
0000
0000
0001
0000
,
1000
0000
0001
0000
,
1000
0000
0001
0000
,
0001
0000
1000
0000
,
0001
0000
1000
0000
,
0010
0000
1000
0000
,
0010
0000
1000
0000
,
0100
0000
0001
0000
,
0100
0000
0001
0000
,
1000
0000
1000
0000
,
0100
0000
1000
0000
,
0010
0000
0001
0000
,
1001
0000
0001
0000
,
1000
0000
0100
0000
,
1000
0000
0010
0000
,
0001
0000
0001
0000
,
0101
0000
0001
0000
,
0100
0000
1000
0000
,
1000
0000
1000
0000
,
0001
0000
0100
0000
,
0010
0000
0100
0000
,
0010
0000
0001
0000
,
0001
1000
1000
0000
,
0100
0000
0001
0000
,
1000
0100
0100
0000
,
0001
0000
0010
0000
,
0100
0010
0010
0000
,
0001
0000
1000
0000
,
0010
0001
0001
0000
,
0020
0000
0000
0000
0030
0000
0000
0001
,
0000
0000
1000
0000
,
0002
0000
0000
0000
0003
0000
0000
0100
,
0000
0000
0010
0000
,
2000
0000
0000
0000
3000
0000
0000
0100
,
0000
0000
0100
0000
,
0002
0000
0000
0000
0003
0000
0000
0010
,
0000
0000
0000
1000
0000
0000
0000
0001
;

//---------------dance-single - Copied from----------------
#NOTES:
     dance-single:
     Copied from:
     Easy:
     3:
     0.278,0.247,0.074,0.137,0.000:
1000
0000
0000
0000
0100
0000
0000
0001
,
0000
0000
0010
1000
,
0100
0000
0000
0000
1000
0000
0000
0010
,
0000
0000
0001
0010
,
1000
1000
1000
0001
,
1000
0001
0001
1000
,
0010
0100
0001
0010
,
1000
0001
1000
0001
,
1000
1000
0100
0100
,
0010
0100
1000
0010
,
0010
0100
0010
1000
,
0100
0001
0001
0100
,
1000
0001
1000
0001
,
0001
0100
1000
0100
,
0001
1000
0001
0200
,
0000
0320
0000
0030
,
1000
0100
1000
0001
,
1000
0001
0010
0100
,
0001
0010
0001
0010
,
0001
0100
0001
0100
,
0100
0010
1000
0001
,
1000
0010
1000
0001
,
1000
0001
0100
0010
,
0010
0001
0100
1001
,
0010
0100
0001
0100
,
0001
0001
1000
0110
,
0001
0001
0001
1000
,
0101
1000
1000
1000
,
0010
0010
0010
1000
,
0100
0010
1000
0011
,
0001
1000
0100
0001
,
0100
0010
0100
1100
,
0020
0000
0000
1030
0000
0000
0002
0000
,
0000
0003
1000
0010
,
0002
0000
0000
0000
0103
0000
0000
2020
,
0000
0000
3030
0001
,
2000
0000
0000
3010
0000
0000
2000
0000
,
0000
3000
0100
0010
,
0002
0000
0000
0000
0103
0000
0100
0020
,
0000
0000
0000
0030
0000
0100
0001
1000
;

//---------------dance-single - Copied from Copied f----------------
#NOTES:
     dance-single:
     Copied from Copied f:
     Medium:
     6:
     0.408,0.346,0.422,0.161,0.000:
1000
0000
0000
0000
0100
0000
1000
0001
,
0000
0000
0010
1000
,
0101
0000
0000
0000
1000
0000
0100
0010
,
0000
1000
0011
0001
,
1100
1100
1000
0011
,
0001
0100
0001
0110
,
0001
1100
0001
1100
,
1000
0001
1100
0011
,
1000
0000
1010
0000
0100
0001
0100
0001
,
0000
0000
0100
0000
1000
0001
0010
0100
,
0010
0000
1000
0000
0010
0010
1000
0001
,
0000
0000
1010
0000
0001
0100
0100
0001
,
0000
0000
1001
0000
1000
1000
0001
0100
,
0000
0000
0101
0000
1000
0001
0100
0010
,
1000
1010
0001
0202
,
0000
0000
0000
0303
,
0010
0000
1100
0000
1000
0010
0001
0010
,
0000
0000
0101
0000
0010
1000
0100
0001
,
0001
0000
0110
0000
0001
1000
0010
0100
,
0000
0000
1100
0000
0001
0001
0100
1000
,
0100
0000
0011
0000
1000
0001
0001
0001
,
0000
0000
0110
0000
1000
0100
0001
0001
,
0000
0000
0011
0000
0100
1000
0010
0001
,
0000
0000
1001
0000
0100
0001
0010
0001
,
1000
0000
0100
0000
0001
0010
0100
1000
,
0000
0000
0110
0000
0100
0100
1000
1000
,
0001
0000
0011
0000
0010
1000
1000
0100
,
0000
0000
1010
0000
1000
0001
1000
0100
,
0010
0000
0011
0000
0010
0100
1000
0001
,
0000
0000
0110
0000
1000
0100
0010
0100
,
0001
0000
1100
0000
0100
0001
0001
0100
,
0000
0000
1010
0000
0100
0100
0001
1000
,
0020
0000
0000
1030
0000
0000
0202
0000
,
0000
0000
0303
1000
1000
0000
0010
0000
,
0002
0000
0000
0103
1000
0001
0000
2020
,
0000
0000
3030
0000
0001
1000
0001
0001
,
2000
0000
0000
3010
0000
0000
2200
0000
,
0000
0000
3300
0001
0100
1000
0100
0002
,
0000
0000
0003
1000
0100
1000
0100
0020
,
0000
0000
0000
0030
0000
1000
0001
1000
;

//---------------dance-single - Copied from Copied f----------------
#NOTES:
     dance-single:
     Copied from Copied f:
     Hard:
     7:
     0.433,0.421,0.161,0.223,0.000: // measure 1
1000
0000
0000
1000
0100
1000
0010
0002
,  // measure 2
0000
0013
0000
0100
0000
1000
0000
0002
,  // measure 3
0000
0003
0000
0010
1000
0010
0100
0001
,  // measure 4
0000
1000
0000
0010
0000
0001
0000
0001
,  // measure 5
1000
0000
1000
0000
1000
0001
0001
0200
,  // measure 6
0000
0000
0301
0000
0001
1000
1000
0010
,  // measure 7
0001
0000
1000
0000
0001
0100
0100
2000
,  // measure 8
0000
0000
3001
0000
0010
0010
0001
0010
,  // measure 9
1000
0000
1001
0000
0100
0001
0100
0002
,  // measure 10
0000
0000
0103
0000
1000
0001
0010
1000
,  // measure 11
0010
0000
1100
0000
0010
0010
1000
0002
,  // measure 12
0000
0000
1003
0000
1000
0100
0100
0001
,  // measure 13
0000
0000
1001
0000
1000
1000
0001
0100
,  // measure 14
0000
0000
0101
0000
1000
0001
0100
0010
,  // measure 15
1000
1010
0001
0202
,  // measure 16
0000
0000
0000
0303
,  // measure 17
0000
0000
1100
0000
1000
0010
0001
0010
,  // measure 18
0000
0000
0101
0000
0010
1000
0100
0001
,  // measure 19
0001
0000
0110
0000
0001
1000
0010
0100
,  // measure 20
0000
0000
1100
0000
0001
0001
0100
1000
,  // measure 21
0100
0000
0010
0000
1000
0001
0001
0001
,  // measure 22
0000
0100
0100
0010
1000
0100
0001
0001
,  // measure 23
0100
0000
0011
0000
0100
1000
0010
0002
,  // measure 24
0000
0000
1003
0000
0100
0100
0010
0100
,  // measure 25
0010
0000
0100
0000
0001
0010
0100
1000
,  // measure 26
1000
0001
0001
1000
0100
0100
0100
1000
,  // measure 27
0100
0010
0001
0100
0010
1000
1000
0001
,  // measure 28
0001
0100
1000
0100
1000
0001
1000
0100
,  // measure 29
0010
0100
0010
1000
0010
0100
1000
0100
,  // measure 30
0001
0010
0010
1000
1000
0100
0010
0100
,  // measure 31
0001
1000
0010
0001
1000
0100
0001
1000
,  // measure 32
1000
0000
1010
0000
0100
0100
0100
1000
,  // measure 33
0020
0000
0000
1030
0000
0000
0002
0000
,  // measure 34
0000
0000
0003
1000
1000
0000
0010
0000
,  // measure 35
0002
0000
0000
0103
1000
0001
0000
2020
,  // measure 36
0000
0000
3030
0000
0001
1000
0001
0001
,  // measure 37
2000
0000
0000
3010
0000
0000
2000
0000
,  // measure 38
0000
0000
3001
0010
0100
0010
0000
0002
,  // measure 39
0000
0000
0003
1000
0100
1000
0000
0020
,  // measure 40
0000
0000
0000
0130
0000
1000
0001
1000
;
