#TITLE:Barbie Girl;
#SUBTITLE:;
#ARTIST:Aqua;
#TITLETRANSLIT:;
#SUBTITLETRANSLIT:;
#ARTISTTRANSLIT:;
#CREDIT:zimon@imut;
#BANNER:Barbie Girl-bn.png;
#BACKGROUND:Barbie Girl-bg.png;
#LYRICSPATH:;
#CDTITLE:zimon.png;
#MUSIC:Barbie Girl.mp3;
#OFFSET:-0.870;
#SAMPLESTART:78.210;
#SAMPLELENGTH:11.000;
#SELECTABLE:YES;
#BPMS:0.000=130.000;
#STOPS:;
#BGCHANGES:0.000=Barbie Girl.avi=1.000=0=0=1,
99999=-nosongbg-=1.000=0=0=0 // don't automatically add -songbackground-
;

//---------------dance-single - ----------------
#NOTES:
     dance-single:
     :
     Beginner:
     2:
     0.203,0.240,0.104,0.096,0.000:
0010
0000
0100
0000
,
0001
0000
1000
0000
,
0010
0000
0100
0000
,
0010
0000
1000
0000
,
0001
0000
0010
0000
,
0001
0001
0001
0000
,
0100
0100
0100
0000
,
0010
0000
0010
0000
,
1000
0000
0001
0000
,
1000
1000
1000
0000
,
0010
0010
0010
0000
,
1000
0000
1000
0000
,
0001
0000
0001
0000
,
2002
3003
0000
0000
,
0001
0000
0001
0000
,
0001
0000
0010
0000
,
0100
0000
0100
0000
,
0001
0000
1001
0000
,
1000
0000
1000
0000
,
0001
0000
0100
0000
,
0100
0000
0100
0000
,
1000
0000
0010
0000
,
1000
0000
1100
0000
,
0001
0000
0011
0000
,
0100
0000
0001
0000
,
1000
0000
1000
0000
,
0010
0100
0010
0000
,
0001
1000
0001
0000
,
1000
0000
1000
0000
,
0001
0000
0110
0000
,
0001
0010
0001
0000
,
0100
1000
0100
0000
,
1000
0000
0100
0000
,
0010
0000
1000
0000
,
0002
0003
0200
0300
,
0010
0010
0010
0010
,
2000
3000
0200
0300
,
0001
0000
1000
0000
,
0002
0003
0200
0300
,
0010
0010
0010
0010
,
2000
3000
0200
0300
,
0001
0000
1000
0000
,
0001
0001
0001
0000
,
0100
0100
0100
0000
,
0100
0000
1000
0000
,
0001
0000
0110
0000
,
0010
0010
0010
0000
,
1000
1000
1000
0000
,
0100
0000
0100
0000
,
0001
0000
0110
0000
,
0100
0010
0100
0000
,
1000
0001
1000
0000
,
0001
0000
0100
0000
,
0001
0000
0010
0000
,
0001
0001
0001
0000
,
0100
0100
0100
0000
,
0100
0000
0010
0000
,
0100
0000
0010
0000
,
0001
0000
1010
0000
,
1000
0000
0101
0000
,
1000
0000
0010
0000
,
1000
0000
0100
0000
,
1000
0000
1100
0000
,
0010
0000
0110
0000
,
0001
0000
0110
0000
,
0001
0000
0100
0000
,
2002
3003
0000
0000
;

//---------------dance-single - ----------------
#NOTES:
     dance-single:
     :
     Easy:
     4:
     0.315,0.293,0.088,0.177,0.000:
0020
0030
0200
0300
,
0002
0003
2000
3000
,
0020
0030
0200
0300
,
0020
0030
2000
3000
,
0002
0003
0020
0030
,
0001
0001
0001
0001
,
0100
0100
0100
0100
,
0010
0001
0010
0001
,
1000
0100
1000
0100
,
1000
1000
1000
1000
,
0010
0010
0010
0010
,
1000
0001
1000
0001
,
0100
0100
0010
0010
,
2002
0000
3003
0000
,
0001
1000
0001
1000
,
0001
0010
0010
0010
,
0100
0100
0100
1000
,
0001
0001
1001
0000
,
1000
1000
1000
1000
,
0001
0001
0001
0001
,
0100
0010
0100
0010
,
1000
0100
1000
0100
,
0001
0001
1001
0000
,
0100
0100
0110
0000
,
0100
0010
0001
0001
,
1000
0001
1000
0001
,
0010
0100
0010
0100
,
0001
1000
0001
1000
,
1000
1000
0001
0010
,
0001
0010
0010
0110
,
0001
0010
0001
1000
,
0100
1000
0100
0100
,
1000
1000
0100
0010
,
0010
0001
1000
0001
,
0002
0003
0200
0300
,
0010
0010
0010
0010
,
2000
3000
0200
0300
,
0001
1000
1000
0001
,
0002
0003
0200
0300
,
0010
0010
0010
0010
,
2000
3000
0200
0300
,
0010
0100
0010
0100
,
0001
0001
0001
1000
,
0100
0100
0100
0010
,
1000
1000
1000
0001
,
0001
1000
0010
0100
,
0010
0010
0010
0001
,
1000
1000
1000
0010
,
0100
0001
0100
0010
,
0001
0100
0010
0110
,
0100
0010
0100
1000
,
1000
0001
1000
0001
,
0001
0100
0100
0100
,
0001
0010
0010
1000
,
0001
0001
0001
0010
,
0100
0100
0100
0001
,
0100
0010
0010
1000
,
0100
0100
0010
0100
,
0001
1000
1000
0001
,
1000
1100
0001
0011
,
1000
1000
0010
0010
,
1000
0010
0100
0001
,
0001
0001
1000
1000
,
0001
0101
0100
1010
,
0001
0001
0100
0100
,
1000
0010
0100
0001
,
2002
3003
0000
0000
;

//---------------dance-single - ----------------
#NOTES:
     dance-single:
     :
     Medium:
     5:
     0.409,0.426,0.257,0.145,0.000: // measure 1
0020
0030
0200
0300
,  // measure 2
0002
0003
2000
3000
,  // measure 3
0020
0030
0200
0300
,  // measure 4
0020
0030
2000
3000
,  // measure 5
0001
0010
0100
0000
0010
0100
1000
0000
,  // measure 6
0001
0000
0001
0000
1000
0100
0001
0000
,  // measure 7
0010
0000
0100
0000
1000
0001
1000
0000
,  // measure 8
0100
0000
0010
0000
0001
0010
0100
0000
,  // measure 9
1000
0011
0100
1100
,  // measure 10
1000
0000
0100
0000
0100
0010
0001
0000
,  // measure 11
1000
0000
0010
0000
0001
0001
1000
0000
,  // measure 12
0010
0000
0001
0000
0010
0010
0100
0000
,  // measure 13
0001
1100
0100
0011
,  // measure 14
1000
0001
0000
0001
0000
1010
0000
0000
,  // measure 15
0001
0000
1000
0000
0001
0100
0010
0000
,  // measure 16
1000
0000
1000
0000
0010
1000
0100
0000
,  // measure 17
0001
0000
1000
0000
0001
0010
1000
0000
,  // measure 18
0001
0000
0010
0000
0001
0010
0100
0000
,  // measure 19
1000
0000
0001
0000
1000
0100
0010
0000
,  // measure 20
0001
0000
0001
0000
0010
0001
0100
0000
,  // measure 21
1000
0000
0010
0000
1000
0010
0001
0000
,  // measure 22
1000
0000
0001
0000
1000
0010
0010
0000
,  // measure 23
1000
0011
0001
1100
,  // measure 24
0001
0010
1000
0000
0001
0000
0101
0000
,  // measure 25
0100
0110
0010
1001
,  // measure 26
0100
0001
0010
0000
1000
0000
1001
0000
,  // measure 27
0010
0000
0100
0000
1000
0100
1000
0000
,  // measure 28
0010
0000
0100
0000
0001
0010
0001
0000
,  // measure 29
1100
0000
0011
0000
1000
0100
0001
0000
,  // measure 30
0011
0000
1100
0000
0010
1000
0100
0000
,  // measure 31
0001
0000
0010
0000
1000
0100
1000
0000
,  // measure 32
0100
0000
1000
0000
0001
0010
0001
0000
,  // measure 33
1100
0000
0011
0000
0100
1000
0100
0000
,  // measure 34
0010
0000
0010
0000
1000
0100
0010
0000
,  // measure 35
0002
0000
0203
0000
,  // measure 36
0310
0000
1000
0000
0100
0000
0001
1000
,  // measure 37
2000
0000
3200
0000
,  // measure 38
0300
1000
0010
0100
0000
0100
0001
0100
,  // measure 39
0002
0000
0203
0000
,  // measure 40
0310
0000
0100
0000
0001
0000
0010
1000
,  // measure 41
2000
0000
3200
0000
,  // measure 42
0300
0010
0001
0001
0000
0100
0010
1000
,  // measure 43
0001
0000
1000
0000
0001
0100
0100
0000
,  // measure 44
1000
0000
0001
0000
0100
0010
0010
0000
,  // measure 45
0100
0000
1000
0000
0010
0100
0010
0000
,  // measure 46
0001
1100
0001
0110
,  // measure 47
0001
0000
0010
0000
0001
0010
0100
0000
,  // measure 48
0010
0000
0100
0000
1000
0010
0010
0000
,  // measure 49
0100
0000
0001
0000
0010
1000
0010
0000
,  // measure 50
0001
0110
0100
1001
,  // measure 51
0001
0000
1000
0000
0010
0100
0100
0000
,  // measure 52
1000
0000
0001
0000
1000
0010
0010
0000
,  // measure 53
0001
0000
0110
0000
0100
1000
0010
0000
,  // measure 54
0001
0110
0010
1100
,  // measure 55
0001
0000
0010
0000
0001
1000
1000
0000
,  // measure 56
0010
0000
1000
0000
1000
0100
0100
0000
,  // measure 57
0100
0000
0101
0000
0010
1000
0010
0000
,  // measure 58
0100
1001
0100
0110
,  // measure 59
0001
0001
1000
1000
,  // measure 60
0010
0001
0100
0010
1000
0100
0010
0000
,  // measure 61
1000
1000
0010
0010
,  // measure 62
1000
0010
0100
0001
0000
0100
0010
0001
,  // measure 63
1000
0110
1000
1001
,  // measure 64
0010
0001
0010
0000
0100
0010
0100
0001
,  // measure 65
0001
0110
0001
1001
,  // measure 66
1000
0100
0001
0010
0100
0001
1000
0001
,  // measure 67
2002
3003
0000
0000
;

//---------------dance-single - ----------------
#NOTES:
     dance-single:
     :
     Hard:
     7:
     0.478,0.426,0.273,0.145,0.000: // measure 1
0020
0030
0200
0300
,  // measure 2
0002
0003
2000
3000
,  // measure 3
0020
0030
0200
0300
,  // measure 4
0020
0030
2000
3000
,  // measure 5
0001
0010
0100
0000
0010
0100
1000
0000
,  // measure 6
0001
0000
0001
0000
1000
0100
0001
1000
,  // measure 7
0010
0000
0100
0000
1000
0001
1000
0010
,  // measure 8
0100
0000
1010
0000
0001
0010
0100
0010
,  // measure 9
1000
0000
0011
0000
0100
1000
0001
0001
,  // measure 10
1000
0000
0100
0000
0010
0010
0100
0001
,  // measure 11
1000
0000
0010
0000
0001
0001
1000
0100
,  // measure 12
0010
0000
0101
0000
0010
0010
0100
1000
,  // measure 13
0001
0000
1100
0000
0100
1000
0001
0100
,  // measure 14
1000
0001
0000
0001
0000
1010
0000
0000
,  // measure 15
0001
0000
1000
0000
0001
0100
0010
0001
,  // measure 16
1000
0000
1000
0000
0010
1000
0100
0010
,  // measure 17
0001
0000
1100
0000
0001
0010
1000
0100
,  // measure 18
0001
0000
0110
0000
0001
0010
0100
0001
,  // measure 19
1000
0000
0001
0000
1000
0100
0010
0001
,  // measure 20
0001
0000
0001
0000
0010
0001
0100
0100
,  // measure 21
1000
0000
0011
0000
1000
0010
0001
1000
,  // measure 22
1000
0011
1001
0110
,  // measure 23
1000
0100
0001
0100
0001
0000
1010
0000
,  // measure 24
0001
0010
1000
0010
1000
0000
0101
0000
,  // measure 25
0100
1000
0010
0100
0001
0000
1001
0000
,  // measure 26
0100
0001
0010
0100
1000
0000
1001
0000
,  // measure 27
0010
0001
0100
0010
1000
0100
1000
0000
,  // measure 28
0010
1000
0100
0010
0001
0010
0001
0000
,  // measure 29
1100
0000
0011
0000
1000
0100
0001
0000
,  // measure 30
0011
0000
1100
0000
0010
1000
0100
0000
,  // measure 31
0001
1000
0010
0100
1000
0100
1000
0000
,  // measure 32
0100
0001
1000
0010
0001
0010
0001
0000
,  // measure 33
1100
0000
0011
0000
0100
1000
0100
0000
,  // measure 34
0010
0100
0010
0001
1000
0100
0010
0000
,  // measure 35
2000
0000
3200
0000
,  // measure 36
0310
0001
1000
0010
0100
0001
1000
1000
,  // measure 37
0020
0000
0230
0000
,  // measure 38
0300
0001
0100
0001
0000
0100
1000
0100
,  // measure 39
0002
0000
0203
0000
,  // measure 40
0310
1000
0100
1000
0001
0010
0010
0100
,  // measure 41
2000
0000
3200
0000
,  // measure 42
0300
0010
0001
0100
0000
0100
0010
1000
,  // measure 43
0001
0000
1000
0000
0001
0100
0100
0010
,  // measure 44
1000
0000
0001
0000
0100
0010
0010
0001
,  // measure 45
0100
0000
1100
0000
1000
0001
0010
0100
,  // measure 46
0001
0000
1100
0000
0010
1000
0100
0001
,  // measure 47
0001
0000
0010
0000
0001
0100
0100
1000
,  // measure 48
0010
0000
0100
0000
1000
0010
0010
0001
,  // measure 49
0100
0000
0101
0000
0010
1000
0010
0001
,  // measure 50
0001
0000
1010
0000
0100
0010
1000
0010
,  // measure 51
0001
0000
1000
0000
0010
0100
0100
0010
,  // measure 52
1000
0000
0001
0000
1000
0010
0010
0100
,  // measure 53
0001
0000
0110
0000
0100
1000
0010
0001
,  // measure 54
0001
0000
0110
0000
0010
1000
0100
0010
,  // measure 55
0001
0000
0010
0000
0001
1000
1000
0100
,  // measure 56
0010
0000
1000
0000
1000
0100
0100
0010
,  // measure 57
0100
0000
0101
0000
0010
1000
0010
0100
,  // measure 58
0100
0000
1001
0000
0100
0001
1000
0010
,  // measure 59
0001
0001
1000
1000
,  // measure 60
0010
0001
0100
0010
1000
0100
0010
0000
,  // measure 61
1000
1000
0010
0010
,  // measure 62
1000
0010
0100
0001
0000
0100
0010
0001
,  // measure 63
1000
0110
1000
1001
,  // measure 64
0010
0001
0010
0000
0100
0010
0100
0001
,  // measure 65
0001
0110
0001
1001
,  // measure 66
1000
0100
0001
0010
0100
0001
1000
0001
,  // measure 67
2002
3003
0000
0000
;
