#TITLE:Answer The Phone;
#SUBTITLE:;
#ARTIST:Mina;
#TITLETRANSLIT:;
#SUBTITLETRANSLIT:;
#ARTISTTRANSLIT:;
#CREDIT:zimon@imut;
#BANNER:mina-bn.png;
#BACKGROUND:mina-bg.png;
#LYRICSPATH:;
#CDTITLE:zimon.png;
#MUSIC:mina.mp3;
#OFFSET:-2.401;
#SAMPLESTART:55.210;
#SAMPLELENGTH:10.920;
#SELECTABLE:YES;
#BPMS:0.000=108.000;
#STOPS:;
#BGCHANGES:0.000=mina.avi=1.000=0=0=0,
99999=-nosongbg-=1.000=0=0=0 // don't automatically add -songbackground-
;

//---------------dance-single - ----------------
#NOTES:
     dance-single:
     :
     Beginner:
     2:
     0.129,0.157,0.087,0.058,0.000:
1000
0000
1000
0000
,
0001
0000
0001
0000
,
1000
0000
1000
0000
,
0001
0000
0001
0000
,
0100
0000
0100
0000
,
0100
0000
0010
0000
,
0100
0000
0010
0000
,
0010
0000
0010
0000
,
1000
0000
0001
0000
,
1000
0000
0001
0000
,
0100
0000
0010
0000
,
0100
0000
0010
0000
,
0001
0000
0010
0000
,
0100
0000
1000
0000
,
0100
0000
0010
0000
,
0001
0000
0100
0000
,
1000
0000
0010
0000
,
0001
0000
1000
0000
,
0100
0000
1000
0000
,
0001
0000
0100
0000
,
0100
0000
0001
0000
,
0001
0000
1000
0000
,
0001
0000
0100
0000
,
0010
0000
0010
0000
,
1000
0000
0101
0000
,
0100
0000
0011
0000
,
0010
0000
1000
0000
,
1001
0000
1001
0000
,
1000
0000
1001
0000
,
0001
0000
0011
0000
,
0001
0000
0100
0000
,
1000
0000
1001
0000
,
0020
0000
0030
0000
,
0100
0000
0010
0000
,
0200
0000
0300
0000
,
0110
0000
1000
0000
,
0002
0000
0003
0000
,
0001
0000
0100
0000
,
0020
0000
0030
0000
,
1000
0100
0001
1000
,
0220
0000
0000
0330
;

//---------------dance-single - Copied from----------------
#NOTES:
     dance-single:
     Copied from:
     Easy:
     4:
     0.211,0.216,0.096,0.096,0.000:
1000
0000
1000
0000
,
0001
1000
0001
0000
,
1000
0000
1000
0000
,
0001
1000
0001
0000
,
0100
0000
0100
0000
,
0100
0010
0010
0000
,
0100
0000
0010
0000
,
0010
0100
0010
0000
,
1000
0100
0001
0100
,
1000
0000
0001
0000
,
0100
0001
0010
1000
,
0100
0000
0010
0000
,
0001
0100
0010
0001
,
0100
0001
1000
1001
,
0100
0001
0010
1000
,
1001
0010
0100
0010
,
2000
0000
3100
1000
,
0001
0100
1000
0001
,
0020
0000
1030
0001
,
0001
0010
0100
0010
,
0200
0000
0301
1000
,
0001
0010
1000
1000
,
0002
0000
0103
0010
,
0010
1000
0010
0100
,
1001
0000
0100
0001
,
0110
0000
0010
0100
,
1010
0000
1000
0100
,
0010
0100
1001
0010
,
1001
0001
0001
1000
,
0001
1000
0100
0100
,
0010
0100
0100
0001
,
1000
0010
1001
0000
,
0020
0000
0130
0001
,
0100
1000
0010
1000
,
0200
0000
0310
1000
,
0100
0001
1000
0100
,
0002
0000
1003
0100
,
0001
0010
0100
1000
,
0020
0000
0031
0100
,
1000
0110
0001
1000
,
0220
0000
0000
0330
;

//---------------dance-single - Copied from Copied f----------------
#NOTES:
     dance-single:
     Copied from Copied f:
     Medium:
     5:
     0.388,0.334,0.222,0.154,0.000:
1000
0000
0100
0010
1000
0100
0010
0000
,
1001
0000
1000
0001
0001
0010
0001
0000
,
1100
0000
0001
1000
1000
0010
0100
0000
,
0011
0000
1000
0010
0100
0010
0010
0000
,
0101
0000
1000
0001
0100
0001
0010
0000
,
0101
0000
0010
1000
0010
1000
0001
0000
,
1100
0000
0010
0100
0010
0100
0001
0000
,
1010
0000
0100
0010
0010
0100
0001
0000
,
1000
0010
0100
0010
0001
1000
0100
0001
,
1000
0020
0000
0000
0030
0000
0011
0000
,
0100
0010
0001
1000
0010
0100
1000
0001
,
0100
0200
0000
0000
0300
0000
1010
0000
,
1000
0100
0100
0010
0010
0100
1001
0000
,
0100
0010
0001
0010
0100
0010
1001
0000
,
0100
0010
1000
0100
0010
0100
1000
0001
,
0100
0001
0010
0100
0000
0001
0010
0001
,
2000
0000
3001
0100
0200
0000
0310
1000
,
1000
0001
0010
1000
0000
0010
0100
0001
,
0020
0130
0002
1003
,
0001
0100
0010
1000
0000
0001
0100
0001
,
0200
0301
0002
1003
,
0001
0100
0010
0010
0000
0100
1000
1000
,
0002
0103
0002
0013
,
0100
0001
1000
0100
0000
0000
0110
0000
,
1000
1000
1000
0001
0100
0000
1001
0000
,
0010
0010
0010
0100
0001
0000
0101
0000
,
1000
1000
0001
0001
1000
1000
0001
0001
,
0010
0010
0100
0010
1000
0000
0011
0000
,
0100
0100
0100
0010
0010
0000
1010
0000
,
0001
0001
1000
1000
0001
0000
1100
0000
,
0010
0100
0100
0010
0100
0010
0100
1000
,
0100
0100
0010
0001
0001
0000
1001
0000
,
0020
0100
0130
0011
,
0100
1000
1000
0010
0010
1000
1000
0001
,
0200
0010
0310
1100
,
0100
1000
0001
1000
0001
1000
0110
0000
,
0002
1000
1003
1100
,
0010
0010
0010
0100
0100
0001
1000
0001
,
0020
0000
0001
0000
0031
0100
0100
0000
,
1000
0010
0100
0010
0100
0001
1000
0000
,
0220
0000
0000
0330
;

//---------------dance-single - Copied from Copied f----------------
#NOTES:
     dance-single:
     Copied from Copied f:
     Hard:
     7:
     0.483,0.412,0.453,0.125,0.000: // measure 1
1000
0000
0101
1000
1000
0010
0101
1000
,  // measure 2
1010
0100
1000
0010
0010
0100
1001
1000
,  // measure 3
1010
0000
0101
0010
1000
0010
0100
1000
,  // measure 4
1010
0000
1001
0001
0100
0100
1010
0000
,  // measure 5
1100
0000
1010
0100
0100
1000
0010
0010
,  // measure 6
1100
0000
0011
0100
1000
0100
0011
0001
,  // measure 7
1100
0000
0011
0100
0010
0001
0101
0000
,  // measure 8
1010
0000
0100
0010
0010
1000
0011
0000
,  // measure 9
1000
0010
0100
0010
0100
0001
1000
0001
,  // measure 10
1000
0100
0010
0100
0001
1000
0110
0000
,  // measure 11
0100
0100
0001
1000
0010
0010
0001
1000
,  // measure 12
0100
0100
0001
0010
0010
1000
1100
0001
,  // measure 13
1000
0010
0100
0010
0100
0100
1001
0000
,  // measure 14
0100
0010
0001
0010
1000
0100
1001
0000
,  // measure 15
0100
1000
1000
0010
0010
0100
1000
0001
,  // measure 16
0010
0100
0110
0010
0100
0100
0010
0010
,  // measure 17
2000
0000
3001
0100
0200
0000
0310
0001
,  // measure 18
1000
0001
0010
0100
1000
0010
0101
1000
,  // measure 19
0020
0000
0130
0001
0002
0000
1003
1000
,  // measure 20
0001
0100
0010
0100
0100
0010
0110
0010
,  // measure 21
0200
0000
0301
1000
0100
0100
1000
0001
,  // measure 22
0011
0000
0110
1000
1000
0010
1100
0000
,  // measure 23
0012
0000
0103
0010
0002
0000
0013
0000
,  // measure 24
0100
0010
1000
0001
0001
1000
0110
0000
,  // measure 25
1001
0000
1000
0010
0100
0010
1001
1000
,  // measure 26
0010
0100
0010
0100
1001
0010
0101
0001
,  // measure 27
1000
1000
0001
0001
1000
1000
0001
0100
,  // measure 28
0010
0100
0100
1000
1001
0100
0011
0010
,  // measure 29
0100
1000
0100
0010
0010
0100
0110
0001
,  // measure 30
1000
1000
1000
0010
0100
1000
0110
0001
,  // measure 31
0010
0001
0100
0001
1000
1000
0001
0010
,  // measure 32
0100
0100
0010
0001
0001
0100
1001
0000
,  // measure 33
1020
0000
0100
0100
0130
0001
0001
1000
,  // measure 34
0100
0100
1000
0100
0010
0001
1000
1000
,  // measure 35
0201
0000
0010
0010
0310
1000
1000
0100
,  // measure 36
0100
0010
0001
0001
1000
0100
0110
1000
,  // measure 37
0012
0000
1000
1000
1003
0100
0100
1000
,  // measure 38
0010
0100
0010
0001
0100
0001
1000
1000
,  // measure 39
0021
0000
0001
0001
0031
0100
0100
0010
,  // measure 40
1000
0010
0100
0010
0100
0001
1010
0001
,  // measure 41
0220
0000
0000
0330
;

//---------------dance-double - Copied from Copied f----------------
#NOTES:
     dance-double:
     Copied from Copied f:
     Hard:
     10:
     0.405,0.353,0.250,0.125,0.000:
10000000
00000000
01000000
00000000
10000000
00100000
00100000
00000000
,
00010000
00000000
10000000
00000000
00100000
01000000
10000000
00000000
,
10000000
00000000
00010000
00000000
10000000
00100000
01000000
00000000
,
00110000
00000000
10000000
00000000
01000000
01000000
00100000
00000000
,
01010000
00000000
10000000
00000000
01000000
10000000
00100000
00000000
,
11000000
00000000
00100000
01000000
00100000
01000000
00010000
00000000
,
11000000
00000000
00100000
01000000
00100000
00010000
00010000
00000000
,
10100000
00000000
01000000
00100000
00100000
10000000
00010000
00000000
,
10000000
00000000
01000000
01000000
00010000
00010000
01000000
00000000
,
10000000
00000000
01000000
01000000
00010000
00010000
00100000
00000000
,
01000000
00000000
00010000
10000000
00100000
00100000
10000000
00000000
,
01000000
00000000
01000000
00100000
00100000
10000000
10000000
00000000
,
10010000
00000000
01000000
00100000
00100000
01000000
10010000
00000000
,
01000000
00000000
00010000
00100000
10000000
01000000
10010000
00000000
,
01000000
00000000
10010000
00000000
00100000
01000000
10010000
00000000
,
01000000
00000000
01100000
00000000
01000000
01000000
00110000
00000000
,
20000000
00000000
30010000
01000000
02000000
00000000
03100000
00000000
,
10000000
00000000
00100000
01000000
10000000
00100000
01010000
00000000
,
00200000
00000000
01300000
00010000
00020000
00000000
10030000
00000000
,
00010000
00000000
00100000
01000000
01000000
00100000
01100000
00000000
,
02000000
00000000
03010000
10000000
01000000
01000000
10000000
00010000
,
00010000
00000000
00100000
10000000
10000000
00100000
11000000
00000000
,
00020000
00000000
01030000
00100000
00020000
00000000
00130000
00000000
,
01000000
00100000
10000000
00010000
00010000
10000000
01100000
00000000
,
10010000
00000000
10000000
00100000
01000000
00100000
10010000
00000000
,
00100000
01000000
00100000
01000000
10010000
00100000
01010000
00000000
,
10000000
10000000
00010000
00010000
10000000
10000000
00010000
01000000
,
00100000
01000000
01000000
10000000
10010000
01000000
00110000
00000000
,
01000000
10000000
01000000
00100000
00100000
01000000
01100000
00000000
,
10000000
10000000
10000000
00100000
01000000
10000000
01000000
00010000
,
00100000
00010000
01000000
00010000
10000000
10000000
00010000
00100000
,
01000000
01000000
00100000
00010000
00010000
01000000
10010000
00000000
,
00200000
00000000
01000000
01000000
01300000
00010000
00010000
10000000
,
01000000
01000000
10000000
01000000
00100000
00010000
10000000
10000000
,
02000000
00000000
00100000
00100000
03100000
10000000
10000000
01000000
,
01000000
00100000
00010000
00010000
10000000
01000000
01100000
10000000
,
00020000
00000000
10000000
10000000
10030000
01000000
01000000
10000000
,
00100000
01000000
00100000
00010000
01000000
00010000
10000000
10000000
,
00200000
00000000
00010000
00010000
00310000
01000000
01000000
00100000
,
10000000
00100000
01000000
00100000
01000000
00010000
10000000
00010000
,
02200000
00000000
00000000
03300000
;

//---------------dance-double - Copied from Copied f----------------
#NOTES:
     dance-double:
     Copied from Copied f:
     Medium:
     6:
     0.336,0.334,0.241,0.135,0.000:
10000000
01000000
10000000
00100000
,
10010000
10000000
00010000
00010000
,
10000000
00010000
10000000
01000000
,
00110000
10000000
01000000
00100000
,
01010000
10000000
01000000
00100000
,
01000000
00100000
00100000
00010000
,
11000000
00100000
00100000
00010000
,
10100000
01000000
00100000
00010000
,
10000000
01000000
00010000
01000000
,
10000000
01000000
00010000
00100000
,
01000000
00010000
00100000
10000000
,
01000000
01000000
00100000
10000000
,
10010000
01000000
00100000
10010000
,
01000000
00010000
10000000
10010000
,
01000000
10010000
00100000
10010000
,
01000000
01100000
01000000
00110000
,
20000000
30010000
02000000
03100000
,
10000000
00000000
00100000
10000000
10000000
00000000
01010000
00000000
,
00200000
01300000
00020000
10030000
,
00010000
00000000
00100000
10000000
01000000
00000000
01100000
00000000
,
02000000
03010000
00020000
10030000
,
00010000
00000000
00100000
00100000
10000000
00000000
11000000
00000000
,
00020000
01030000
00020000
00130000
,
01000000
00000000
10000000
01000000
00010000
00000000
01100000
00000000
,
10000000
10000000
10000000
00010000
01000000
00000000
10010000
00000000
,
00100000
00100000
00100000
01000000
00010000
00000000
01010000
00000000
,
10000000
10000000
00010000
00010000
10000000
10000000
00010000
00010000
,
00100000
00100000
01000000
00100000
10010000
00000000
00110000
00000000
,
01000000
01000000
01000000
00100000
00100000
00010000
10100000
00000000
,
00010000
00010000
10000000
10000000
00010000
00010000
10000000
10000000
,
00100000
01000000
01000000
00100000
01000000
00100000
01000000
10000000
,
01000000
01000000
00100000
00010000
10010000
00000000
10010000
00000000
,
00200000
00000000
01000000
00000000
01300000
00010000
00010000
00000000
,
01000000
10000000
10000000
00100000
00100000
10000000
10000000
00010000
,
02000000
00000000
00100000
00000000
03100000
10000000
10000000
01000000
,
01000000
10000000
00010000
10000000
10000000
00000000
01100000
00000000
,
00020000
00000000
10000000
00000000
10030000
01000000
01000000
00000000
,
00100000
00100000
00100000
01000000
01000000
00010000
10000000
00000000
,
00200000
00000000
00010000
00000000
00310000
01000000
01000000
00000000
,
10000000
00100000
01000000
00100000
01000000
00010000
10000000
00000000
,
02200000
00000000
00000000
03300000
;

//---------------dance-double - Copied from Copied f----------------
#NOTES:
     dance-double:
     Copied from Copied f:
     Easy:
     4:
     0.211,0.216,0.096,0.096,0.000:
10000000
00000000
10000000
00000000
,
00010000
10000000
00010000
00000000
,
10000000
00000000
10000000
00000000
,
00010000
10000000
00010000
00000000
,
01000000
00000000
01000000
00000000
,
01000000
00100000
00100000
00000000
,
01000000
00000000
00100000
00000000
,
00100000
01000000
00100000
00000000
,
10000000
01000000
00010000
01000000
,
10000000
00000000
00010000
00000000
,
01000000
00010000
00100000
10000000
,
01000000
00000000
00100000
00000000
,
00010000
01000000
00100000
00010000
,
01000000
00010000
10000000
10010000
,
01000000
00010000
00100000
10000000
,
10010000
00100000
01000000
00100000
,
20000000
00000000
31000000
10000000
,
00010000
01000000
10000000
00010000
,
00200000
00000000
10300000
00010000
,
00010000
00100000
01000000
00100000
,
02000000
00000000
03010000
10000000
,
00010000
00100000
10000000
10000000
,
00020000
00000000
01030000
00100000
,
00100000
10000000
00100000
01000000
,
10010000
00000000
01000000
00010000
,
01100000
00000000
00100000
01000000
,
10100000
00000000
10000000
01000000
,
00100000
01000000
10010000
00100000
,
10010000
00010000
00010000
10000000
,
00010000
10000000
01000000
01000000
,
00100000
01000000
01000000
00010000
,
10000000
00100000
10010000
00000000
,
00200000
00000000
01300000
00010000
,
01000000
10000000
00100000
10000000
,
02000000
00000000
03100000
10000000
,
01000000
00010000
10000000
01000000
,
00020000
00000000
10030000
01000000
,
00010000
00100000
01000000
10000000
,
00200000
00000000
00310000
01000000
,
10000000
01100000
00010000
10000000
,
02200000
00000000
00000000
03300000
;

//---------------dance-double - Copied from----------------
#NOTES:
     dance-double:
     Copied from:
     Beginner:
     2:
     0.129,0.157,0.087,0.058,0.000:
10000000
00000000
10000000
00000000
,
00010000
00000000
00010000
00000000
,
10000000
00000000
10000000
00000000
,
00010000
00000000
00010000
00000000
,
01000000
00000000
01000000
00000000
,
01000000
00000000
00100000
00000000
,
01000000
00000000
00100000
00000000
,
00100000
00000000
00100000
00000000
,
10000000
00000000
00010000
00000000
,
10000000
00000000
00010000
00000000
,
01000000
00000000
00100000
00000000
,
01000000
00000000
00100000
00000000
,
00010000
00000000
00100000
00000000
,
01000000
00000000
10000000
00000000
,
01000000
00000000
00100000
00000000
,
00010000
00000000
01000000
00000000
,
10000000
00000000
00100000
00000000
,
00010000
00000000
10000000
00000000
,
01000000
00000000
10000000
00000000
,
00010000
00000000
01000000
00000000
,
01000000
00000000
00010000
00000000
,
00010000
00000000
10000000
00000000
,
00010000
00000000
01000000
00000000
,
00100000
00000000
00100000
00000000
,
10000000
00000000
01010000
00000000
,
01000000
00000000
00110000
00000000
,
00100000
00000000
10000000
00000000
,
10010000
00000000
10010000
00000000
,
10000000
00000000
10010000
00000000
,
00010000
00000000
00110000
00000000
,
00010000
00000000
01000000
00000000
,
10000000
00000000
10010000
00000000
,
00200000
00000000
00300000
00000000
,
01000000
00000000
00100000
00000000
,
02000000
00000000
03000000
00000000
,
01100000
00000000
10000000
00000000
,
00020000
00000000
00030000
00000000
,
00010000
00000000
01000000
00000000
,
00200000
00000000
00300000
00000000
,
10000000
01000000
00010000
10000000
,
02200000
00000000
00000000
03300000
;
