#TITLE:HAPPY ANGEL;
#SUBTITLE:;
#ARTIST:jun with TAHIRIH;
#TITLETRANSLIT:;
#SUBTITLETRANSLIT:;
#ARTISTTRANSLIT:;
#CREDIT:;
#BANNER:;
#BACKGROUND:;
#LYRICSPATH:;
#CDTITLE:;
#MUSIC:HAPPY ANGEL.mp3;
#OFFSET:0.000;
#SAMPLESTART:0.050;
#SAMPLELENGTH:12.000;
#SELECTABLE:YES;
#BPMS:0.000=180.000;
#STOPS:;
#BGCHANGES:;

//---------------dance-single - ----------------
#NOTES:
     dance-single:
     :
     Challenge:
     15:
     0.879,0.906,0.326,0.316,0.514: // measure 1
0000
0000
0000
0000
,  // measure 2
0000
0000
0000
0000
,  // measure 3
0000
0000
1000
0000
0100
0000
0010
0000
0100
0010
0100
0000
0010
0000
0001
0000
,  // measure 4
0010
0000
0001
0000
0100
0000
0010
0000
1000
0010
1000
0000
0010
0000
0100
0000
,  // measure 5
0010
0000
0100
0000
0001
0000
0010
0000
0100
1000
0010
0000
0100
0000
0001
0000
,  // measure 6
0100
0000
0001
0010
0001
0100
0001
1000
0100
1000
0010
0100
0001
0010
0100
1000
,  // measure 7
0000
0010
0100
1000
0100
0010
0100
0001
,  // measure 8
0010
0000
0100
0000
1000
0000
0001
0000
0010
0000
0001
0000
0100
0001
1000
0000
,  // measure 9
0000
0001
1000
0100
0010
0100
1000
0001
,  // measure 10
0010
0000
0100
0000
0010
0000
0001
0000
1000
0000
0001
0000
0100
0010
1000
0000
,  // measure 11
0000
0001
0100
0001
0010
0100
1000
0100
,  // measure 12
1000
0000
0001
0000
0010
0000
0100
0000
0001
0000
0010
0000
1000
0001
0100
0000
,  // measure 13
0000
0000
0100
0000
0100
0010
0001
0000
0001
0000
0100
0000
0100
0010
1000
0000
,  // measure 14
0100
0000
0010
0001
0020
0000
0130
1000
0200
0000
1300
0010
2000
0000
3001
0100
,  // measure 15
0002
0013
0100
1000
0010
0100
0010
0001
,  // measure 16
1001
0000
1000
0010
1000
0010
0100
0001
0100
0001
1000
0010
0100
0001
0010
0000
,  // measure 17
0000
0100
0001
1000
0010
0010
0100
0001
,  // measure 18
1000
0000
0001
0010
0001
0010
0100
1000
0010
1000
0100
0010
0001
0100
0010
0000
,  // measure 19
0000
1000
0001
1000
0001
0100
0010
0100
,  // measure 20
0010
0000
1000
0001
0100
0010
0100
0001
0010
0100
1000
0100
0010
0100
1000
0000
,  // measure 21
0000
0100
0010
1000
0001
0100
0010
0001
,  // measure 22
0010
0100
1000
0001
0100
0010
1000
0100
,  // measure 23
0000
1001
1001
1001
0002
0000
0013
0200
,  // measure 24
1000
2300
0000
0000
0100
3000
0001
0001
,  // measure 25
0010
0000
0200
0000
0000
1300
0100
0000
0100
0000
0110
0000
0000
0000
1001
0000
,  // measure 26
0000
0200
0000
0000
0302
0000
1003
0100
,  // measure 27
0001
0000
0100
0000
0000
0010
1000
0000
0001
0000
0110
0000
0000
0000
0100
0000
,  // measure 28
0100
0200
0000
0300
0020
0000
1030
0100
,  // measure 29
0010
0000
0001
0000
0000
0001
0010
0000
0000
0100
1000
0000
0000
0010
0100
0000
,  // measure 30
0000
1000
0010
0100
0001
0010
0100
1000
,  // measure 31
0001
1000
0000
1000
0010
0000
0100
0000
0010
0100
0000
0100
0010
0000
2000
0000
,  // measure 32
0000
3010
0000
0000
0102
0000
1003
0010
,  // measure 33
0100
0000
0210
0000
0000
0001
1300
0000
1000
0000
0100
0000
0000
0000
0110
0000
,  // measure 34
0000
2001
0000
3000
1000
0000
0001
0010
,  // measure 35
0001
0000
0020
0000
0000
0130
1000
0000
0001
0000
0001
0000
0000
0000
0011
0000
,  // measure 36
0000
2100
0000
0000
3100
0000
0001
0100
,  // measure 37
0001
1000
0100
0000
0000
0010
0001
0000
0000
1000
0001
0000
0000
0001
1000
0000
,  // measure 38
0000
1000
0100
0010
0001
0010
0100
1000
,  // measure 39
0001
0100
0010
0001
0000
0110
0000
1001
,  // measure 40
0000
0012
0000
0000
0010
0000
1000
1000
,  // measure 41
0100
0000
0200
0000
0303
0100
0001
0000
1000
0000
1000
0000
0000
0000
0110
0000
,  // measure 42
0000
2100
0000
0000
0001
0000
0001
0001
,  // measure 43
0010
0000
0020
0000
3030
0010
0100
0000
0100
0000
0001
0000
0000
0000
0110
0000
,  // measure 44
0000
0000
1002
0000
0000
0000
0000
0000
0020
0000
0000
0030
1000
0000
1000
0000
,  // measure 45
1000
0000
2003
0000
0000
3100
0010
0000
0000
0001
0100
0000
0000
0010
1000
0000
,  // measure 46
0000
2000
0000
3002
0000
1003
0000
0001
,  // measure 47
0000
1000
0001
0010
0100
0010
0001
1000
,  // measure 48
0100
0020
0000
0000
0000
0031
0000
0110
,  // measure 49
0000
0000
1001
0000
0000
0000
1000
0000
0001
0010
0001
0000
0000
0000
1001
0000
,  // measure 50
0000
0000
0110
0000
0000
0000
0001
0000
1000
0100
1000
0000
0000
0000
0001
0000
,  // measure 51
0000
0010
1000
0000
0000
1000
0010
0000
0000
0001
0100
0000
0000
0100
0001
0000
,  // measure 52
0000
0000
1000
0000
0100
0000
0001
0000
0100
0000
1000
0000
0010
0100
0001
0000
,  // measure 53
0010
0100
1000
0000
0000
1000
0010
0000
0000
0010
0100
0000
0000
0100
0001
0000
,  // measure 54
0000
0000
0100
0000
0001
0000
1000
0000
0010
0000
0100
0000
1000
0100
1000
0000
,  // measure 55
0010
0000
0100
0000
0001
0000
0010
0000
0001
0000
0100
0000
1000
0001
0100
0000
,  // measure 56
0100
0001
2000
0000
0000
0000
0000
0000
3100
0000
0000
0000
0010
0000
0010
0000
,  // measure 57
0010
0000
0010
0000
0000
0001
0010
0000
0100
0000
0100
0000
1000
0100
1000
0000
,  // measure 58
0001
0010
0002
0000
0000
0000
0000
0000
0103
0000
0000
0000
1010
0000
0010
0000
,  // measure 59
0110
0000
0100
0000
0000
0001
0100
0000
0100
0000
1000
0000
0100
0001
0100
0000
,  // measure 60
0010
1000
0020
0000
0000
0000
0000
0000
0130
0000
0000
0000
0010
0000
0011
0000
,  // measure 61
0100
0000
1100
0000
0000
0100
0010
0000
0000
1000
0010
0000
0000
0001
0100
0000
,  // measure 62
0000
1000
0001
0010
0001
0100
1000
0001
,  // measure 63
0100
1010
0000
0101
0000
0011
0000
1100
,  // measure 64
0000
0000
0100
0000
0010
0000
0100
0000
0010
0001
0100
0000
0010
0000
1000
0000
,  // measure 65
0001
0000
0100
0000
0010
0000
1000
0000
0010
0100
0001
0000
0100
0000
0010
0000
,  // measure 66
1000
0000
0010
0000
0100
0000
0001
0000
0010
0100
1000
0000
0100
0000
0010
0000
,  // measure 67
0001
0000
0010
0100
1000
0100
0010
0001
0010
0100
0010
0001
1000
0100
0010
0100
,  // measure 68
1000
0000
0010
0000
0100
0000
0010
0000
0100
0000
0001
0000
0010
0001
0100
0000
,  // measure 69
0010
0000
1000
0000
0100
0000
1000
0000
0010
0000
0100
0000
0001
0010
0100
0000
,  // measure 70
1000
0000
0010
0000
0100
0000
0001
0000
0010
0000
0001
0000
0100
0010
0100
0000
,  // measure 71
0100
0000
0001
0010
0001
1000
0010
1000
0100
1000
0100
0010
0001
0010
0001
0100
,  // measure 72
0010
1000
0010
0000
0000
0000
0000
0000
0000
0000
0000
0000
0000
0000
0000
0000
;
