#TITLE:ようこそジャパリパークへ;
#SUBTITLE:;
#ARTIST:どうぶつビスケッツ×PPP;
#TITLETRANSLIT:;
#SUBTITLETRANSLIT:;
#ARTISTTRANSLIT:;
#GENRE:;
#CREDIT:;
#BANNER:;
#BACKGROUND:japari-bg.png;
#LYRICSPATH:;
#CDTITLE:;
#MUSIC:japari.mp3;
#OFFSET:0.180000;
#SAMPLESTART:37.647404;
#SAMPLELENGTH:12.000000;
#SELECTABLE:YES;
#BPMS:0.000000=169.850006
;
#STOPS:
;
#BGCHANGES:2.000=japaripv.avi=1.000=1=0=1===CrossFade==,
99999=-nosongbg-=1.000=0=0=0 // don't automatically add -songbackground-
;
#KEYSOUNDS:;
#ATTACKS:;

//---------------dance-single - ----------------
#NOTES:
     dance-single:
     :
     Hard:
     12:
     0.610760,0.628211,0.796170,0.163596,0.114518,392.000000,319.000000,73.000000,15.000000,0.000000,0.000000,0.610760,0.628211,0.796170,0.163596,0.114518,392.000000,319.000000,73.000000,15.000000,0.000000,0.000000:
0000
0000
0000
0000
,
0000
0000
0000
0000
,
0000
0000
0000
0000
,
1000
0100
0010
0100
0000
0010
0100
1000
,
0000
0001
0100
0010
0000
0100
0001
1000
,
1100
0011
1010
0101
,
0010
1001
0100
1001
,
0220
0000
0000
0000
,
0330
0000
0000
0000
,
0001
0100
0001
0100
0010
0100
0010
0100
,
0010
1000
0010
1000
2002
0000
3003
0000
,
1001
0000
0000
0000
0110
0000
0000
1001
,
0000
0000
1000
0000
0010
0000
0100
0000
0001
0000
0000
0010
0000
0000
0100
0000
,
1000
0100
1000
0100
0010
0100
0010
0100
,
0010
0001
0010
0001
1000
0001
1000
0001
,
1001
0000
0100
0000
1001
0000
0010
0110
,
0000
0000
0001
0000
0010
0000
0100
0000
1000
0000
0000
0010
0000
0000
0100
0000
,
0001
0010
0001
0010
0001
0100
0001
0100
,
0010
0100
0010
0100
0010
1000
0001
0000
,
0100
0010
0001
0100
0010
1000
0001
0000
,
0100
0010
0110
0000
,
0100
1000
0001
0100
0010
0100
0001
0011
,
0000
1100
0000
1010
0000
0101
0000
0100
,
0020
0000
0032
0000
,
2003
0000
0000
0000
3200
0000
0300
0001
,
1001
0000
0010
0011
0000
1001
0000
1010
,
0000
0001
0100
1000
0200
0000
0000
0000
,
0300
0010
0100
1001
,
0001
0010
0100
0010
0000
0100
0010
0001
,
0000
1000
0010
0100
0000
0001
0100
0010
,
1010
1001
0110
1001
,
1000
0100
0001
0100
0000
0010
0110
0000
,
1000
0100
0010
0100
0000
0010
0100
1000
,
0000
0001
0100
0010
0000
0100
0001
1000
,
1100
0011
1010
0101
,
0010
1001
0100
1001
,
0220
0000
0330
1010
0000
0100
0000
0100
,
0010
0001
0100
1000
,
0010
0000
0000
0010
0000
0000
0001
0000
1000
0000
0000
1000
0000
0000
0010
0000
,
0100
0000
0000
0100
0000
0000
0010
0000
1001
0000
0000
0000
0000
0000
0100
0000
,
1000
0000
1000
0010
0000
0110
0000
0010
,
0001
0000
0001
0100
0000
0110
0000
1000
,
0100
0000
1000
0010
0000
0110
0000
0001
,
0100
0001
0010
1000
,
0001
0100
0001
0100
0010
0100
0010
0100
,
0010
1000
0010
1000
2002
0000
3003
0000
,
1000
0000
0000
1000
0010
0000
0000
0010
0100
0000
0000
0100
0001
0000
0000
0001
,
0010
0000
0000
0010
0001
0000
0000
0001
1000
0000
0000
1000
0100
0000
0000
0100
,
1000
0100
0010
0001
1000
0010
0100
0010
,
1000
0010
0000
0100
0000
0010
0110
0000
,
0100
0000
0000
0100
0010
0000
0000
0010
0001
0000
0000
0001
1000
0000
0000
1000
,
0100
0000
0000
0100
1000
0000
0000
1000
0001
0000
0000
0001
1000
0000
0000
1000
,
0010
0000
0010
0000
0001
0010
0100
0010
,
0001
0000
0100
0010
1010
0000
0000
0000
,
0101
0101
1100
1100
,
0101
1100
0101
1100
,
0110
0110
1001
1001
,
0100
0100
0001
0010
0100
0100
1000
0010
,
1010
1010
0011
0011
,
1010
0011
1010
0011
,
0110
0000
1001
0000
0110
0000
0100
0001
,
1000
0010
1000
0001
0010
0000
0000
0000
,
0110
0000
0000
0000
1001
0000
0000
0110
,
0000
0101
1001
0000
0220
0000
0000
0000
,
0330
0000
0000
0000
;

//---------------dance-double - ----------------
#NOTES:
     dance-double:
     :
     Hard:
     11:
     0.601412,0.628211,0.643480,0.130877,0.152690,386.000000,327.000000,59.000000,12.000000,0.000000,0.000000,0.601412,0.628211,0.643480,0.130877,0.152690,386.000000,327.000000,59.000000,12.000000,0.000000,0.000000:
// measure 0
00000000
00000000
00000000
00000000
,  // measure 1
00000000
00000000
00000000
00000000
,  // measure 2
00000000
00000000
00000000
00000000
,  // measure 3
00010000
00001000
00010000
00100000
00000000
00100000
10000000
00010000
,  // measure 4
00000000
00010000
00100000
01000000
00000000
01000000
10000000
00010000
,  // measure 5
00100000
00101000
00001000
00011000
,  // measure 6
00100000
01010000
00100000
01100000
,  // measure 7
20020000
00000000
00000000
00000000
,  // measure 8
30030000
00000000
00000000
00000000
,  // measure 9
10000000
01000000
10000000
01000000
00100000
00010000
00100000
00010000
,  // measure 10
00001000
00000100
00001000
00000100
00000010
00000001
00000010
00000001
,  // measure 11
00001001
00000000
00000000
00000000
00001010
00000000
00000000
00000110
,  // measure 12
00000000
00000000
00000100
00000000
00000001
00000000
00001000
00000000
00000100
00000000
00000000
00000010
00000000
00000000
00000001
00000000
,  // measure 13
00000010
00000100
00000010
00000100
00010000
00001000
00010000
00001000
,  // measure 14
01000000
00010000
01000000
00010000
00100000
01000000
00100000
01000000
,  // measure 15
11000000
00000000
00100000
00000000
10010000
00000000
01000000
00100000
,  // measure 16
00000000
00000000
00010000
00000000
10000000
00000000
01000000
00000000
00100000
00000000
00000000
00010000
00000000
00000000
00100000
00000000
,  // measure 17
01000000
10000000
01000000
10000000
00100000
01000000
00100000
01000000
,  // measure 18
01001000
00011000
00010100
00011000
,  // measure 19
00010000
00001000
00000100
00000001
00001000
00000000
00000110
00000000
,  // measure 20
00000001
00000100
00000010
00001000
00010000
00000000
00011000
00000000
,  // measure 21
00001000
00000010
00000100
00000000
00000001
00000010
00000100
00001100
,  // measure 22
00000000
00011000
00000000
00110000
00000000
10010000
00000000
01000000
,  // measure 23
20000000
00000000
30020000
00000000
,  // measure 24
00230000
00000000
00000000
00000000
00302000
00000000
00013000
00001000
,  // measure 25
00010000
00000000
00000100
00001000
00000000
00000100
00000010
00000001
,  // measure 26
00000000
00000100
00001000
00010000
00022000
00000000
00000000
00000000
,  // measure 27
00033000
00010000
00000100
00001001
,  // measure 28
00000100
00000010
00000100
00000001
00000000
00000001
00000010
00001000
,  // measure 29
00000000
00001000
00000010
00000100
00000000
00000100
00001000
00010000
,  // measure 30
00100000
01100000
00010000
01010000
,  // measure 31
00100000
00010000
00100000
00001000
00000000
00010000
00010000
00000000
,  // measure 32
00001000
00010000
00001000
00000100
00000000
00000100
00000001
00001000
,  // measure 33
00000000
00001000
00000100
00000010
00000000
00000010
00000001
00001000
,  // measure 34
00000100
00010100
00010000
00011000
,  // measure 35
00000100
00001010
00000100
00000110
,  // measure 36
00002002
00000000
00003003
00000000
00000000
00000010
00000010
00001000
,  // measure 37
00000100
00000001
00000010
00001000
,  // measure 38
00000100
00000000
00000100
00000000
00000100
00000000
00010000
00000000
00010000
00000000
00010000
00000000
,  // measure 39
00001000
00000000
00000000
00000000
00010000
00000000
00000000
00000000
00001000
00000000
00000000
00000000
00011000
00000000
00000000
00000000
00000000
00000000
00100000
00000000
00000000
00010000
00000000
00000000
,  // measure 40
00100000
00000000
00100000
01000000
00000000
01100000
00000000
01000000
,  // measure 41
10000000
00000000
10000000
00100000
00000000
00110000
00000000
00100000
,  // measure 42
01000000
00000000
01000000
00010000
00000000
00100000
00010000
00001000
,  // measure 43
00000100
00000000
00000010
00000000
,  // measure 44
00000001
00000010
00000001
00000010
00000100
00001000
00000100
00001000
,  // measure 45
00010000
00100000
00010000
00100000
01000000
10000000
01000000
10000000
,  // measure 46
00100000
00000000
00000000
00100000
10000000
00000000
00000000
10000000
00100000
00000000
00000000
00100000
01000000
00000000
00000000
01000000
,  // measure 47
00010000
00000000
00000000
00010000
01000000
00000000
00000000
01000000
00001000
00000000
00000000
00001000
00010000
00000000
00000000
00010000
,  // measure 48
00000100
00000000
00000000
00000100
00010000
00000000
00000000
00010000
00000010
00000000
00000000
00000010
00001000
00000000
00000000
00001000
,  // measure 49
00000001
00000100
00000010
00001000
00000000
00000100
00000100
00000000
,  // measure 50
00000010
00000000
00000000
00000010
00000001
00000000
00000000
00000001
00000100
00000000
00000000
00000100
00001000
00000000
00000000
00001000
,  // measure 51
00010000
00000000
00000000
00010000
00001000
00000000
00000000
00001000
00010000
00000000
00000000
00010000
00100000
00000000
00000000
00100000
,  // measure 52
10000000
01000000
10000000
00000000
00100000
00000000
01000000
00010000
,  // measure 53
00001000
00000000
00010000
00001000
00011000
00000000
00000000
00000000
,  // measure 54
00001001
00001001
00000110
00000110
,  // measure 55
00000101
00000101
00001100
00001100
,  // measure 56
00000010
00000100
00000010
00000100
00001000
00000001
00001000
00000000
,  // measure 57
00000010
00000010
00000100
00001000
00010000
00001000
00001000
00000000
,  // measure 58
00011000
00011000
00101000
00101000
,  // measure 59
00011000
01001000
01010000
10100000
,  // measure 60
01100000
10010000
01100000
10010000
,  // measure 61
10000000
01000000
00100000
00010000
00001000
00000000
00000000
00000000
,  // measure 62
00011000
00000000
00000000
00000000
00001100
00000000
00000000
00001010
,  // measure 63
00000000
00000110
00000110
00000000
00002002
00000000
00000000
00000000
,  // measure 64
00003003
00000000
00000000
00000000
;
