#TITLE:X-DAY2000;
#SUBTITLE:;
#ARTIST:LindaAI-CUE;
#TITLETRANSLIT:;
#SUBTITLETRANSLIT:;
#ARTISTTRANSLIT:;
#GENRE:;
#CREDIT:;
#BANNER:;
#BACKGROUND:X-DAY2000-bg.jpg;
#LYRICSPATH:;
#CDTITLE:;
#MUSIC:X-DAY2000.ogg;
#OFFSET:0.272000;
#SAMPLESTART:31.738949;
#SAMPLELENGTH:12.000000;
#SELECTABLE:YES;
#BPMS:0.000000=190.000000
,36.000000=380.000000
,100.000000=190.000000
,136.000000=380.000000
,184.500000=190.000000
,185.500000=95.000000
,186.000000=380.000000
,266.000000=190.000000
,292.000000=95.000000
,293.000000=380.000000
,340.000000=190.000000
,341.000000=95.000000
,342.750000=380.000000
,374.750000=190.000000
,376.750000=95.000000
,377.750000=380.000000
,405.750000=95.000000
,425.750000=190.000000
,433.750000=380.000000
,497.750000=95.000000
;
#STOPS:100.000000=1.263000,
184.000000=0.237000,
184.500000=0.158000,
185.000000=0.158000,
401.750000=0.158000,
402.250000=0.158000,
402.750000=0.158000,
403.250000=0.158000,
497.750000=1.263000
;
#BGCHANGES:;
#KEYSOUNDS:;
#ATTACKS:;

//---------------dance-single - ----------------
#NOTES:
     dance-single:
     :
     Medium:
     16:
     0.810130,1.262664,0.264173,0.317007,0.973037,644.000000,614.000000,30.000000,36.000000,0.000000,0.000000,0.810130,1.262664,0.264173,0.317007,0.973037,644.000000,614.000000,30.000000,36.000000,0.000000,0.000000:
// measure 0
0000
0000
0000
0000
,  // measure 1
0000
0000
0000
0000
,  // measure 2
0000
0000
0000
0000
,  // measure 3
0000
0000
0000
0000
,  // measure 4
0000
0000
0000
0000
,  // measure 5
1000
0000
0000
1000
0000
0000
0001
0000
0000
0001
0000
0000
0001
0000
0100
0010
,  // measure 6
0100
0000
0000
0100
0000
0000
0010
0000
0000
0010
0000
0000
0010
0000
0100
0000
,  // measure 7
1000
0000
0000
0010
0000
0000
0100
0000
0000
0010
0000
0000
0010
0000
0100
0001
,  // measure 8
0100
0000
0000
0010
0000
0000
0001
0000
0000
1000
0000
0000
0110
0000
0100
0000
,  // measure 9
1000
0000
0001
1000
0001
0000
0100
0000
,  // measure 10
0001
0010
0001
0000
0100
0001
0100
0001
,  // measure 11
0100
0000
0010
1000
0010
0000
0010
0000
,  // measure 12
1000
1000
0100
0100
,  // measure 13
1000
0000
1000
0001
1000
0000
0001
0000
,  // measure 14
0010
0100
0010
0000
0100
1000
0100
1000
,  // measure 15
0100
0000
0010
0100
0010
0000
0001
0000
,  // measure 16
0001
0100
0110
0000
,  // measure 17
1001
0000
0000
0001
1000
0000
0010
0000
,  // measure 18
0100
0001
0100
0000
0100
0000
0001
0100
,  // measure 19
0001
0000
0001
1000
0001
0000
0100
0000
,  // measure 20
0010
0000
0010
0000
0100
0010
0100
0010
,  // measure 21
0100
0000
0000
0010
0001
0000
1000
0000
,  // measure 22
0100
0010
0100
0000
0001
0000
1000
0001
,  // measure 23
1000
0000
1000
0100
1000
0000
0010
0000
,  // measure 24
0100
0000
0100
0000
0010
1000
0010
1000
,  // measure 25
0002
0003
0000
0000
0000
0000
0000
0000
0000
0000
0000
0000
0000
0000
0000
0000
,  // measure 26
0100
0010
0100
0010
0100
0000
0000
0000
0010
0000
0010
0000
0010
0000
0000
0000
,  // measure 27
0001
1000
0001
1000
0001
0000
0000
0000
0010
0000
0010
0000
0010
0000
0000
0000
,  // measure 28
0100
0001
0100
0001
0100
0000
0000
0000
1000
0000
1000
0000
1001
0000
0000
0000
,  // measure 29
0010
0100
0010
0100
0010
0000
0000
0000
0001
0000
0001
0000
0001
0000
0000
0000
,  // measure 30
0100
0010
0100
0010
0100
0000
0100
0000
0001
0000
0001
0000
0001
0000
0001
0000
,  // measure 31
0010
1000
0010
1000
0010
0000
0010
0000
1000
0000
1000
0000
1000
0000
1000
0000
,  // measure 32
0100
0010
0100
0010
0100
0000
0100
0000
0010
0000
0110
0000
0010
0000
0010
0000
,  // measure 33
1000
0001
1000
0001
1000
0000
1000
0000
0100
0000
0100
0000
0010
0000
0010
0000
,  // measure 34
0110
0000
0000
1000
0010
0000
0010
0000
,  // measure 35
0100
0001
0010
0000
0010
0000
0010
0000
,  // measure 36
0001
0000
0000
1000
0100
0000
0100
0000
,  // measure 37
0010
0010
0001
0001
,  // measure 38
1001
0000
0000
0001
0100
0000
0100
0000
,  // measure 39
0010
1000
0100
0000
0100
0010
0100
0000
,  // measure 40
0001
0000
0000
1000
0010
0000
0010
0000
,  // measure 41
0110
0000
0001
0000
,  // measure 42
1001
0000
0001
1000
0010
0000
0010
0000
,  // measure 43
0001
0010
0100
0000
0100
0000
0010
0000
,  // measure 44
0100
0000
0001
0100
1000
0000
0100
0000
,  // measure 45
0001
1000
0001
1000
0001
0100
0001
0100
,  // measure 46
0002
0003
0020
0030
2000
3000
0200
0300
1001
0000
0000
0000
0000
0000
1000
0000
,  // measure 47
0000
0000
0001
0000
1001
0000
0000
1000
,  // measure 48
0000
0001
1000
0100
,  // measure 49
0001
0000
0001
0010
,  // measure 50
1000
0000
0000
0000
0010
1000
0010
1000
,  // measure 51
0010
0100
0100
1000
,  // measure 52
0010
0000
0001
0001
,  // measure 53
0010
0000
0100
0100
,  // measure 54
1000
0010
1100
0100
,  // measure 55
0000
0010
0101
0010
,  // measure 56
0001
0000
0000
0000
1000
0000
0010
0100
,  // measure 57
0010
0010
1000
1000
,  // measure 58
0010
0000
0000
0000
0100
0000
0100
0001
,  // measure 59
0100
1000
0010
0010
,  // measure 60
0000
0000
1000
0000
0100
0000
0100
1000
,  // measure 61
0100
0000
0010
0000
0010
0000
0001
1000
,  // measure 62
0001
0000
0100
0000
,  // measure 63
1001
0001
0010
0010
,  // measure 64
1000
0000
1001
0000
,  // measure 65
1010
0000
0000
0000
0100
0010
0100
0010
,  // measure 66
0100
0010
0012
1000
,  // measure 67
0100
0100
0103
0000
2001
0000
0100
0000
,  // measure 68
0010
0000
0010
0000
3100
0010
0100
0000
0001
0000
0100
0000
1000
0000
0010
0000
,  // measure 69
0001
0000
0000
0000
1010
0000
0000
0000
0100
0000
0100
0000
0000
0000
0001
0100
,  // measure 70
0001
0000
0001
0000
0000
0000
0100
0010
0100
0000
0100
0000
0000
0000
0001
0000
,  // measure 71
0001
1000
0001
0000
0000
0000
1000
0000
1000
0000
0000
0000
0001
0000
0000
0000
,  // measure 72
0001
0010
0100
0000
1000
0000
0000
0000
0010
0000
0010
0000
0000
0010
0000
0000
,  // measure 73
0020
0130
0001
0100
,  // measure 74
1000
0100
0001
0100
,  // measure 75
0100
0000
0010
0100
0010
0000
0010
1000
,  // measure 76
0010
0000
0100
0001
0100
0000
0100
0010
,  // measure 77
0100
0010
1000
0100
,  // measure 78
0001
0100
1000
0100
,  // measure 79
0001
0000
0100
1000
0100
0000
0100
0010
,  // measure 80
0100
0000
0010
0001
0010
0000
0010
0100
,  // measure 81
0010
0010
0001
0100
,  // measure 82
0001
0010
0001
0100
,  // measure 83
0001
0000
0010
0001
0100
0000
0100
0001
,  // measure 84
0010
0000
0010
1000
0100
0000
0100
1000
,  // measure 85
0010
0000
0000
0000
0220
0000
0330
0000
0000
2200
3300
0001
0000
0000
0000
0000
,  // measure 86
0000
1000
0000
0000
0000
0000
0000
0001
0000
0000
0000
0110
0000
0000
0000
0000
,  // measure 87
0000
1000
0000
0000
0000
0000
0000
0001
0000
0000
0000
0200
0000
0000
0000
0000
,  // measure 88
0000
0000
0000
0001
0000
0000
0000
0000
0000
0000
0000
0010
0000
0000
0000
0010
,  // measure 89
0000
0000
0000
0310
0000
0000
0000
0000
0000
0000
0000
0002
0000
0000
0000
0000
,  // measure 90
0000
0000
0000
1000
0000
0000
0000
0000
0000
0000
0000
0100
0000
0000
0000
0100
,  // measure 91
0000
0000
0000
0103
0000
0000
0000
0000
0000
0000
0000
1000
0000
0000
0000
1000
,  // measure 92
0000
0000
0000
0100
0000
0010
0000
0100
0000
0000
0000
0001
0000
0000
0000
0001
,  // measure 93
0000
0000
0000
0100
0000
0001
0000
0100
0000
0000
0000
1000
0000
1000
0000
0001
,  // measure 94
0000
0000
0001
0000
0000
0000
0010
0000
0010
0000
0010
0100
0010
0100
1000
0000
0000
0000
0000
0000
0000
0000
0000
0000
0000
0000
1000
0000
0000
0000
0001
0000
,  // measure 95
0000
0000
0000
0010
0000
0000
0000
0100
0000
1000
0000
0100
0000
0000
0000
0100
,  // measure 96
0000
0000
0000
1000
0000
0100
0000
1000
0000
0000
0000
1000
0000
0001
0000
1000
,  // measure 97
0000
0000
0000
0100
0000
0000
0000
0010
0000
0000
0000
0010
0000
0000
0000
0100
,  // measure 98
0000
0010
0000
0100
0000
0010
0000
0100
0000
0000
0000
0000
0000
0010
0000
1000
,  // measure 99
0000
0000
0000
0001
0000
0000
0000
0100
0000
0010
0000
0100
0000
0000
0000
0100
,  // measure 100
0000
0000
0000
0001
0000
1000
0000
0002
0003
0020
0030
0200
0300
2000
3000
0010
,  // measure 101
0000
0100
0000
0001
0000
0000
0000
0002
0000
0000
0000
0203
0000
0000
0000
0010
,  // measure 102
0000
0010
0000
0310
0000
1000
0000
2001
0000
0000
0000
3020
0000
0000
0000
0100
,  // measure 103
0000
0100
0000
1030
0000
0001
0000
0200
0000
0000
0000
0302
0000
0000
0000
1000
,  // measure 104
0000
1000
0000
1003
0000
0000
0000
0100
0000
0000
0000
0100
0000
0000
0000
0100
,  // measure 105
0000
0000
0000
0000
0000
0000
0000
2100
0000
0000
0000
3010
0000
0000
0000
0102
,  // measure 106
0000
0000
0000
1003
0000
0000
0000
0100
0000
0000
0000
0100
0000
0000
0000
0010
,  // measure 107
0000
0000
0000
0010
0000
0000
0000
0100
0000
0010
0000
0100
0000
0010
0000
0001
,  // measure 108
1000
0001
1000
0001
1000
0001
1000
0001
0000
0000
0000
0000
0000
0001
0000
0010
,  // measure 109
0000
0000
0000
0010
0000
0000
0000
0100
0000
2000
0000
0010
0000
3000
0000
0010
,  // measure 110
0000
0000
0000
0010
0000
0000
0000
1200
0000
0000
0000
0300
0000
0001
0000
0100
,  // measure 111
0000
0000
0000
0100
0000
0000
0000
0010
0000
0000
0000
0010
0000
0000
0000
1000
,  // measure 112
0000
0000
0000
1000
0000
0000
0000
0210
0000
0000
0000
0300
0000
1000
0000
0100
,  // measure 113
0000
0000
0000
0100
0000
0000
0000
0010
0000
0002
0000
0100
0000
0003
0000
0100
,  // measure 114
0000
0010
0000
0100
0000
0000
0000
1001
0000
0000
0000
0000
0000
0001
0000
1000
,  // measure 115
0000
0000
0000
1000
0000
0000
0000
1020
0000
0000
0000
0030
0000
0000
0000
0001
,  // measure 116
0000
0000
0000
0000
0000
0000
0000
1001
0000
0000
0000
1000
0000
0001
0000
0010
,  // measure 117
0000
0000
0000
0010
0000
0000
0000
1000
0000
0020
0000
0100
0000
0030
0000
0100
,  // measure 118
0000
0000
0000
0010
0000
0000
0000
0100
0000
0000
0000
1000
0000
0200
0000
0001
,  // measure 119
0000
0300
0000
0100
0000
0000
0000
1000
0000
0001
0000
1000
0000
0001
0000
1000
,  // measure 120
0000
0100
0000
1000
0000
0100
0000
1000
0000
0000
0000
0000
0000
1000
0000
0001
,  // measure 121
0000
0000
0000
0001
0000
0000
0000
0002
0000
0100
0000
0013
0000
0000
0000
0100
,  // measure 122
0000
0001
0000
0010
0000
0000
0000
2000
0000
0000
0000
3010
0000
0100
0000
0010
,  // measure 123
0000
0000
0000
0001
0000
0000
0000
0001
0000
1000
0000
0001
0000
1000
0000
0010
,  // measure 124
0000
1000
0000
0010
0000
1000
0000
0200
0000
0000
0000
0300
0000
0000
0000
0000
;
