#TITLE:VOLAQUAS;
#SUBTITLE:;
#ARTIST:BEMANI Sound Team"DJ TOTTO VS 兎々;
#TITLETRANSLIT:;
#SUBTITLETRANSLIT:;
#ARTISTTRANSLIT:;
#GENRE:;
#CREDIT:;
#BANNER:;
#BACKGROUND:VOLAQUAS-bg.png;
#LYRICSPATH:;
#CDTITLE:;
#MUSIC:VOLAQUAS.ogg;
#OFFSET:-1.199999;
#SAMPLESTART:28.204979;
#SAMPLELENGTH:12.000000;
#SELECTABLE:YES;
#BPMS:0.000000=106.000000
,12.000000=53.000000
,14.000000=212.000000
,46.000000=106.000000
,48.000000=212.000000
,144.000000=106.000000
,160.000000=212.000000
,182.000000=106.000000
,183.000000=212.000000
,215.000000=106.000000
,227.000000=53.000000
,228.000000=106.000000
,230.000000=212.000000
,364.000000=106.000000
;
#STOPS:160.000000=0.142000,
161.000000=0.142000,
162.000000=0.142000,
163.000000=0.142000,
166.000000=0.142000,
167.000000=0.142000,
168.000000=0.142000,
169.000000=0.142000,
172.000000=0.142000,
173.000000=0.142000,
174.000000=0.142000,
175.000000=0.142000,
178.000000=0.142000,
179.000000=0.142000,
180.000000=0.142000,
181.000000=0.142000
;
#BGCHANGES:;
#KEYSOUNDS:;
#ATTACKS:;

//---------------dance-single - ----------------
#NOTES:
     dance-single:
     :
     Challenge:
     19:
     1.216167,1.524037,0.688565,0.782460,1.600131,1088.000000,1000.000000,88.000000,100.000000,0.000000,0.000000,1.216167,1.524037,0.688565,0.782460,1.600131,1088.000000,1000.000000,88.000000,100.000000,0.000000,0.000000:
// measure 0
0000
0000
0000
0000
,  // measure 1
0002
0000
0000
0000
0000
0000
0000
0000
2003
0000
0000
0000
0000
0000
0000
0000
3001
0010
0001
0010
0100
1000
0100
1000
0010
0000
1000
0000
0001
0000
0100
0000
,  // measure 2
0010
0100
0001
0010
0001
0100
0010
1000
0100
0010
0001
0100
0010
0010
0010
0010
,  // measure 3
1002
0000
0000
0000
0003
0000
0000
0000
1000
0000
0000
0000
0100
0000
0000
0000
0010
0000
0000
0000
0000
0000
0000
0000
0100
1000
0100
1000
0001
0100
0001
0100
0001
0000
0000
0000
0000
0000
0000
0000
0010
0000
0000
0000
0000
0000
0000
0000
0110
0000
0000
0000
0000
0000
0000
0000
0100
0000
0000
0000
0000
0000
0000
0000
,  // measure 4
1000
0010
0100
0010
1000
0001
0010
0100
,  // measure 5
0010
0001
0100
0010
0100
0001
1000
0100
0010
0000
0100
0000
0110
0000
0001
0000
,  // measure 6
0010
0000
0001
0000
0100
0000
0010
0000
1000
0100
1000
0100
0010
0001
0010
0001
,  // measure 7
0100
0010
0100
0001
0010
0100
0010
0001
1000
0000
0100
0000
1000
0000
0010
0000
,  // measure 8
0100
0001
0010
0100
0010
0001
0100
0001
,  // measure 9
0010
0001
1000
0010
1000
0001
0100
0001
0010
0000
0001
0000
1000
0000
0010
0000
,  // measure 10
1000
0000
0100
0000
0010
0000
0001
0000
0010
0100
0010
0001
1000
0000
0010
0000
,  // measure 11
0100
0000
0010
0000
0100
0000
0001
0000
1000
0000
0100
0000
0010
0000
0001
0000
0200
0000
0000
0000
0300
0000
0001
1000
0010
1000
0010
0100
0001
0010
0001
1000
,  // measure 12
0100
0100
0100
0110
0010
0010
0011
0001
,  // measure 13
0001
1001
1000
1000
1010
0010
0110
0100
,  // measure 14
0101
0001
0001
1001
1000
1000
1100
0100
,  // measure 15
0100
0110
0010
0010
0011
0001
1001
1000
,  // measure 16
1010
0000
0010
0100
0010
0000
0011
0000
0010
0100
0010
0000
0110
0000
0100
0001
,  // measure 17
0100
0000
1100
0000
0100
0010
0100
0000
0101
0000
0010
0000
1100
0000
0001
0000
,  // measure 18
1000
0010
0100
0010
2000
3000
0000
0000
0001
0010
0100
0010
0002
0003
0000
0000
,  // measure 19
1000
0010
1000
0100
0010
0001
0100
0001
1000
0001
0100
0010
0100
0001
1000
0100
,  // measure 20
0010
0010
0010
0110
0100
0100
1100
1000
,  // measure 21
1000
1001
0001
0001
0101
0100
0110
0010
,  // measure 22
1010
1000
1000
1001
0001
0001
0011
0010
,  // measure 23
0010
0110
0100
0100
1100
1000
1001
0001
,  // measure 24
0101
0000
0100
0010
0100
0000
1100
0000
0100
0001
0100
0000
0110
0000
0010
1000
,  // measure 25
0010
0000
0011
0000
0010
0100
0010
0000
1010
0000
0100
0000
0011
0000
1000
0000
,  // measure 26
0001
0100
0010
0100
0002
0003
0000
0000
1000
0100
0010
0100
2000
3000
0000
0000
,  // measure 27
0001
0100
0001
0010
0100
1000
0010
1000
0001
1000
0010
0100
0010
1000
0001
0010
,  // measure 28
0100
1000
0010
1000
0100
0010
1000
0010
0001
0100
0010
0100
,  // measure 29
0001
1000
0100
0001
0100
0010
0110
0001
0100
0010
0100
1000
,  // measure 30
0100
0001
0010
0100
1000
0001
1001
0010
0001
0100
0010
0001
,  // measure 31
0010
0100
0001
0010
0100
1000
1001
0001
0100
0010
0100
0010
,  // measure 32
0001
0010
0100
0001
0010
0100
0001
1000
0010
0100
1000
0010
,  // measure 33
0100
1000
0001
0010
1000
0001
0010
1000
0001
0100
0010
0001
,  // measure 34
0100
0010
0001
0010
0100
1000
0100
0001
0010
0100
0010
0001
,  // measure 35
0100
0100
1000
0010
0010
0001
1000
1000
0100
0001
0001
0010
,  // measure 36
2001
0000
0000
0000
0000
0000
3001
0010
0200
0000
0000
0000
0300
0000
0010
0001
,  // measure 37
0200
0000
0000
0000
0310
0000
1000
0000
0002
0000
0000
0000
0003
0000
0010
0100
,  // measure 38
2000
0000
0000
0000
0000
0000
0000
0000
3002
0000
0000
0000
0000
0000
1003
0010
0200
0000
0000
0000
0000
0000
0000
0000
0301
0000
0000
0000
0010
0000
0000
0000
,  // measure 39
0200
0000
0000
0000
0320
0000
0000
0000
0032
0000
0000
0000
2003
0000
0000
0000
3001
0010
0100
1000
0100
0010
0001
0100
0010
0100
0001
1000
0100
0010
0100
1000
,  // measure 40
0010
0000
0000
0000
2020
3030
0000
0000
1001
0000
0000
0000
0022
0033
0000
0000
1001
0000
0000
0000
2200
3300
0000
0000
0110
0000
0000
0000
2002
3003
0000
0000
,  // measure 41
0001
0000
1000
0000
0001
0000
0010
0000
0100
0000
1000
0000
0002
0003
0100
0000
0010
0000
0000
0000
0202
0303
0000
0000
1001
0000
0000
0000
2200
3300
0000
0000
,  // measure 42
1001
0000
0000
0000
0202
0303
0000
0000
0110
0000
0000
0000
2002
3003
0000
0000
1000
0000
0010
0000
0100
0000
0001
0000
0100
0000
0010
0000
2000
3000
0001
0000
,  // measure 43
0010
0000
0000
0000
0220
0330
0000
0000
1100
0000
0000
0000
0220
0330
0000
0000
0101
0000
0000
0000
2002
3003
0000
0000
0110
0000
0000
0000
0010
0000
1000
0000
,  // measure 44
0100
0000
0010
0000
0100
0000
0010
0000
0001
0000
0100
0000
0020
0030
1000
0000
0100
0000
0000
0000
0022
0033
0000
0000
0101
0000
0000
0000
2020
3030
0000
0000
,  // measure 45
1100
0000
0000
0000
0202
0303
0000
0000
0011
0000
0000
0000
2020
3030
0000
0000
1100
0000
0000
0000
0000
0000
0000
0000
1001
0000
0000
0000
0000
0000
0001
0000
,  // measure 46
0010
0000
0100
0000
0010
0001
0010
0001
1000
0100
0010
0100
1000
0000
0000
1000
,  // measure 47
0100
0000
0010
0000
0100
0001
0100
1000
0001
0000
0000
0000
1001
0000
0000
1000
,  // measure 48
0100
0000
0110
0000
0010
0001
0010
0100
1000
0001
0100
0010
0100
1000
0100
0010
,  // measure 49
1000
0100
0010
0100
0001
0100
0010
0001
0200
0000
0300
0000
1001
0000
0000
1000
,  // measure 50
0010
0000
0100
0000
0010
1000
0010
1000
0001
0100
0010
0100
0001
0000
0000
0001
,  // measure 51
0100
0000
0010
0000
0100
1000
0100
0001
1000
0000
0000
0000
0110
0000
0000
0001
,  // measure 52
0100
0000
0110
0000
0010
1000
0010
0100
0001
1000
0100
0010
0100
0001
0100
0010
,  // measure 53
0001
0100
0010
0100
1000
0100
0010
1000
0200
0000
0300
0000
0110
1000
0001
0100
,  // measure 54
0010
0000
0001
0000
0100
0000
0001
0000
1000
0000
0100
0000
0010
0000
1000
0000
0100
1000
0001
0100
0010
1000
0100
0010
0001
0000
0100
0000
1000
0000
0010
0000
,  // measure 55
1000
0000
0100
0000
0001
0000
1000
0000
0010
0100
0010
1000
0100
0010
0001
0100
0010
0000
0100
0000
0010
0000
0001
0000
1000
0000
0100
0000
0010
0000
1000
0000
,  // measure 56
0100
0010
1000
0001
0100
0010
0001
0100
0010
0010
0010
0010
1002
0000
0000
0003
,  // measure 57
1000
0010
0100
0001
0010
0001
1000
0100
1000
0010
0100
0001
1000
0000
0000
0000
0110
0000
0000
0000
0010
0000
1000
0000
0200
0000
0000
0000
0010
0000
0001
0300
,  // measure 58
0200
0000
0000
0000
0001
0000
0010
0300
0200
0000
0000
0000
1000
0000
0010
0300
0200
0000
0000
0000
0000
0000
0000
0300
0010
0000
0000
0000
0001
0000
0000
0000
,  // measure 59
0010
0000
0000
0000
0100
0000
0001
0000
0020
0000
0000
0000
0000
0000
0030
0000
0000
0000
0000
0000
0100
0000
1000
0000
0020
0000
0000
0000
0100
0000
0001
0030
,  // measure 60
0020
0000
0000
0000
0001
0000
0100
0030
0020
0000
0000
0000
0001
0000
0000
0030
0020
0000
0000
0000
0000
0000
0000
0030
0100
0000
0000
0000
1000
0000
0000
0000
,  // measure 61
0100
0000
0001
0000
0010
0000
0100
0000
0020
0000
0000
0000
0000
0000
0030
0000
0000
0000
0000
0000
0001
0000
0100
0000
0020
0000
0000
0000
1000
0000
0100
0030
,  // measure 62
0020
0000
0000
0000
0001
0000
0000
0030
1000
0000
0000
0000
0010
0000
0000
0000
0100
0000
0001
0000
0020
0000
0000
0000
0100
0000
0000
0000
0100
0000
1000
0030
,  // measure 63
0020
0000
0000
0000
0100
0000
0000
0000
0100
0000
0001
0030
0020
0000
0000
0000
0130
0000
1000
0000
0001
0000
1000
0000
0100
0000
0000
0000
0010
0000
0000
0000
,  // measure 64
0001
0000
1000
0001
0200
0000
0320
0000
1030
0000
0100
0000
0010
0000
2002
0000
,  // measure 65
3003
0000
0000
0000
0001
0000
0100
0000
0010
0000
0100
0000
0001
0000
0000
0000
0000
0000
0000
0000
1000
0000
0001
0000
0020
0000
0000
0000
0001
0000
1000
0030
,  // measure 66
0020
0000
0000
0000
1000
0000
0001
0030
0020
0000
0000
0000
1000
0000
0000
0030
0020
0000
0000
0000
0000
0000
0000
0030
0001
0000
0000
0000
1000
0000
0000
0000
,  // measure 67
0020
0000
0000
0000
1000
0000
0001
0030
0020
0000
0000
0000
0000
0000
0000
0030
0000
0000
0000
0000
0001
0000
1000
0000
0200
0000
0000
0000
1000
0000
0001
0300
,  // measure 68
0200
0000
0000
0000
0001
0000
1000
0300
0200
0000
0000
0000
0001
0000
0000
0300
0200
0000
0000
0000
0000
0000
0000
0300
1000
0000
0000
0000
0010
0000
0000
0000
,  // measure 69
0100
0000
0001
0000
1000
0000
0001
0000
0200
0000
0000
0000
0000
0000
0000
0300
0000
0000
0000
0000
0001
0000
0010
0000
2000
0000
0000
0000
0001
0000
3100
0000
,  // measure 70
2000
0000
3001
0000
0010
0000
0100
0000
1000
0010
0002
0000
0013
0000
0001
0010
,  // measure 71
2000
0000
3100
0000
0001
0100
2000
0000
3001
0100
1000
0100
0002
0000
1000
0103
,  // measure 72
0002
0000
1000
0013
0002
0000
1000
0013
0002
0000
1003
0100
0001
1000
0001
0000
,  // measure 73
0100
1000
0100
0010
1000
0001
0010
0001
0200
0000
0300
0000
1001
0000
1000
0000
,  // measure 74
0100
0000
0010
0000
0100
0000
0001
0000
0100
0000
1000
0000
0010
0000
0100
0001
,  // measure 75
0100
0010
1000
0100
0010
0100
1000
0001
0200
0000
0300
0000
1001
0000
0001
0000
,  // measure 76
0100
0000
0010
0000
0001
0000
0010
0000
1000
0000
0100
0000
0010
0000
0100
1000
,  // measure 77
0010
0100
0010
1000
0001
1000
0100
0010
0001
0000
0001
0000
0100
0000
0010
0000
,  // measure 78
0010
0000
1000
0000
0100
0000
0100
0000
0010
0000
0001
0000
0001
0000
0100
0001
,  // measure 79
0010
0100
0010
0001
1000
0010
0100
0001
0010
0000
0000
0000
1001
0000
1000
0000
,  // measure 80
0010
0100
0100
0001
0102
0103
2010
3010
,  // measure 81
1000
0001
0100
0001
0010
0100
1000
0010
1000
0000
0100
0000
0010
0001
1000
0000
,  // measure 82
0010
0000
0100
0000
1000
0100
0001
0000
0010
0000
0001
0000
0100
0000
1000
0100
,  // measure 83
0010
1000
0100
0010
0100
1000
0001
0010
0100
0000
0010
0000
0001
1000
0100
0000
,  // measure 84
1000
0000
0010
0000
0001
0010
1000
0000
0001
0000
0100
0000
0010
0000
0001
0010
,  // measure 85
0100
0001
0010
0100
0010
0001
0100
0010
1000
0000
0001
0000
0010
0100
1000
0000
,  // measure 86
0010
0000
0001
0000
0010
0100
0001
0000
0010
0000
0100
0000
1000
0000
0010
0001
,  // measure 87
0010
0100
0001
0010
0100
0010
1000
0010
0001
0000
0011
0000
0001
0000
1000
0000
,  // measure 88
1010
0000
1000
0000
0010
0000
0110
0000
0100
0001
0100
0010
1000
0100
0010
0001
,  // measure 89
0010
1000
0010
0001
0100
1000
0100
0010
1000
0100
0010
0001
0100
0010
0001
1000
,  // measure 90
0100
0010
1000
0100
0010
1000
0001
0100
0010
0000
0000
0000
0000
0000
0000
0000
,  // measure 91
2002
0000
0000
0000
,  // measure 92
0000
0000
0000
3003
;
