#TITLE:TRUE♥LOVE;
#SUBTITLE:;
#ARTIST:jun feat. Schanita;
#TITLETRANSLIT:;
#SUBTITLETRANSLIT:;
#ARTISTTRANSLIT:;
#GENRE:;
#CREDIT:;
#BANNER:TRUE LOVE.png;
#BACKGROUND:bg.png;
#LYRICSPATH:;
#CDTITLE:;
#MUSIC:TRUE LOVE.ogg;
#OFFSET:0.000000;
#SAMPLESTART:48.520000;
#SAMPLELENGTH:15.000000;
#SELECTABLE:YES;
#BPMS:0.000000=188.000000
;
#STOPS:232.000000=0.638000
;
#BGCHANGES:;
#KEYSOUNDS:;
#ATTACKS:;

//---------------dance-double - yuisin----------------
#NOTES:
     dance-double:
     yuisin:
     Edit:
     19:
     0.996096,1.136515,1.136515,0.122866,0.783274,681.000000,570.000000,111.000000,12.000000,0.000000,0.000000,0.996096,1.136515,1.136515,0.122866,0.783274,681.000000,570.000000,111.000000,12.000000,0.000000,0.000000:
// measure 0
00000000
00000000
00000000
00000000
,  // measure 1
00000000
00000000
00000000
00000000
,  // measure 2
00000000
00000000
00000000
00000000
,  // measure 3
00000000
00000000
00000000
00000000
,  // measure 4
00000000
00000000
00000000
00000000
,  // measure 5
00000010
00002000
00000000
00000100
00000000
00000001
00000000
00000010
,  // measure 6
00000000
00023000
00000000
01000000
00000000
10000000
00000000
00100000
,  // measure 7
00000000
00032000
00000000
00000100
00000000
00000001
00000000
00003010
,  // measure 8
00001000
00000000
00000000
00000100
00000000
00000000
00000010
00000000
00001000
00000000
00000000
00000000
00010000
00000000
00000000
00000000
,  // measure 9
00011000
00000000
00001000
00010000
01000000
00000000
00010000
00001000
00000100
00000000
00001000
00000100
00000001
00000010
00001000
00010000
,  // measure 10
00001000
00000000
00010000
00001000
00000100
00000000
00001000
00010000
01000000
00000000
00010000
01000000
10000000
00100000
00010000
00001000
,  // measure 11
00010000
00000000
00001000
00010000
00100000
00000000
00010000
00001000
00000010
00000000
00001000
00000010
00000001
00000100
00001000
00010000
,  // measure 12
00001000
01001000
10100000
00110000
,  // measure 13
00011000
00000000
00010000
00001000
00000100
00000000
00001000
00010000
01000000
00000000
00010000
00001000
00000100
00000001
00000100
00001000
,  // measure 14
00010000
00000000
00001000
00010000
01000000
00000000
00010000
00001000
00000100
00000000
00001000
00010000
01000000
10000000
01000000
00010000
,  // measure 15
00001000
00000000
00010000
00001000
00000010
00000000
00001000
00010000
00100000
00000000
00010000
00001000
00000010
00000001
00000010
00001000
,  // measure 16
00010000
00000000
00001000
00010000
00100000
00000000
00010000
00001000
00000010
00000000
00001000
00010000
00100000
10000000
00100000
00010000
,  // measure 17
00002000
00000000
00003000
00011000
,  // measure 18
01001000
00000000
01000000
00010000
10000000
00000000
11000000
00000000
00000000
00000000
10010000
00000000
00000000
00000000
00000000
00000000
,  // measure 19
01001000
00000000
00001000
00010000
00000100
00000000
00001100
00000000
00000000
00000000
00001001
00000000
00000000
00000000
00000000
00000000
,  // measure 20
00000011
00000000
00000010
00000001
00001000
00000000
00001100
00000000
00000000
00000000
00000110
00000000
00000001
00000000
00000100
00000000
,  // measure 21
00001000
00010000
01000000
00100000
00001000
00010000
00011000
00000000
,  // measure 22
00010100
00000000
00010000
00000100
00001000
00000000
00001010
00000000
00000000
00000000
00000101
00000000
00000000
00000000
00000000
00000000
,  // measure 23
00000110
00000000
00000010
00001000
00000100
00000000
00010100
00000000
00000000
00000000
00011000
00000000
00000000
00000000
00000000
00000000
,  // measure 24
01001000
00000000
00001000
01000000
00100000
00000000
01100000
00000000
00000000
00000000
10100000
00000000
00010000
00000000
01000000
00000000
,  // measure 25
01001000
00011000
00000000
00000110
00000000
00001001
00000000
00000000
,  // measure 26
00000110
00000000
00000001
00000010
00000100
00000000
00001000
00000010
00000100
00000000
00000001
00000010
00000100
00000000
00001100
00000000
,  // measure 27
00000000
00001010
00010000
00011000
00001000
00110000
10000000
01010000
,  // measure 28
01100000
00000000
10000000
01000000
00100000
00000000
00010000
01000000
00100000
00000000
10000000
01000000
00100000
00000000
00110000
00000000
,  // measure 29
00000000
01001000
00011000
00010100
00000000
00001010
00000000
00000000
,  // measure 30
00001001
00000000
00000010
00001000
00000100
00000000
00000010
00001000
00010000
00000000
00001000
00100000
00010000
00000000
00110000
00000000
,  // measure 31
00000000
01100000
00001000
00011000
00010000
00001100
00000001
00000110
,  // measure 32
00000011
00000000
00000000
00001001
00001010
00000000
00000000
00000000
,  // measure 33
00022000
00000000
00000000
00033000
,  // measure 34
00101000
00000000
00100000
00000000
00110000
00000000
00010000
00000000
10010000
00000000
10000000
01000000
00100000
00000000
01100000
00000000
,  // measure 35
00000000
00000000
01000000
00010000
00001000
00000000
00100000
00001000
00010000
00000000
00001000
00000100
00000010
00000000
00000100
00000000
,  // measure 36
00000101
00000000
00000001
00000010
00001000
00000000
00011000
00000000
00000000
00000000
00010000
00001000
00000100
00000000
00000010
00001000
,  // measure 37
00000100
00000010
00000001
00000101
00000000
00000110
00000110
00000000
,  // measure 38
00010010
00000000
00000010
00000000
00001010
00000000
00001000
00000000
00001100
00000000
00000100
00001000
00000001
00000000
00000011
00000000
,  // measure 39
00000000
00000000
00000010
00001000
00010000
00000000
00001000
00010000
00000100
00000000
00010000
01000000
00100000
00000000
01000000
00000000
,  // measure 40
01100000
00000000
10000000
01000000
00010000
00000000
00011000
00000000
00000000
00000000
00001000
01000000
00100000
00000000
00010000
00100000
,  // measure 41
10000000
00000000
00000000
01000000
00000000
00000000
00010000
00000000
00001000
00000000
00000000
00000000
00010000
00000000
00000000
00000000
,  // measure 42
01100000
00000000
00100000
00010000
00001000
00000100
00000010
00000000
00000110
00000000
00000100
00001000
00010000
00100000
01000000
00000000
,  // measure 43
01100000
00000000
00100000
00010000
00001000
00000100
00000010
00000000
00000110
00000000
00000100
00001000
00010000
00100000
01000000
00000000
,  // measure 44
01100000
00000000
00100000
00010000
00001000
00000100
00000010
00000000
00000110
00000000
00000100
00001000
00010000
00100000
01000000
00000000
,  // measure 45
01100000
00000000
00100000
00010000
00001000
00000000
00011000
00000000
00000000
00000000
01001000
00000000
00010100
00000000
00000000
00000000
,  // measure 46
00011000
00000000
00001000
00000100
00000001
00000100
00001000
00000000
00011000
00000000
00010000
01000000
10000000
01000000
00010000
00000000
,  // measure 47
00011000
00000000
00001000
00000100
00000001
00000100
00001000
00000000
00011000
00000000
00010000
01000000
10000000
01000000
00010000
00000000
,  // measure 48
00011000
00000000
00001000
00000010
00000001
00000010
00001000
00000000
00011000
00000000
00010000
00100000
10000000
00100000
00010000
00000000
,  // measure 49
00011000
01001000
00000000
00010100
00000000
00010010
00000000
00000000
,  // measure 50
00011000
00000000
00010000
00001000
00000100
00000000
00001000
00010000
01000000
00000000
00010000
01000000
10000000
00100000
00010000
00001000
,  // measure 51
00010000
00000000
00001000
00010000
01000000
00000000
00010000
00001000
00000100
00000000
00001000
00000100
00000001
00000010
00001000
00010000
,  // measure 52
00001000
00000000
00010000
00001000
00000010
00000000
00001000
00010000
00100000
00000000
00010000
00100000
10000000
01000000
00010000
00001000
,  // measure 53
00010000
00010010
00000101
00001100
,  // measure 54
00011000
00000000
00001000
00010000
01000000
00000000
00010000
00001000
00000100
00000000
00001000
00010000
00100000
10000000
01000000
00010000
,  // measure 55
00001000
00000000
00010000
00001000
00000100
00000000
00001000
00010000
01000000
00000000
00010000
00001000
00000100
00000001
00000010
00001000
,  // measure 56
00010000
00000000
00001000
00010000
00100000
00000000
00010000
00001000
00000010
00000000
00001000
00010000
01000000
10000000
00100000
00010000
,  // measure 57
00001000
00000000
00010000
00001000
00000010
00000000
00001000
00010000
00100000
00000000
00010000
00001000
00000010
00000001
00000100
00002000
,  // measure 58
00000000
00003000
00000000
00000000
00000000
00000000
00000000
00000000
00000000
00000000
00000000
00000000
00000000
00000000
00000000
00000000
00000000
00000000
00000000
00000000
00000000
00000000
00000000
00000000
00000000
00000000
00000000
00000000
00000000
00000000
00000000
00000000
,  // measure 59
00000000
00000000
00000000
00000000
,  // measure 60
00000000
00000000
00000000
00000000
,  // measure 61
00000000
00000000
00000000
00000000
,  // measure 62
00100000
00020000
00000000
01000000
00000000
10000000
00000000
00100000
,  // measure 63
00000000
00032000
00000000
00000100
00000000
00000001
00000000
00000010
,  // measure 64
00000000
00023000
00000000
01000000
00000000
10000000
00000000
00130000
,  // measure 65
00010000
00000000
00000000
01000000
00000000
00000000
00100000
00000000
00010000
00000000
00000000
00000000
00011000
00000000
00000000
00000000
,  // measure 66
00000110
00000000
00000001
00000100
00001000
00010000
01000000
00000000
01100000
00000000
10000000
01000000
00010000
00001000
00000100
00000000
,  // measure 67
00000110
00000000
00000001
00000100
00001000
00010000
01000000
00000000
01100000
00000000
10000000
01000000
00010000
00001000
00000100
00000000
,  // measure 68
00000110
00000000
00000001
00000010
00001000
00010000
00100000
00000000
01100000
00000000
10000000
00100000
00010000
00001000
00000010
00000000
,  // measure 69
00000110
00000000
00000001
00000100
00001000
00000000
00011000
00000000
00000000
00000000
00101000
00000000
00010010
00000000
00000000
00000000
,  // measure 70
00011000
00000000
00010000
01000000
10000000
00100000
00010000
00000000
00011000
00000000
00001000
00000100
00000001
00000010
00001000
00000000
,  // measure 71
00011000
00000000
00010000
01000000
10000000
00100000
00010000
00000000
00011000
00000000
00001000
00000100
00000001
00000010
00001000
00000000
,  // measure 72
00011000
00000000
00010000
00100000
10000000
01000000
00010000
00000000
00011000
00000000
00001000
00000010
00000001
00000100
00001000
00010000
,  // measure 73
01000000
01100000
00000000
00101000
00000000
00022000
00000000
00000000
,  // measure 74
00033000
00000000
00000000
00000000
;

//---------------dance-double - yuisin----------------
#NOTES:
     dance-double:
     yuisin:
     Challenge:
     18:
     0.903946,1.022863,1.146754,0.122866,0.455630,618.000000,506.000000,112.000000,12.000000,0.000000,0.000000,0.903946,1.022863,1.146754,0.122866,0.455630,618.000000,506.000000,112.000000,12.000000,0.000000,0.000000:
00000000
00000000
00000000
00000000
,
00000000
00000000
00000000
00000000
,
00000000
00000000
00000000
00000000
,
00000000
00000000
00000000
00000000
,
00000000
00000000
00000000
00000000
,
00000010
00002000
00000000
00000100
00000000
00000001
00000000
00000010
,
00000000
00023000
00000000
01000000
00000000
10000000
00000000
00100000
,
00000000
00032000
00000000
00000100
00000000
00000001
00000000
00003010
,
00001000
00000000
00000000
00000100
00000000
00000000
00000010
00000000
00001000
00000000
00000000
00000000
00010000
00000000
00000000
00000000
,
00011000
00000000
00001000
00010000
01000000
00000000
00010000
00001000
00000010
00000000
00001000
00000010
00000001
00000000
00000010
00000000
,
00001000
00000000
00010000
00001000
00000100
00000000
00001000
00010000
00100000
00000000
00010000
00100000
10000000
00000000
00100000
00000000
,
00010000
00000000
00001000
00010000
00100000
00000000
00010000
00001000
00000100
00000000
00001000
00000100
00000001
00000000
00000010
00000000
,
00001000
01001000
10100000
00110000
,
00011000
00000000
00010000
00001000
00000100
00000000
00001000
00010000
00100000
00000000
00010000
00100000
10000000
00000000
00100000
00000000
,
00010000
00000000
00001000
00010000
01000000
00000000
00010000
00001000
00000010
00000000
00001000
00000010
00000001
00000000
00000010
00000000
,
00001000
00000000
00010000
00001000
00000100
00000000
00001000
00010000
00100000
00000000
00010000
00001000
00000100
00000000
00000001
00000000
,
00000100
00000000
00001000
00010000
01000000
00000000
00010000
00001000
00000010
00000000
00001000
00010000
01000000
00000000
10000000
00000000
,
00200000
00000000
00300000
01100000
,
01001000
00000000
01000000
00010000
10000000
00000000
11000000
00000000
00000000
00000000
10010000
00000000
00000000
00000000
00000000
00000000
,
01001000
00000000
00001000
00010000
00000100
00000000
00001100
00000000
00000000
00000000
00001001
00000000
00000000
00000000
00000000
00000000
,
00000011
00000000
00000010
00000001
00001000
00000000
00001100
00000000
00000000
00000000
00000110
00000000
00000001
00000000
00000100
00000000
,
00001000
00010000
01000000
00100000
00001000
00010000
00011000
00000000
,
00010100
00000000
00010000
00000100
00001000
00000000
00001010
00000000
00000000
00000000
00000101
00000000
00000000
00000000
00000000
00000000
,
00000110
00000000
00000010
00001000
00000100
00000000
00010100
00000000
00000000
00000000
00011000
00000000
00000000
00000000
00000000
00000000
,
01001000
00000000
00001000
01000000
00100000
00000000
01100000
00000000
00000000
00000000
10100000
00000000
00010000
00000000
01000000
00000000
,
01001000
00011000
00000000
00000110
00000000
00001001
00000000
00000000
,
00000110
00000000
00000001
00000010
00000100
00000000
00001000
00000010
00000100
00000000
00000001
00000010
00000100
00000000
00001100
00000000
,
00000000
00001010
00010000
00011000
00001000
00110000
10000000
01010000
,
01100000
00000000
10000000
01000000
00100000
00000000
00010000
01000000
00100000
00000000
10000000
01000000
00100000
00000000
00110000
00000000
,
00000000
01001000
00011000
00010100
00000000
00001010
00000000
00000000
,
00001001
00000000
00000010
00001000
00000100
00000000
00000010
00001000
00010000
00000000
00001000
00100000
00010000
00000000
00110000
00000000
,
00000000
01100000
00001000
00011000
00010000
00001100
00000001
00000110
,
00000011
00000000
00000000
00001001
00001010
00000000
00000000
00000000
,
00022000
00000000
00000000
00033000
,
00101000
00000000
00100000
00000000
00110000
00000000
00010000
00000000
10010000
00000000
10000000
01000000
00100000
00000000
01100000
00000000
,
00000000
00000000
01000000
00010000
00001000
00000000
00100000
00001000
00010000
00000000
00001000
00000100
00000010
00000000
00000100
00000000
,
00000101
00000000
00000001
00000010
00001000
00000000
00011000
00000000
00000000
00000000
00010000
00001000
00000100
00000000
00000010
00001000
,
00000100
00000010
00000001
00000101
00000000
00000110
00000110
00000000
,
00010010
00000000
00000010
00000000
00001010
00000000
00001000
00000000
00001100
00000000
00000100
00001000
00000001
00000000
00000011
00000000
,
00000000
00000000
00000010
00001000
00010000
00000000
00001000
00010000
00000100
00000000
00010000
01000000
00100000
00000000
01000000
00000000
,
01100000
00000000
10000000
01000000
00010000
00000000
00011000
00000000
00000000
00000000
00001000
01000000
00100000
00000000
00010000
00100000
,
10000000
00000000
00000000
01000000
00000000
00000000
00010000
00000000
00001000
00000000
00000000
00000000
00010000
00000000
00000000
00000000
,
01100000
00010000
00001000
00000100
00000110
00001000
00010000
01000000
,
01100000
00010000
00001000
00000100
00000110
00001000
00010000
01000000
,
01100000
00010000
00001000
00000010
00000110
00001000
00010000
00100000
,
01100000
00010000
00001000
00011000
00000000
01001000
00010100
00000000
,
00011000
00001000
00000001
00001000
00011000
00010000
10000000
00010000
,
00011000
00001000
00000001
00001000
00011000
00010000
10000000
00010000
,
00011000
00001000
00000001
00001000
00011000
00010000
10000000
00010000
,
00011000
01001000
00000000
00010100
00000000
00010010
00000000
00000000
,
00011000
00000000
00010000
00001000
00000100
00000000
00001000
00010000
00100000
00000000
00010000
00100000
10000000
00000000
01000000
00000000
,
00010000
00000000
00001000
00010000
01000000
00000000
00010000
00001000
00000010
00000000
00001000
00000010
00000001
00000000
00000100
00000000
,
00001000
00000000
00010000
00001000
00000010
00000000
00001000
00010000
01000000
00000000
00010000
01000000
10000000
00000000
00100000
00000000
,
00010000
00010010
00000101
00001100
,
00011000
00000000
00001000
00010000
01000000
00000000
00010000
00001000
00000100
00000000
00001000
00000100
00000001
00000000
00000010
00000000
,
00001000
00000000
00010000
00001000
00000100
00000000
00001000
00010000
01000000
00000000
00010000
01000000
10000000
00000000
00100000
00000000
,
00010000
00000000
00001000
00010000
00100000
00000000
00010000
00001000
00000010
00000000
00001000
00010000
01000000
00000000
10000000
00000000
,
00100000
00000000
00010000
00001000
00000010
00000000
00001000
00010000
00100000
00000000
00010000
00001000
00000100
00000001
00000100
00002000
,
00003000
00000000
00000000
00000000
,
00000000
00000000
00000000
00000000
,
00000000
00000000
00000000
00000000
,
00000000
00000000
00000000
00000000
,
00100000
00020000
00000000
01000000
00000000
10000000
00000000
00100000
,
00000000
00032000
00000000
00000100
00000000
00000001
00000000
00000010
,
00000000
00023000
00000000
01000000
00000000
10000000
00000000
00130000
,
00010000
00000000
00000000
01000000
00000000
00000000
00100000
00000000
00010000
00000000
00000000
00000000
00011000
00000000
00000000
00000000
,
00000110
00000000
00000100
00001000
00010000
00000000
01000000
00000000
01100000
00000000
01000000
00010000
00001000
00000000
00000100
00000000
,
00000110
00000000
00000100
00001000
00010000
00000000
01000000
00000000
01100000
00000000
01000000
00010000
00001000
00000000
00000100
00000000
,
00000110
00000000
00000100
00001000
00010000
00000000
00100000
00000000
01100000
00000000
00100000
00010000
00001000
00000000
00000010
00000000
,
00000110
00000000
00000010
00001000
00010000
00000000
00011000
00000000
00000000
00000000
00101000
00000000
00010010
00000000
00000000
00000000
,
00011000
00000000
00010000
01000000
00100000
00000000
00001000
00000000
00011000
00000000
00001000
00000100
00000010
00000000
00010000
00000000
,
00011000
00000000
00010000
01000000
00100000
00000000
00001000
00000000
00011000
00000000
00001000
00000100
00000010
00000000
00010000
00000000
,
00011000
00000000
00010000
00100000
01000000
00000000
00001000
00000000
00011000
00000000
00001000
00000010
00000100
00000000
00010000
00000000
,
00011000
01001000
00000000
10010000
00000000
02200000
00000000
00000000
,
03300000
00000000
00000000
00000000
;

//---------------dance-single - yuisin----------------
#NOTES:
     dance-single:
     yuisin:
     Challenge:
     18:
     1.047290,1.174399,1.402726,0.061433,0.813990,716.000000,579.000000,137.000000,6.000000,0.000000,0.000000,1.047290,1.174399,1.402726,0.061433,0.813990,716.000000,579.000000,137.000000,6.000000,0.000000,0.000000:
0000
0000
0000
0000
,
0000
0000
0000
0000
,
0000
0000
0000
0000
,
0000
0000
0000
0000
,
0000
0000
0000
0000
,
0000
1000
0000
1000
0000
0010
0000
0010
,
0000
0100
0000
0100
0000
0001
0000
0001
,
0000
0010
0000
0010
0000
0100
0000
0100
,
0110
0000
0000
0011
0000
0000
1010
0000
1001
0000
0000
0000
0110
0000
0000
0000
,
0101
0000
0100
0001
1000
0000
0100
1000
0001
0000
0100
0001
1000
0010
0100
0001
,
1000
0000
0010
1000
0001
0000
0010
0001
1000
0000
0010
1000
0001
0010
0100
1000
,
0001
0000
0010
0100
1000
0000
0010
0100
0001
0000
0010
0100
1000
0010
0100
0001
,
1000
0110
1010
0011
,
0110
0000
0010
0001
1000
0000
0010
1000
0001
0000
0010
0001
0100
0010
1000
0100
,
0010
0000
0100
0010
0001
0000
0100
0010
1000
0000
0001
0100
0010
1000
0001
0010
,
0100
0000
0010
0001
0100
0000
0010
1000
0100
0000
0010
0001
0100
0010
1000
0001
,
0010
0000
0100
1000
0010
0000
0100
0001
0010
0000
0001
0010
0100
1000
0001
0010
,
0200
0000
0300
1001
,
1100
0000
0100
1000
0001
0000
0011
0000
0000
0000
1010
0000
1001
0000
0000
0000
,
0101
0000
0100
0001
1000
0000
1010
0000
0000
0000
0101
0000
0110
0000
0000
0000
,
1001
0000
1000
0010
0100
0000
0110
0000
0000
0000
0110
0000
0001
1000
0100
1000
,
0001
1100
0010
0011
0000
1010
0110
0000
,
0101
0000
0100
0001
1000
0000
1100
0000
0000
0000
1010
0000
1001
0000
0000
0000
,
1100
0000
0100
1000
0010
0000
0110
0000
0000
0000
1001
0000
0101
0000
0000
0000
,
0110
0000
0100
0001
0010
0000
0011
0000
0000
0000
0110
0000
0010
0001
1000
0001
,
0010
0011
0000
1010
0000
0110
1001
0000
,
0101
0000
0100
0010
1000
0000
0100
0010
0001
0000
0100
0010
1000
0000
1001
0000
,
0000
0101
1000
0110
1000
0011
0110
0000
,
1100
0000
0100
0010
0001
0000
0100
0010
1000
0000
0100
0010
0001
0000
0110
0000
,
0000
0011
1001
1100
0000
0110
0000
0000
,
1001
0000
0010
1000
0100
0000
0010
0001
0100
0000
0010
1000
0100
0000
0110
0000
,
0000
0110
0001
1100
0001
1010
0001
0110
,
1001
0000
0000
1010
0101
0000
0000
0000
,
0220
0000
0000
0330
,
0101
0000
0100
0000
0110
0000
0010
0000
1010
0000
0010
1000
0001
0000
1100
0000
,
0000
0000
0010
0001
1000
0001
0100
0001
0010
0000
0110
0000
0110
0000
0001
0000
,
1001
0000
0001
0100
0010
0000
0110
0000
0000
0000
0100
0010
0001
0010
0100
0000
,
0101
0010
1000
0110
0000
1001
1001
0000
,
1010
0000
1000
0000
1100
0000
0100
0000
0110
0000
0010
0001
1000
0000
0101
0000
,
0000
0000
0001
0010
0100
0010
0001
1000
0010
0000
0110
0000
0110
0000
1000
0000
,
0101
0000
0100
0001
0010
0000
0011
0000
0000
0000
0010
0100
0001
0100
0010
0001
,
0100
0000
0000
1001
0000
0000
0011
0000
0110
0000
0000
0000
0110
0000
0000
0000
,
1001
0000
1000
0100
0010
0100
1000
0000
1010
0000
0010
0100
0001
0100
0010
0000
,
0110
0000
0100
0001
1000
0001
0100
0000
0101
0000
0001
0010
0100
0010
0001
0000
,
0011
0000
0010
0001
1000
0001
0010
0000
0110
0000
0100
1000
0001
1000
0100
0010
,
0001
1000
1010
0110
0000
1001
1001
0000
,
0101
0000
0100
0010
0100
0001
0010
0000
0110
0000
0100
1000
0010
1000
0100
0000
,
1100
0000
1000
0010
0100
0001
0100
0000
0110
0000
0010
0001
0010
1000
0001
0000
,
1100
0000
1000
0100
0010
0001
0100
0000
0110
0000
0010
0100
1000
0100
0001
0100
,
0010
0110
0000
1010
0000
1001
1001
0000
,
1100
0000
0100
1000
0001
0000
0100
0001
1000
0000
0100
1000
0001
0010
0100
1000
,
0001
0000
0010
0001
1000
0000
0010
1000
0001
0000
0010
0001
1000
0010
0100
0001
,
1000
0000
0010
0100
0001
0000
0010
0100
1000
0000
0010
0100
0001
0010
0100
1000
,
0001
0110
0011
1010
,
0110
0000
0010
1000
0100
0000
0010
0001
0100
0000
0010
0100
0001
0010
0100
1000
,
0010
0000
0100
0001
0010
0000
0100
1000
0010
0000
0100
0010
1000
0100
0010
0001
,
0100
0000
0010
1000
0100
0000
0010
0100
0001
0000
0100
1000
0010
0100
0001
1000
,
0010
0000
0100
0001
0010
0000
0100
0010
1000
0000
0010
0001
1000
0100
0010
0001
,
0200
0300
0000
0000
0000
0000
0000
0000
0000
0000
0000
0000
0000
0000
0000
0000
0000
0000
0000
0000
0000
0000
0000
0000
0000
0000
0000
0000
0000
0000
0000
0000
,
0000
0000
0000
0000
,
0000
0000
0000
0000
,
0000
0000
0000
0000
,
0000
0001
0000
0001
0000
0100
0000
0100
,
0000
0010
0000
0010
0000
1000
0000
1000
,
0000
0100
0000
0100
0000
0010
0000
0010
,
0110
0000
0000
1100
0000
0000
1010
0000
1001
0000
0000
0000
1001
0000
0000
0000
,
1010
0000
0010
1000
0001
1000
0010
0000
0110
0000
0100
0010
0001
0010
0100
0000
,
1010
0000
0010
0100
0001
0100
1000
0000
1100
0000
0100
0001
0010
0001
0100
0000
,
0101
0000
0001
0010
0001
1000
0100
0000
0110
0000
0010
0100
0001
0100
0010
0001
,
1000
0100
0110
1001
0000
0110
0110
0000
,
1001
0000
1000
0100
0010
0100
0001
0000
0101
0000
0100
0010
1000
0010
0100
0000
,
0110
0000
0010
0001
1000
0001
0100
0000
0101
0000
0001
0010
0100
0010
0001
0000
,
1001
0000
1000
0100
0001
0100
1000
0000
0110
0000
0001
0010
1000
0010
0001
0100
,
0110
1001
0000
0110
0000
2002
0000
0000
,
3003
0000
0000
0000
;
