#TITLE:Shiny World;
#SUBTITLE:;
#ARTIST:CAPACITY GATE;
#TITLETRANSLIT:;
#SUBTITLETRANSLIT:;
#ARTISTTRANSLIT:;
#GENRE:;
#CREDIT:;
#BANNER:Shiny World.png;
#BACKGROUND:Shiny World-bg.png;
#LYRICSPATH:;
#CDTITLE:;
#MUSIC:Shiny World.ogg;
#OFFSET:0.000000;
#SAMPLESTART:19.209999;
#SAMPLELENGTH:15.000000;
#SELECTABLE:YES;
#BPMS:0.000000=25.000000
,8.000000=100.000000
;
#STOPS:100.000000=2.100000
;
#BGCHANGES:;
#KEYSOUNDS:;
#ATTACKS:;

//---------------dance-single - ----------------
#NOTES:
     dance-single:
     :
     Challenge:
     19:
     0.712819,0.916603,0.793596,0.069440,1.066394,503.000000,423.000000,80.000000,7.000000,0.000000,0.000000,0.712819,0.916603,0.793596,0.069440,1.066394,503.000000,423.000000,80.000000,7.000000,0.000000,0.000000:
// measure 0
0000
0000
0000
0000
,  // measure 1
0000
0000
0000
0000
,  // measure 2
1001
0000
1000
0100
0000
0100
0010
0000
0000
0000
0001
0000
0100
0000
0010
0000
,  // measure 3
0110
0000
0010
1000
0000
1000
0100
0000
0000
0000
0010
0000
0100
0000
1000
0000
,  // measure 4
0001
0100
1000
0100
0001
0100
1000
0100
1001
0000
0000
0000
1000
0100
0001
0100
1000
0100
0001
0100
1001
0000
0000
0000
0001
0010
1000
0010
0001
0010
1000
0010
,  // measure 5
1001
0000
0000
0000
1000
0010
0001
0010
1000
0010
0001
0010
1001
0000
0000
0000
1010
0000
1100
0000
0101
0000
0011
0000
1100
0000
1010
0000
1001
0000
0000
0000
,  // measure 6
0110
0000
0010
0001
0000
0001
1000
0000
0000
0000
0010
0000
1000
0000
0001
0000
,  // measure 7
1001
0000
0001
0010
0000
0010
0100
0000
0000
0000
0010
0000
0001
0000
1000
0000
,  // measure 8
0001
0100
1000
0100
0001
0010
1000
0010
1001
0000
0000
0000
1000
0100
0001
0100
1000
0010
0001
0010
1001
0000
0000
0000
0001
0010
1000
0010
0001
0100
1000
0100
,  // measure 9
1001
0000
0000
0000
1000
0010
0001
0010
1000
0100
0001
0100
1001
0000
0000
0000
0011
0000
0101
0000
1100
0000
1010
0000
0101
0000
0011
0000
1001
0000
0000
0000
,  // measure 10
1100
0000
0000
0000
0100
0000
0010
0000
0001
0000
0000
0000
0001
0000
1000
0000
0000
0000
1000
0000
0010
0000
0000
0000
0110
0000
0100
0001
1000
0000
0100
0000
,  // measure 11
0011
0000
0000
0000
0001
0000
1000
0000
0100
0000
0000
0000
0100
0000
0010
0000
0000
0000
0010
0001
0100
0000
0010
0000
0110
0000
0101
0000
1010
0000
0000
0000
,  // measure 12
0101
0000
0000
0000
0001
0000
1000
0000
0100
0000
0000
0000
0100
0000
0010
0000
0000
0000
0010
0000
0001
0000
0000
0000
1001
0000
1000
0010
0100
0000
0001
0000
,  // measure 13
0011
0000
0000
0000
1000
0000
0010
0000
0001
0000
0000
0000
0001
0000
0010
0000
0000
0000
0010
1000
0100
0000
0010
0000
0011
0000
0101
0000
1001
0000
0000
0000
,  // measure 14
0110
0000
0001
0100
0010
0000
1000
0100
0000
0001
0010
0000
0100
0100
0100
0000
,  // measure 15
0001
0000
0010
0001
0100
0000
1000
0010
0000
0001
0100
0000
0010
0010
0010
0000
,  // measure 16
1001
0000
0000
0000
0000
0000
1000
0000
0000
1000
0000
0000
0100
0000
0000
0000
0000
0000
0010
0000
0000
0010
0000
0000
0000
0000
0000
0100
0000
0000
0100
0000
0000
0000
0000
0000
0001
0010
0100
1000
0001
0010
0100
1000
0001
0010
0100
1000
,  // measure 17
0001
0000
1000
0100
0010
0000
0110
0000
0100
0010
0001
0000
1000
0010
0100
0000
1001
0000
0001
0010
0100
0000
1000
0100
0010
1000
0001
0100
0010
0001
0100
0010
,  // measure 18
2000
0000
0010
0010
0000
0100
0200
0000
3000
0000
0001
0000
0010
0000
1300
0000
,  // measure 19
0002
0000
0010
0010
0000
0100
0200
0000
0003
0000
1000
0000
0010
0000
0301
0000
,  // measure 20
0020
0000
0001
0001
0000
1000
1000
0000
0000
0000
0130
0000
1000
0000
0010
0000
,  // measure 21
1001
0000
0001
0010
0100
0000
0110
0000
0010
0100
1000
0000
0001
0100
0010
0000
1001
0000
1000
0100
0010
0000
0001
0010
0100
0001
1000
0010
0100
1000
0010
0100
,  // measure 22
0001
0000
0011
0011
0000
1010
1010
0000
0000
0000
0010
0000
1000
0000
0001
0000
,  // measure 23
1001
0000
1100
1100
0000
0101
0101
0000
0000
0000
0100
0000
0001
0000
1000
0000
,  // measure 24
0010
0000
0000
0000
0000
0000
0200
0020
0000
0000
0000
0000
0000
0000
0000
0000
,  // measure 25
0000
0330
0000
0000
0000
0000
0000
0000
1001
0000
0000
0000
0000
0000
0000
0000
0001
0000
0000
0000
0100
0000
0000
0000
0000
0000
0000
0000
0100
0000
0000
0000
0010
0000
0000
0000
0000
0000
0000
0000
0000
0000
0000
0000
0000
0000
0000
0000
1000
0000
0000
0000
0000
0000
0000
0000
0100
0000
0000
0000
0000
0000
0000
0000
,  // measure 26
0010
0000
0110
0000
0010
0001
0000
0001
0100
0000
0000
0000
0010
0000
0100
0000
,  // measure 27
0001
0000
0000
0000
1000
0100
0001
0100
1000
0100
0001
0100
1001
0000
0000
0000
0001
0100
1000
0100
0001
0100
1000
0100
1001
0000
0000
0000
1000
0010
0001
0010
,  // measure 28
1000
0010
0001
0010
1001
0000
0000
0000
0001
0010
1000
0010
0001
0010
1000
0010
1001
0000
0000
0000
0011
0000
0101
0000
1100
0000
1010
0000
0101
0000
0011
0000
,  // measure 29
1001
0000
0110
0000
0010
1000
0000
1000
0001
0000
0000
0000
0010
0000
0001
0000
,  // measure 30
1000
0000
1001
0000
1000
0010
0000
0010
0100
0000
0000
0000
0010
0000
1000
0000
,  // measure 31
0001
0000
0000
0000
1000
0100
0001
0100
1000
0010
0001
0010
1001
0000
0000
0000
0001
0100
1000
0100
0001
0010
1000
0010
1001
0000
0000
0000
1000
0010
0001
0010
,  // measure 32
1000
0100
0001
0100
1001
0000
0000
0000
0001
0010
1000
0010
0001
0100
1000
0100
1001
0000
0000
0000
1010
0000
1100
0000
0101
0000
0011
0000
1100
0000
1010
0000
,  // measure 33
1001
0000
0000
0000
;

//---------------dance-double - ----------------
#NOTES:
     dance-double:
     :
     Challenge:
     19:
     0.649048,0.851131,0.525757,0.099199,1.001915,458.000000,405.000000,53.000000,10.000000,0.000000,0.000000,0.649048,0.851131,0.525757,0.099199,1.001915,458.000000,405.000000,53.000000,10.000000,0.000000,0.000000:
00000000
00000000
00000000
00000000
,
00000000
00000000
00000000
00000000
,
01100000
00000000
10000000
01000000
00000000
00100000
00010000
00000000
00000000
00000000
00001000
00000000
00000100
00000000
00000010
00000000
,
00000110
00000000
00000001
00000100
00000000
00000010
00001000
00000000
00000000
00000000
00010000
00000000
00100000
00000000
01000000
00000000
,
10000000
01000000
00010000
01000000
10000000
01000000
00010000
01000000
10000000
00000000
00000000
00000000
01000000
00010000
00001000
00010000
01000000
00010000
00001000
00010000
01000000
00000000
00000000
00000000
00010000
00001000
00000010
00001000
00010000
00001000
00000010
00001000
,
00010000
00000000
00000000
00000000
00001000
00000100
00000001
00000100
00001000
00000100
00000001
00000100
00001000
00000000
00000000
00000000
00000110
00000000
00001010
00000000
00010100
00000000
00011000
00000000
00101000
00000000
01100000
00000000
10010000
00000000
00000000
00000000
,
01100000
00000000
10000000
01000000
00000000
01000000
00010000
00000000
00000000
00000000
00001000
00000000
00000100
00000000
00000010
00000000
,
00001001
00000000
00000001
00000100
00000000
00000100
00001000
00000000
00000000
00000000
00001000
00000000
01000000
00000000
00100000
00000000
,
10000000
01000000
00010000
01000000
10000000
01000000
00001000
01000000
10000000
00000000
00000000
00000000
00100000
00010000
00001000
00010000
00100000
00010000
00000010
00010000
00100000
00000000
00000000
00000000
00010000
00001000
00000010
00001000
00010000
00001000
00000100
00001000
,
00010000
00000000
00000000
00000000
00001000
00000100
00000001
00000100
00010000
00000100
00000001
00000100
00001000
00000000
00000000
00000000
00010100
00000000
00010010
00000000
00101000
00000000
01001000
00000000
10100000
00000000
01100000
00000000
10010000
00000000
00000000
00000000
,
10000000
00000000
01000000
00100000
01000000
00000000
00100000
00010000
00000000
00010000
01000000
00000000
01010000
00000000
00000000
00100000
,
00001000
00000000
00010000
00000100
00010000
00000000
00001000
00000010
00000000
00000010
00000100
00000000
00000110
00000000
00000000
00000000
,
00000001
00000000
00000100
00000010
00000100
00000000
00000001
00001000
00000000
00001000
00000100
00000000
00010100
00000000
00000000
00001000
,
01000000
00000000
00010000
00100000
00010000
00000000
00100000
01000000
00000000
01000000
10000000
00000000
01100000
00000000
10010000
00000000
,
11000000
00000000
01000000
00010000
00001000
00000000
00001000
00010000
00000000
00010000
00000100
00000000
00000110
00000000
00000000
00000010
,
00000001
00000000
00000100
00001000
00010000
00000000
00010000
00001000
00000000
00001000
00000010
00000000
00000011
00000000
00000000
00000000
,
00000110
00000000
00000000
00000000
00000000
00000000
00000010
00000000
00000000
00001000
00000000
00000000
00010000
00000000
00000000
00000000
00000000
00000000
00010000
00000000
00000000
00001000
00000000
00000000
00000000
00000000
00000000
00001000
00000000
00000000
01000000
00000000
00000000
00000000
00000000
00000000
00100000
01000000
00100000
01000000
00100000
01000000
00100000
01000000
00100000
01000000
00100000
01000000
,
00100000
00000000
10000000
01000000
00010000
00000000
00011000
00000000
00001000
00000100
00000001
00000000
00001001
00000000
00001100
00000000
00010010
00000000
00010000
00100000
10000000
00000000
01000000
00010000
00001000
00000100
00001000
00010000
00100000
00010000
00001000
00000010
,
00002000
00000000
00010000
00010000
00000000
00000100
00003200
00000000
00000000
00000000
00000301
00000000
00000010
00000000
00001000
00000000
,
00020000
00000000
00001000
00001000
00000000
01000000
02030000
00000000
00000000
00000000
13000000
00000000
00100000
00000000
01000000
00000000
,
00020000
00000000
01000000
01000000
00000000
00100000
00100000
00000000
00000000
00000000
00032000
00000000
00000100
00000000
00003001
00000000
,
00000110
00000000
00000001
00000100
00001000
00000000
00000110
00000000
00000100
00001000
00010000
00000000
00011000
00000000
00001000
00010000
00100000
00000000
01100000
00000000
00100000
10000000
01000000
00000000
10000000
01000000
00100000
00010000
00001000
00000100
00000010
00000001
,
00002000
00000000
00000100
00000100
00000000
00000010
00000010
00000000
00000000
00000000
00000100
00000000
00000001
00000000
00000010
00000000
,
00023000
00000000
01000000
01000000
00000000
00100000
00100000
00000000
00000000
00000000
01000000
00000000
10000000
00000000
00100000
00000000
,
00031000
00000000
00000000
00000000
00000000
00000000
00000020
00000200
00000000
00000000
00000000
00000000
00000000
00000000
00000000
00000000
,
00000000
00000330
00000000
00000000
00000000
00000000
00000000
00000000
00001001
00000000
00000000
00000000
00000000
00000000
00000000
00000000
00000001
00000000
00000000
00000000
00000100
00000000
00000000
00000000
00000000
00000000
00000000
00000000
00000010
00000000
00000000
00000000
00001000
00000000
00000000
00000000
00000000
00000000
00000000
00000000
00000000
00000000
00000000
00000000
00000000
00000000
00000000
00000000
00010000
00000000
00000000
00000000
00000000
00000000
00000000
00000000
01000000
00000000
00000000
00000000
00000000
00000000
00000000
00000000
,
00100000
00000000
01100000
00000000
10000000
01000000
00000000
00100000
00010000
00000000
00000000
00000000
00001000
00000000
00000010
00000000
,
00000100
00000000
00000000
00000000
00000001
00000100
00001000
00000100
00000001
00000100
00001000
00000100
00000001
00000000
00000000
00000000
00000100
00001000
00010000
00001000
00000100
00001000
00010000
00001000
00000100
00000000
00000000
00000000
00001000
00010000
00100000
00010000
,
00001000
00010000
00100000
00010000
00001000
00000000
00000000
00000000
00010000
01000000
10000000
01000000
00010000
01000000
10000000
01000000
00010000
00000000
00000000
00000000
01100000
00000000
00110000
00000000
01001000
00000000
00011000
00000000
00010010
00000000
00000110
00000000
,
00001001
00000000
00000110
00000000
00000001
00000100
00000000
00000100
00001000
00000000
00000000
00000000
00010000
00000000
01000000
00000000
,
00100000
00000000
10010000
00000000
10000000
01000000
00000000
01000000
00010000
00000000
00000000
00000000
00010000
00000000
00000100
00000000
,
00000010
00000000
00000000
00000000
00000001
00000100
00001000
00000100
00000001
00000100
00010000
00000100
00000001
00000000
00000000
00000000
00000010
00001000
00010000
00001000
00000010
00001000
00100000
00001000
00000010
00000000
00000000
00000000
00001000
00010000
00100000
00010000
,
00000100
00010000
01000000
00010000
00001000
00000000
00000000
00000000
00010000
01000000
10000000
01000000
00001000
01000000
10000000
01000000
00010000
00000000
00000000
00000000
01001000
00000000
00101000
00000000
00010010
00000000
00010100
00000000
00000011
00000000
00000110
00000000
,
00001001
00000000
00000000
00000000
;
