#TITLE:STERLING SILVER;
#SUBTITLE:;
#ARTIST:TAG;
#TITLETRANSLIT:;
#SUBTITLETRANSLIT:;
#ARTISTTRANSLIT:;
#GENRE:;
#CREDIT:;
#BANNER:STERLING SILVER.png;
#BACKGROUND:STERLING SILVER-bg.png;
#LYRICSPATH:;
#CDTITLE:;
#MUSIC:STERLING SILVER.mp3;
#OFFSET:-1.940000;
#SAMPLESTART:90.400002;
#SAMPLELENGTH:12.000000;
#SELECTABLE:YES;
#BPMS:0.000000=350.000000
,352.000000=175.000000
,424.000000=87.500000
,427.000000=175.000000
,428.000000=350.000000
;
#STOPS:64.000000=1.029000,
350.000000=0.343000,
427.000000=0.343000
;
#BGCHANGES:;
#KEYSOUNDS:;
#ATTACKS:;

//---------------dance-single - ----------------
#NOTES:
     dance-single:
     :
     Challenge:
     16:
     0.852871,1.451089,0.456636,0.152212,0.181809,706.000000,652.000000,54.000000,18.000000,0.000000,0.000000,0.852871,1.451089,0.456636,0.152212,0.181809,706.000000,652.000000,54.000000,18.000000,0.000000,0.000000:
0000
0000
0000
0000
,
0000
0000
0000
0000
,
0000
0000
0000
0000
,
0000
0000
0000
0000
,
0000
0000
0000
0000
,
0000
0000
0000
0000
,
0000
0000
0000
0000
,
0000
0000
0000
0000
,
1000
0000
0010
0000
1000
0100
0010
0001
,
1000
0000
0000
0101
0000
0000
0110
0000
,
0001
0000
0100
0000
0001
0010
0100
1000
,
0001
0000
0000
1010
0000
0000
0110
0000
,
1000
0000
0001
0000
0100
0010
1000
0010
,
0100
0000
0000
1001
0000
0000
0101
0000
,
0110
0000
0000
1010
0000
0000
1001
0000
,
0000
0010
0001
0000
0100
0000
0010
0000
,
0220
0330
0000
0000
1000
0000
0100
0010
,
0000
0001
0010
0000
0100
1000
0000
1000
,
0001
0100
0010
0100
0001
0000
1000
0010
,
0000
0100
0010
0000
1000
0001
0000
0001
,
1000
0100
0010
0100
1000
0000
0001
1000
,
0000
0001
1000
0000
0001
0000
0010
0000
,
0110
0000
0100
0000
1000
0000
0000
0101
,
0000
0000
0001
0000
0010
0000
0010
0001
,
1000
0001
0100
0001
1000
0000
0001
0010
,
0001
0000
1000
0000
0010
1000
0000
1000
,
0001
0010
0100
0010
0001
1000
0001
1000
,
0001
0000
0010
0000
0001
0100
0000
0100
,
0001
0010
0100
0010
0001
0000
1000
0001
,
0000
1000
0001
0000
1000
0000
0100
0000
,
0001
0000
0100
0000
0010
0000
0000
0101
,
0000
0000
1001
0000
0000
0010
0100
0000
,
0001
0000
1000
0100
0010
0000
0001
0000
,
1000
0001
0100
0010
,
0000
1010
0000
0202
,
0000
0303
0000
1000
,
0001
0100
0010
1000
,
0001
1000
0100
0010
,
0000
0011
0000
2200
,
0000
3300
0000
0100
,
0010
0000
0001
0100
,
0010
1000
0100
0010
,
0000
0110
0000
0202
,
0000
0303
0000
0010
,
0100
0000
1000
0100
,
0010
0001
0100
0010
,
0000
0000
0220
0000
0330
0000
1000
0100
,
1000
0000
0001
0100
0001
0000
1000
0000
,
0010
0100
0010
0100
0010
0000
0010
0000
,
0110
0010
1000
0001
,
0010
0011
0000
0110
,
1000
0000
0000
1000
,
1010
0001
0010
0010
,
0110
0010
0001
1000
,
0100
1100
0000
0110
,
0001
0000
0000
0100
,
1010
0000
0010
0010
,
0110
0010
1000
0001
,
0010
0011
0000
1001
,
0100
0000
0000
0011
,
0110
0000
0010
0010
,
0110
0010
0010
1001
,
0000
0000
1010
0000
0000
0000
0001
0100
,
0010
0000
1000
0001
0010
0001
0000
1000
,
0010
0100
0001
1000
0100
0000
0010
0000
,
0001
0100
0010
1000
,
0010
1000
0001
0100
,
0010
1000
0100
0001
,
0100
1000
0001
0100
,
0010
1000
0001
0010
,
0100
0010
0001
0100
,
0010
0001
1000
0100
,
0010
0000
1000
0001
0100
0000
0010
0000
,
1000
0100
0010
0001
,
0100
0001
1000
0100
,
0010
0001
0100
0010
,
1000
0100
0001
0100
,
0010
0001
1000
0010
,
0100
0001
1000
0100
,
0010
1000
0010
0001
,
1000
0000
0001
0100
0020
0000
0000
0000
,
0000
0000
0000
0000
,
0000
0000
0000
0000
,
0000
0000
0000
0000
,
0000
0030
1100
0000
,
0101
0000
0011
0000
,
1010
0000
0000
0000
0001
0000
1000
0100
,
1000
0000
0001
0000
0100
0000
0001
0000
0020
0030
0000
0000
0000
0000
0000
0000
,
0001
0100
0010
0100
0001
0000
1000
0000
0100
0000
0010
0000
0001
0000
0100
0000
,
0010
0000
0000
0010
1000
0000
0000
1000
0100
0000
0100
0000
0001
0000
0000
0000
,
1000
0010
1000
0000
0010
0100
0010
0000
0100
0001
0100
0000
0001
0010
0001
0000
,
1000
0010
0100
0010
1000
0000
0001
0000
0010
0000
0100
0000
0110
0000
0000
0000
,
1000
0000
0000
0010
0100
0000
0001
0000
0010
0000
0100
0000
1000
0000
0001
0000
,
0100
0000
0000
0000
0000
0000
0100
0010
0100
0000
0001
0010
0100
1000
0100
1000
,
0100
0000
0000
0000
0110
0000
0000
0001
0100
0000
0001
0000
1000
0000
0100
0000
,
0010
0101
1001
0000
,
1000
0100
0001
0100
1000
0100
0001
0100
,
1000
0010
0001
0010
1000
0010
0001
0010
,
0100
1000
0100
0001
0100
1000
0100
0001
,
0010
1000
0010
0001
0010
1000
0010
0100
,
1000
0010
0100
0010
1000
0000
0000
0000
0001
0010
0100
0010
0001
0000
0000
0000
,
1000
0010
1000
0100
0010
0000
0000
0000
0100
0010
0001
0100
0001
0000
0000
0000
,
0100
0010
0100
0001
1000
0000
0100
0000
0010
0001
0000
0000
1001
0000
0000
0000
,
0001
0100
0010
1000
0100
0000
0010
0000
0100
0000
1000
0000
0001
0000
0000
0000
,
1000
0100
0000
0000
0100
0000
0010
0000
0001
0010
0000
0000
0010
0000
0001
0100
,
0010
0000
0100
0000
0001
0000
0010
0000
0100
0010
0000
0000
0110
0000
0000
0000
,
2000
0000
0000
0000
0000
0000
0000
0000
3000
0000
0001
0000
0100
0000
0010
0000
0100
0001
0100
0001
1000
0100
1000
0100
0020
0000
0030
0000
0000
0000
0000
0000
,
0001
0000
1000
0000
0100
0000
0010
0001
,
1000
0000
0001
0000
0100
0000
0010
1000
,
0001
0000
1000
0010
0000
1000
0100
0000
,
1000
0000
0100
0010
0001
0000
0100
0010
,
1000
0000
0001
0000
0100
0000
0010
1000
,
0100
0000
1000
0000
0100
0000
0010
0001
,
0100
0000
0001
1000
0000
1000
0010
0000
,
0100
0000
0001
1000
0100
0010
0100
0010
,
0100
0000
1000
0000
0001
0000
1000
0010
,
0100
0000
0010
0000
1000
0000
0001
0010
,
0100
0000
0010
0001
0000
0010
0001
0000
,
1000
0000
0010
0100
0001
0000
0010
0100
,
1000
0000
0001
0000
0010
0000
0001
0100
,
1000
0000
0100
0000
0001
0000
1000
0100
,
0001
0000
0100
1000
0010
0000
1000
0010
,
0100
0000
0220
0330
,
1000
0001
1000
0001
1000
0000
0001
0010
,
0100
0000
1000
0000
0010
0000
1000
0100
,
0010
0000
0001
0100
0000
0010
0100
0000
,
0001
0000
0010
0100
1000
0000
0010
0100
,
0001
0000
1000
0000
0010
0000
0100
0001
,
0010
0000
0001
0000
0010
0000
0100
1000
,
0010
0000
1000
0001
0000
0001
0100
0000
,
0010
0000
1000
0001
0010
0100
0010
0100
,
0010
0000
0001
0000
1000
0000
0001
0100
,
1000
0000
0100
0000
0010
0000
1000
0100
,
0001
0000
0100
1000
0000
0100
1000
0000
,
0001
0000
0100
0010
1000
0000
0100
0010
,
0001
0000
0010
0000
0100
0000
0001
0100
,
1000
0000
0010
0000
0100
0000
1000
0100
,
0001
0000
0010
0001
0000
0001
1000
0000
,
1000
0100
1000
0100
0010
0001
0010
0001
,
0100
0000
0000
1010
0000
0000
1001
0000
,
0000
0101
0000
0000
0011
0000
1010
0000
,
0001
0100
0001
0100
0001
0000
2002
0000
,
0000
0000
0000
0000
,
3003
0000
0000
0000
;
