#TITLE:STELLAR WIND;
#SUBTITLE:;
#ARTIST:L.E.D.;
#TITLETRANSLIT:;
#SUBTITLETRANSLIT:;
#ARTISTTRANSLIT:;
#GENRE:;
#CREDIT:;
#BANNER:STELLAR WIND-jacket.png;
#BACKGROUND:STELLAR WIND-bg.png;
#LYRICSPATH:;
#CDTITLE:;
#MUSIC:STELLAR WIND.mp3;
#OFFSET:-1.668999;
#SAMPLESTART:39.000000;
#SAMPLELENGTH:12.000000;
#SELECTABLE:YES;
#BPMS:0.000000=160.000000
;
#STOPS:196.000000=1.125000
;
#BGCHANGES:;
#KEYSOUNDS:;
#ATTACKS:;

//---------------dance-single - ----------------
#NOTES:
     dance-single:
     :
     Hard:
     14:
     0.757174,0.823006,0.546848,0.126196,0.689870,630.000000,565.000000,65.000000,15.000000,0.000000,0.000000,0.757174,0.823006,0.546848,0.126196,0.689870,630.000000,565.000000,65.000000,15.000000,0.000000,0.000000:
// measure 0
0000
0000
0000
0000
,  // measure 1
2100
0100
0100
0100
,  // measure 2
0100
3100
0120
0130
,  // measure 3
0102
0100
0100
0103
,  // measure 4
2100
3100
0120
0130
,  // measure 5
0102
0100
0100
0100
,  // measure 6
0100
0103
0120
0100
,  // measure 7
0130
0001
0100
0010
0100
1000
0100
0010
,  // measure 8
0101
0000
0000
1010
0000
0000
0011
0000
0000
1001
0000
0000
0101
0000
1000
0000
,  // measure 9
0100
0000
0000
1000
0100
0000
0010
0000
0100
1000
0000
0000
0100
0000
1000
0000
,  // measure 10
0101
0000
0000
0001
0100
0000
0010
0000
0100
0000
0000
0010
0100
0000
0001
0000
,  // measure 11
1100
0000
0000
0010
0100
0000
1000
0000
0100
0010
0000
0000
0100
0000
1000
0000
,  // measure 12
0101
0000
0000
0010
0100
0000
0010
0000
0100
0001
0000
0000
0100
0000
0001
0000
,  // measure 13
1100
0000
0000
1000
0100
0000
0001
0000
0100
1000
0000
0000
0100
0000
1000
0000
,  // measure 14
0110
0000
0000
0010
0100
0000
0010
0000
0110
0000
0000
0010
0100
0000
0010
0000
,  // measure 15
0100
0000
1000
0001
0100
0000
0010
0000
0100
0001
0010
0000
0100
0000
1000
0000
,  // measure 16
0110
0000
0000
1001
0000
0000
0101
0000
0100
0010
0100
0001
0100
0010
0100
0001
,  // measure 17
0100
0000
0000
0010
0100
0000
0001
0000
0100
0010
0000
0000
0100
0000
0001
0000
,  // measure 18
0100
0000
0000
1000
0100
0000
0001
0000
0100
0010
0000
0000
0100
0000
0001
0000
,  // measure 19
1100
0000
0000
1000
0100
0000
0010
0000
0110
0000
0000
0001
0100
0000
0010
0000
,  // measure 20
0101
0000
0000
1000
0100
0000
0010
0000
1100
0000
0000
0001
0100
0000
0100
0000
,  // measure 21
0110
0000
0000
0001
0100
0000
0001
0000
0100
0010
0000
0000
0100
0000
0010
0000
,  // measure 22
0100
0000
0000
0001
0100
0000
1000
0000
0100
0001
0000
0000
0100
0000
0010
0000
,  // measure 23
1100
0000
0000
0001
0100
0000
0001
1000
0100
0000
0000
0010
0100
0000
1000
0001
,  // measure 24
0100
0000
0000
0010
0100
0000
0001
0010
0100
0000
0000
1000
0100
0000
0100
0010
,  // measure 25
0100
0000
0000
0010
0100
0000
1000
0000
0100
0010
0000
0000
0100
0000
1000
0000
,  // measure 26
0100
0000
0000
0001
0100
0000
1000
0000
0100
0010
0000
0000
0100
0000
1000
0000
,  // measure 27
0101
0000
0000
0001
0100
0000
0010
0000
0110
0000
0000
1000
0100
0000
0010
0000
,  // measure 28
1100
0000
0000
0001
0100
0000
0010
0000
0101
0000
0000
1000
0100
0000
0100
0000
,  // measure 29
0110
0000
0000
1000
0100
0000
1000
0000
0100
0010
0000
0000
0100
0000
0010
0000
,  // measure 30
0100
0000
0000
1000
0100
0000
0001
0000
0100
1000
0000
0000
0100
0000
0010
0000
,  // measure 31
0101
0000
0000
1001
0000
0000
1010
0000
0100
0010
0000
0010
0100
0000
0001
0010
,  // measure 32
0100
0000
0000
1010
0000
0000
0001
0010
0100
0010
0100
0010
0100
1000
0100
1000
,  // measure 33
0002
0000
0000
0100
0000
0000
1000
0000
0000
1000
0000
0000
0010
0000
0000
0010
,  // measure 34
0000
0000
0100
0000
0000
0100
0000
0000
1000
0000
0000
1000
0000
0000
0013
0000
,  // measure 35
2000
0000
0000
0100
0000
0000
0010
0000
0000
0010
0000
0000
0001
0000
0000
0001
,  // measure 36
0000
0000
0100
0000
0000
0100
0000
0000
0010
0000
0000
0010
0000
0000
3010
0000
,  // measure 37
0201
0000
0000
0001
0000
0000
0010
0000
0000
0010
0000
0000
1000
0000
0000
1000
,  // measure 38
0000
0000
0010
0000
0000
0010
0000
0000
0001
0000
0000
0001
0000
0000
0301
0000
,  // measure 39
0020
0000
0000
1000
0000
0000
0100
0000
0000
0100
0000
0000
0001
0000
0000
0001
,  // measure 40
0000
0000
1000
0000
0000
1000
0000
0000
0100
0000
0000
0100
0000
0000
0130
0000
,  // measure 41
1001
0100
0000
0100
,  // measure 42
0000
0100
0000
0100
,  // measure 43
0000
0100
0000
0100
,  // measure 44
0000
0000
0000
0000
0100
0000
0000
0000
0000
0000
0000
0000
0100
0000
0001
1000
,  // measure 45
0100
0010
0100
1000
0100
0010
0100
1100
,  // measure 46
0101
0001
0100
0010
0100
0001
0100
1001
,  // measure 47
0110
0000
0000
0000
0100
0000
0001
0010
0100
0000
0000
0000
0100
0000
1000
0010
,  // measure 48
0100
0001
0010
0001
0100
0010
1000
0001
0100
0010
0100
0010
0100
0010
0100
0000
,  // measure 49
2002
3003
0000
0000
0000
0000
0000
0000
0110
0000
0000
0000
0000
0000
0010
0000
0100
0000
0000
0000
0001
0000
0000
0000
0100
0000
0001
0000
0000
0000
0000
0000
,  // measure 50
1100
0000
0000
1000
0100
0000
0010
0000
0100
0010
0000
0000
0101
0000
0000
0001
,  // measure 51
0100
0000
0001
0000
0110
0000
0000
0010
0100
0000
1000
0000
0100
1000
0000
0000
,  // measure 52
0101
0000
0000
0001
0100
0000
0010
0000
0100
0010
0000
0000
1100
0000
0000
1000
,  // measure 53
0100
0000
1000
0000
0101
0000
0000
0001
0100
0000
1000
0000
0100
1000
0000
0000
,  // measure 54
0110
0000
0000
0010
0100
0000
0001
0000
0100
0001
0000
0000
1100
0000
0000
1000
,  // measure 55
0100
0000
1000
0000
0110
0000
0000
0010
0100
0000
1000
0000
0100
1000
0000
0000
,  // measure 56
1100
0000
0000
1000
0100
0000
0001
0000
0100
0001
0000
0000
0110
0000
0000
0010
,  // measure 57
0100
0000
0010
0000
0110
0000
0000
0001
0100
0000
0010
0000
0100
1000
0000
0000
,  // measure 58
0101
0000
0000
0010
0100
0000
1000
0000
0100
0001
0000
0000
1100
0000
0000
1000
,  // measure 59
0100
0000
0001
0000
0110
0000
0000
1000
0100
0000
0010
0000
0100
0001
0000
0000
,  // measure 60
1100
0000
0000
0010
0100
0000
0001
0000
0100
1000
0000
0000
0101
0000
0000
0001
,  // measure 61
0100
1000
0100
0010
0100
0010
0100
0010
,  // measure 62
0100
1001
0110
0010
0100
0010
0100
0010
,  // measure 63
0100
0000
1001
0000
0100
0000
0010
1000
0100
0000
0010
0000
0100
1000
0010
0000
,  // measure 64
0100
0000
0010
1000
0100
0000
1000
0000
0100
0010
0001
0000
0100
0000
0001
1000
,  // measure 65
0100
0000
0010
0000
0100
1000
0001
0010
0100
0000
1000
0001
0100
0010
1000
0000
,  // measure 66
0100
1000
0100
1000
0100
0000
0000
0010
0100
0000
0010
0000
0100
0000
1000
0000
,  // measure 67
0100
1000
0000
0001
0100
0010
1000
0001
0100
0000
0010
1000
0100
0010
0001
0000
,  // measure 68
0100
0010
0100
0010
0100
0000
0000
0010
0100
0000
0010
0000
0100
0000
0001
0000
,  // measure 69
0000
0001
0000
0001
0100
0010
0100
0010
0100
0000
0100
1000
0100
1000
0100
0000
,  // measure 70
0100
0001
0100
0001
0100
0000
0000
0010
0100
0000
0010
0000
0100
0000
0001
0000
,  // measure 71
0100
0001
1000
0000
0100
0010
0001
1000
0100
0000
0010
0001
1000
0100
0010
0000
,  // measure 72
0001
1000
0100
0010
0001
1000
0000
1000
0010
0000
0010
0100
0000
0100
0001
0000
,  // measure 73
0010
0100
2002
0000
0000
0000
0000
0000
,  // measure 74
0000
0000
0000
0000
,  // measure 75
0000
3003
0000
0000
;

//---------------dance-single - ----------------
#NOTES:
     dance-single:
     :
     Medium:
     15:
     0.758376,0.823006,0.546848,0.126196,0.689870,631.000000,566.000000,65.000000,15.000000,0.000000,0.000000,0.758376,0.823006,0.546848,0.126196,0.689870,631.000000,566.000000,65.000000,15.000000,0.000000,0.000000:
0000
0000
0000
0000
,
1020
1000
1000
1000
,
1000
1030
1002
1003
,
1200
1000
1000
1300
,
1020
1030
1002
1003
,
1200
1000
1000
1000
,
1000
1300
1002
1000
,
1003
0100
1000
0001
1000
0010
1000
0001
,
1100
0000
0000
0011
0000
0000
0101
0000
0000
0110
0000
0000
1100
0000
0010
0000
,
1000
0000
0000
0010
1000
0000
0001
0000
1000
0010
0000
0000
1000
0000
0010
0000
,
1100
0000
0000
0100
1000
0000
0001
0000
1000
0000
0000
0001
1000
0000
0100
0000
,
1010
0000
0000
0001
1000
0000
0010
0000
1000
0001
0000
0000
1000
0000
0010
0000
,
1100
0000
0000
0001
1000
0000
0001
0000
1000
0100
0000
0000
1000
0000
0100
0000
,
1010
0000
0000
0010
1000
0000
0100
0000
1000
0010
0000
0000
1000
0000
0010
0000
,
1001
0000
0000
0001
1000
0000
0001
0000
1001
0000
0000
0001
1000
0000
0001
0000
,
1000
0000
0010
0100
1000
0000
0001
0000
1000
0100
0001
0000
1000
0000
0010
0000
,
1001
0000
0000
0110
0000
0000
1100
0000
1000
0001
1000
0100
1000
0001
1000
0100
,
1000
0000
0000
0001
1000
0000
0100
0000
1000
0001
0000
0000
1000
0000
0100
0000
,
1000
0000
0000
0010
1000
0000
0100
0000
1000
0001
0000
0000
1000
0000
0100
0000
,
1010
0000
0000
0010
1000
0000
0001
0000
1001
0000
0000
0100
1000
0000
0001
0000
,
1100
0000
0000
0010
1000
0000
0001
0000
1010
0000
0000
0100
1000
0000
1000
0000
,
1001
0000
0000
0100
1000
0000
0100
0000
1000
0001
0000
0000
1000
0000
0001
0000
,
1000
0000
0000
0100
1000
0000
0010
0000
1000
0100
0000
0000
1000
0000
0001
0000
,
1010
0000
0000
0100
1000
0000
0100
0010
1000
0000
0000
0001
1000
0000
0010
0100
,
1000
0000
0000
0001
1000
0000
0100
0001
1000
0000
0000
0010
1000
0000
1000
0001
,
1000
0000
0000
0001
1000
0000
0010
0000
1000
0001
0000
0000
1000
0000
0010
0000
,
1000
0000
0000
0100
1000
0000
0010
0000
1000
0001
0000
0000
1000
0000
0010
0000
,
1100
0000
0000
0100
1000
0000
0001
0000
1001
0000
0000
0010
1000
0000
0001
0000
,
1010
0000
0000
0100
1000
0000
0001
0000
1100
0000
0000
0010
1000
0000
1000
0000
,
1001
0000
0000
0010
1000
0000
0010
0000
1000
0001
0000
0000
1000
0000
0001
0000
,
1000
0000
0000
0010
1000
0000
0100
0000
1000
0010
0000
0000
1000
0000
0001
0000
,
1100
0000
0000
0110
0000
0000
0011
0000
1000
0001
0000
0001
1000
0000
0100
0001
,
1000
0000
0000
0011
0000
0000
0100
0001
1000
0001
1000
0001
1000
0010
1000
0010
,
0200
0000
0000
1000
0000
0000
0010
0000
0000
0010
0000
0000
0001
0000
0000
0001
,
0000
0000
1000
0000
0000
1000
0000
0000
0010
0000
0000
0010
0000
0000
0301
0000
,
0020
0000
0000
1000
0000
0000
0001
0000
0000
0001
0000
0000
0100
0000
0000
0100
,
0000
0000
1000
0000
0000
1000
0000
0000
0001
0000
0000
0001
0000
0000
0031
0000
,
2100
0000
0000
0100
0000
0000
0001
0000
0000
0001
0000
0000
0010
0000
0000
0010
,
0000
0000
0001
0000
0000
0001
0000
0000
0100
0000
0000
0100
0000
0000
3100
0000
,
0002
0000
0000
0010
0000
0000
1000
0000
0000
1000
0000
0000
0100
0000
0000
0100
,
0000
0000
0010
0000
0000
0010
0000
0000
1000
0000
0000
1000
0000
0000
1003
0000
,
0110
1000
0000
1000
,
0000
1000
0000
1000
,
0000
1000
0000
1000
,
0000
0000
0000
0000
1000
0000
0000
0000
0000
0000
0000
0000
1000
0000
0100
0010
,
1000
0001
1000
0010
1000
0001
1000
1010
,
1100
0100
1000
0001
1000
0100
1000
0110
,
1001
0000
0000
0000
1000
0000
0100
0001
1000
0000
0000
0000
1000
0000
0010
0001
,
1000
0100
0001
0100
1000
0001
0010
0100
1000
0001
1000
0001
1000
0001
1000
0000
,
0220
0330
0000
0000
0000
0000
0000
0000
1001
0000
0000
0000
0000
0000
0001
0000
1000
0000
0000
0000
0100
0000
0000
0000
1000
0000
0100
0000
0000
0000
0000
0000
,
1010
0000
0000
0010
1000
0000
0001
0000
1000
0001
0000
0000
1100
0000
0000
0100
,
1000
0000
0100
0000
1001
0000
0000
0001
1000
0000
0010
0000
1000
0010
0000
0000
,
1100
0000
0000
0100
1000
0000
0001
0000
1000
0001
0000
0000
1010
0000
0000
0010
,
1000
0000
0010
0000
1100
0000
0000
0100
1000
0000
0010
0000
1000
0010
0000
0000
,
1001
0000
0000
0001
1000
0000
0100
0000
1000
0100
0000
0000
1010
0000
0000
0010
,
1000
0000
0010
0000
1001
0000
0000
0001
1000
0000
0010
0000
1000
0010
0000
0000
,
1010
0000
0000
0010
1000
0000
0100
0000
1000
0100
0000
0000
1001
0000
0000
0001
,
1000
0000
0001
0000
1001
0000
0000
0100
1000
0000
0001
0000
1000
0010
0000
0000
,
1100
0000
0000
0001
1000
0000
0010
0000
1000
0100
0000
0000
1010
0000
0000
0010
,
1000
0000
0100
0000
1001
0000
0000
0010
1000
0000
0001
0000
1000
0100
0000
0000
,
1010
0000
0000
0001
1000
0000
0100
0000
1000
0010
0000
0000
1100
0000
0000
0100
,
1000
0010
1000
0001
1000
0001
1000
0001
,
1000
0110
1001
0001
1000
0001
1000
0001
,
1000
0000
0110
0000
1000
0000
0001
0010
1000
0000
0001
0000
1000
0010
0001
0000
,
1000
0000
0001
0010
1000
0000
0010
0000
1000
0001
0100
0000
1000
0000
0100
0010
,
1000
0000
0001
0000
1000
0010
0100
0001
1000
0000
0010
0100
1000
0001
0010
0000
,
1000
0010
1000
0010
1000
0000
0000
0001
1000
0000
0001
0000
1000
0000
0010
0000
,
1000
0010
0000
0100
1000
0001
0010
0100
1000
0000
0001
0010
1000
0001
0100
0000
,
1000
0001
1000
0001
1000
0000
0000
0001
1000
0000
0001
0000
1000
0000
0100
0000
,
1000
0100
0000
0100
1000
0001
1000
0001
1000
0000
1000
0010
1000
0010
1000
0000
,
1000
0100
1000
0100
1000
0000
0000
0001
1000
0000
0001
0000
1000
0000
0100
0000
,
1000
0100
0010
0000
1000
0001
0100
0010
1000
0000
0001
0100
0010
1000
0001
0000
,
0100
0010
1000
0001
0100
0010
0000
0010
0001
0000
0001
1000
0000
1000
0100
0000
,
0001
1000
0220
0000
0000
0000
0000
0000
,
0000
0000
0000
0000
,
0000
0330
0000
0000
;

//---------------dance-single - ----------------
#NOTES:
     dance-single:
     :
     Easy:
     11:
     0.391808,0.506465,0.033652,0.151435,0.357554,326.000000,322.000000,4.000000,18.000000,0.000000,0.000000,0.391808,0.506465,0.033652,0.151435,0.357554,326.000000,322.000000,4.000000,18.000000,0.000000,0.000000:
0000
0000
0000
0000
,
2000
0000
0000
0000
,
0000
3000
0020
0030
,
0002
0000
0000
0003
,
2000
3000
0020
0030
,
0002
0000
0000
0000
,
0000
0003
0020
0030
,
0200
0000
0000
0000
,
0301
0000
0000
1000
0000
0000
0001
0000
0000
1000
0000
0000
0001
0000
1000
0000
,
0100
0000
0000
1000
0000
0000
0010
0000
0000
1000
0000
0000
0100
0000
1000
0000
,
0001
0000
0000
0001
0000
0000
0010
0000
0100
0000
0000
0010
0000
0000
0001
0000
,
1000
0000
0000
0010
0000
0000
1000
0000
0000
0010
0000
0000
0100
0000
1000
0000
,
0001
0000
0000
0010
0000
0000
0010
0000
0000
0001
0000
0000
0100
0000
0001
0000
,
1000
0000
0000
1000
0000
0000
0001
0000
0000
1000
0000
0000
0100
0000
1000
0000
,
0010
0000
0000
0010
0000
0000
0010
0000
0010
0000
0000
0010
0000
0000
0010
0000
,
0100
0000
0000
0001
0000
0000
0010
0000
0000
0001
0000
0000
0100
0000
1000
0000
,
0010
0000
0000
1000
0000
0000
0001
0000
0100
0000
0000
0001
0000
0000
0100
0000
,
0100
0000
0000
0010
0000
0000
0001
0000
0000
0010
0000
0000
0100
0000
0001
0000
,
0100
0000
0000
1000
0000
0000
0001
0000
0000
0010
0000
0000
0100
0000
0001
0000
,
1000
0000
0000
1000
0000
0000
0010
0000
0010
0000
0000
0001
0000
0000
0010
0000
,
0001
0000
0000
1000
0000
0000
0010
0000
1000
0000
0000
0001
0000
0000
0100
0000
,
0010
0000
0000
0001
0000
0000
0001
0000
0000
0010
0000
0000
0100
0000
0010
0000
,
0100
0000
0000
0001
0000
0000
1000
0000
0000
0001
0000
0000
0100
0000
0010
0000
,
1000
0000
0000
0001
0000
0000
0001
0000
0100
0000
0000
0010
0000
0000
1000
0000
,
0100
0000
0000
0010
0000
0000
0001
0000
0100
0000
0000
1000
0000
0000
0100
0000
,
0100
0000
0000
0010
0000
0000
1000
0000
0000
0010
0000
0000
0100
0000
1000
0000
,
0100
0000
0000
0001
0000
0000
1000
0000
0000
0010
0000
0000
0100
0000
1000
0000
,
0001
0000
0000
0001
0000
0000
0010
0000
0010
0000
0000
1000
0000
0000
0010
0000
,
1000
0000
0000
0001
0000
0000
0010
0000
0001
0000
0000
1000
0000
0000
0100
0000
,
0010
0000
0000
1000
0000
0000
1000
0000
0000
0010
0000
0000
0100
0000
0010
0000
,
0100
0000
0000
1000
0000
0000
0001
0000
0000
1000
0000
0000
0100
0000
0010
0000
,
0001
0000
0000
0001
0000
0000
1000
0000
0100
0000
0000
0010
0000
0000
0001
0000
,
0100
0000
0000
1000
0000
0000
0001
0000
0100
0000
0000
0010
0000
0000
0100
0000
,
0002
0000
0000
0000
,
0000
0000
0000
0003
,
2000
0000
0000
0000
,
0000
0000
0000
3000
,
0200
0000
0000
0000
,
0000
0000
0000
0300
,
0020
0000
0000
0000
,
0000
0000
0000
0030
,
1001
0100
0000
0100
,
0000
0100
0000
0100
,
0000
0100
0000
0100
,
0000
0100
0000
0100
,
0100
0000
0000
0000
0000
0000
0000
1000
,
0001
0000
0000
0000
0000
0000
0000
1000
,
0100
0000
0000
0001
0100
0000
0000
1000
,
0100
0100
0220
0330
,
2002
3003
0000
0000
0000
0000
0000
0000
0010
0000
0000
0000
0000
0000
0010
0000
0000
0000
0000
0000
0001
0000
0000
0000
0000
0000
0001
0000
0000
0000
0000
0000
,
1000
0000
0000
1000
0000
0000
0010
0000
0000
0010
0000
0000
0001
0000
0000
0001
,
0000
0000
0001
0000
0010
0000
0000
0010
0000
0000
1000
0000
0000
1000
0000
0000
,
0001
0000
0000
0001
0000
0000
0010
0000
0000
0010
0000
0000
1000
0000
0000
1000
,
0000
0000
1000
0000
0001
0000
0000
0001
0000
0000
1000
0000
0000
1000
0000
0000
,
0010
0000
0000
0010
0000
0000
0001
0000
0000
0001
0000
0000
1000
0000
0000
1000
,
0000
0000
1000
0000
0010
0000
0000
0010
0000
0000
1000
0000
0000
1000
0000
0000
,
1000
0000
0000
1000
0000
0000
0001
0000
0000
0001
0000
0000
0010
0000
0000
0010
,
0000
0000
0010
0000
0010
0000
0000
0001
0000
0000
0010
0000
0000
1000
0000
0000
,
0001
0000
0000
0010
0000
0000
1000
0000
0000
0001
0000
0000
1000
0000
0000
1000
,
0000
0000
0001
0000
0010
0000
0000
1000
0000
0000
0010
0000
0000
0001
0000
0000
,
1000
0000
0000
0010
0000
0000
0001
0000
0000
1000
0000
0000
0001
0000
0000
0001
,
0000
1000
0100
0000
0001
0000
0010
0000
,
1000
0001
0100
0000
1000
0000
0010
0000
,
0001
1000
0100
0000
0000
0010
0100
0000
,
0000
0010
0100
1000
0100
0001
0100
0001
,
0100
0010
0100
0001
0100
0000
0100
1000
,
0100
0000
0000
0000
0100
0000
0000
0010
0000
0000
0010
0000
0100
0000
1000
0000
,
0100
0000
0100
1000
0100
0000
0100
0001
,
0100
0000
0000
0000
0100
0000
0000
0010
0000
0000
0010
0000
0100
0000
0001
0000
,
0100
0000
0100
0100
0100
0000
0100
0100
,
0100
0000
0000
0000
0100
0000
0000
0010
0000
0000
0010
0000
0100
0000
0001
0000
,
0100
0000
0100
0001
0100
0010
1000
0010
,
0001
0000
0100
0000
0001
0000
0000
1000
0000
0000
0010
0000
0000
0100
0000
0000
,
0010
0100
2002
0000
0000
0000
0000
0000
,
0000
0000
0000
0000
,
0000
3003
0000
0000
;
