#TITLE:POP TEAM EPIC;
#SUBTITLE:;
#ARTIST:上坂すみれ;
#TITLETRANSLIT:;
#SUBTITLETRANSLIT:;
#ARTISTTRANSLIT:;
#GENRE:;
#CREDIT:;
#BANNER:;
#BACKGROUND:POP TEAM EPIC-bg.png;
#LYRICSPATH:;
#CDTITLE:;
#MUSIC:POP TEAM EPIC.mp3;
#OFFSET:0.180000;
#SAMPLESTART:42.613525;
#SAMPLELENGTH:12.000000;
#SELECTABLE:YES;
#BPMS:0.000000=142.000000
;
#STOPS:
;
#BGCHANGES:0.000=POP TEAM EPIC.avi=1.000=1=0=0=StretchNoLoop==CrossFade==,
99999=-nosongbg-=1.000=0=0=0 // don't automatically add -songbackground-
;
#KEYSOUNDS:;
#ATTACKS:;

//---------------dance-single - ----------------
#NOTES:
     dance-single:
     :
     Hard:
     12:
     0.538091,0.547059,0.217125,0.113282,0.033041,399.000000,376.000000,23.000000,12.000000,0.000000,0.000000,0.538091,0.547059,0.217125,0.113282,0.033041,399.000000,376.000000,23.000000,12.000000,0.000000,0.000000:
// measure 0
0000
0000
0000
0000
,  // measure 1
0000
0000
0000
0000
,  // measure 2
0000
0000
0000
0000
,  // measure 3
0000
0000
0000
0000
,  // measure 4
0000
0000
0000
0000
,  // measure 5
2010
0000
0010
0000
0001
3001
0000
0000
,  // measure 6
0102
0000
1000
0000
0100
0103
0000
0000
,  // measure 7
1020
0000
0100
0000
1000
1030
0002
0000
,  // measure 8
0203
0000
0001
0000
0010
0310
2000
0000
,  // measure 9
3001
0000
1010
0000
0001
0010
0001
0010
,  // measure 10
0100
0000
1100
0000
1000
0001
1000
0010
,  // measure 11
0100
0000
0011
0001
0100
0010
1000
0010
,  // measure 12
0100
0000
0001
0000
0110
0000
0000
1000
0000
0001
1000
0000
0100
0000
0010
0000
,  // measure 13
1001
0000
0010
0000
0100
1000
0010
1000
,  // measure 14
0100
0000
0010
0010
0000
0001
0001
0000
,  // measure 15
1000
0100
1000
0100
0000
0010
0100
1000
,  // measure 16
0001
0000
0100
0010
1000
0001
0001
0000
,  // measure 17
0110
0000
0100
0000
0010
0001
1000
0001
,  // measure 18
0010
0000
0001
0001
0000
0100
0100
0000
,  // measure 19
0010
0100
0010
0100
0000
1000
0001
0010
,  // measure 20
0100
0000
1000
0000
0100
0000
0000
0100
0000
0000
0001
0000
1000
0100
1000
0000
,  // measure 21
0001
0100
0010
0100
0010
1000
0100
0100
,  // measure 22
0010
0001
1000
1000
0010
0100
0010
0000
,  // measure 23
0100
0100
0001
0010
0001
1000
0001
0001
,  // measure 24
0010
0001
1000
0100
0001
0100
1000
0000
,  // measure 25
0001
0100
1000
0010
0001
1000
0001
0100
,  // measure 26
0100
0010
0100
0001
0100
0010
1000
1000
,  // measure 27
0010
0100
0001
0100
1000
0100
0001
0001
,  // measure 28
0010
0001
1000
0001
1000
0010
0010
0000
,  // measure 29
0002
0100
2003
0100
,  // measure 30
3002
0010
2003
0010
,  // measure 31
3200
0001
0010
1000
,  // measure 32
0320
0000
1000
0000
0100
0100
0031
0000
,  // measure 33
0100
0010
0100
0100
0001
0010
1000
0010
,  // measure 34
0001
0100
0010
0100
0001
0001
1000
0100
,  // measure 35
0001
0000
0010
0000
1000
0000
0100
0100
,  // measure 36
0000
0000
0100
1001
0000
0010
0010
0010
,  // measure 37
1000
0100
0010
0001
1000
0100
0010
0001
,  // measure 38
1000
0100
0010
0001
0000
0001
0010
0100
,  // measure 39
1000
1000
0010
0100
0001
0001
1000
0001
,  // measure 40
0010
0100
0010
1001
0000
0100
0100
0100
,  // measure 41
0010
0001
1000
0001
0100
1000
0100
0001
,  // measure 42
1000
1000
0001
1000
0001
0010
0001
1000
,  // measure 43
0110
0000
0001
0100
0110
0000
1000
0100
,  // measure 44
0010
0000
0110
1001
0000
0010
0010
0010
,  // measure 45
0001
0010
0100
1000
0001
0010
0100
1000
,  // measure 46
0001
0010
0100
1000
0000
1000
0100
0010
,  // measure 47
0001
0001
0100
0010
0100
0001
1000
0001
,  // measure 48
0010
0010
0001
0110
0000
0100
0100
0100
,  // measure 49
1000
0100
0001
0100
1000
1000
0010
0100
,  // measure 50
0010
0010
1000
0001
0100
1000
0100
0001
,  // measure 51
0110
0000
0001
1000
1100
0000
0010
0100
,  // measure 52
1001
0000
0100
0100
0000
0011
1001
0000
,  // measure 53
0100
0001
0100
0001
0010
0010
0100
0100
,  // measure 54
0010
0001
0100
0010
0000
0010
0010
0010
,  // measure 55
1000
0001
1000
0100
0100
1000
0010
0001
,  // measure 56
0010
1000
0001
0001
0000
0100
0100
0000
,  // measure 57
0010
0001
0100
0001
0010
0010
0100
0100
,  // measure 58
0010
0001
0100
0010
1000
0001
0001
1000
,  // measure 59
0001
0100
1000
0100
0001
1000
0100
0100
,  // measure 60
1001
0000
0000
0001
0000
1000
0100
0000
0000
0010
0100
0000
0100
0000
1000
0000
,  // measure 61
1001
0000
0000
0000
;
