#TITLE:NEW GENERATION -もう、お前しか見えない-;
#SUBTITLE:;
#ARTIST:SUPER STAR 満-MITSURU-;
#TITLETRANSLIT:;
#SUBTITLETRANSLIT:;
#ARTISTTRANSLIT:;
#GENRE:;
#CREDIT:;
#BANNER:;
#BACKGROUND:NEW GENERATION-bg.jpg;
#LYRICSPATH:;
#CDTITLE:;
#MUSIC:NEW GENERATION.mp3;
#OFFSET:-0.040000;
#SAMPLESTART:61.000000;
#SAMPLELENGTH:12.000000;
#SELECTABLE:YES;
#BPMS:0.000000=165.000000
,111.000000=82.500000
,113.000000=165.000000
;
#STOPS:83.000000=0.364000,
111.000000=1.455000,
161.000000=3.636000,
235.000000=5.091000
;
#BGCHANGES:;
#KEYSOUNDS:;
#ATTACKS:;

//---------------dance-single - ----------------
#NOTES:
     dance-single:
     :
     Hard:
     16:
     0.847882,0.980648,0.626898,0.105840,0.948488,729.000000,652.000000,77.000000,13.000000,0.000000,0.000000,0.847882,0.980648,0.626898,0.105840,0.948488,729.000000,652.000000,77.000000,13.000000,0.000000,0.000000:
// measure 0
0000
0000
0000
0000
,  // measure 1
0000
0000
0000
0000
,  // measure 2
0000
0000
0000
0000
,  // measure 3
0010
0100
1000
0010
,  // measure 4
0001
0100
0010
1000
,  // measure 5
1001
0010
0100
1000
,  // measure 6
1001
0010
0001
0100
,  // measure 7
1001
0001
0100
0010
1010
1000
0001
0100
,  // measure 8
0110
0101
1100
0110
,  // measure 9
0001
0100
0001
0000
1000
0001
0000
0010
0001
0000
0100
0001
0000
1000
0001
0000
,  // measure 10
1000
0100
1000
0000
0010
1000
0000
0100
1000
0000
0001
1000
0000
0010
1000
0000
,  // measure 11
0010
0100
0010
0000
1000
0010
0000
1000
0001
0000
1000
0100
0000
0010
0001
0000
,  // measure 12
0010
0100
0010
0000
0001
0100
0000
0001
1000
0000
0001
0100
0000
1000
0010
0000
,  // measure 13
0001
0100
0001
0000
1000
0001
0000
0100
0001
0000
0010
0001
0000
1000
0001
0000
,  // measure 14
1000
0010
1000
0000
0001
1000
0000
0100
1000
0000
0010
1000
0000
0001
1000
0000
,  // measure 15
1010
0100
0001
0010
1000
0100
0010
0001
,  // measure 16
0110
0000
0000
1010
0000
0000
0011
0000
0000
1010
0000
0000
0011
0000
0110
0000
,  // measure 17
0100
1000
0100
0000
0100
0010
0000
0010
0001
0000
0001
0010
0000
0010
0100
0000
,  // measure 18
0100
0000
1000
0100
0000
0010
0100
0000
1000
0100
0000
0001
0100
0000
1000
0000
,  // measure 19
1000
0010
1000
0000
1000
0100
0000
0100
0010
0000
0010
0001
0000
0001
0100
0000
,  // measure 20
0100
0010
0100
0000
0001
0100
0000
0010
0100
0000
0001
0100
1000
0100
1000
0000
,  // measure 21
0001
1000
0000
0010
1000
0000
0100
1000
0000
0001
1000
0000
0001
0100
0001
0000
,  // measure 22
0010
0001
0000
0100
0001
0000
1000
0001
0000
0010
0001
0000
0110
0000
0010
0000
,  // measure 23
0001
0000
0100
0000
0110
0000
0010
0000
0100
0000
0001
0000
1001
0000
0000
0110
,  // measure 24
0000
0000
1001
0000
0000
1010
0000
0000
0011
0000
1100
0000
0000
0000
0110
0000
,  // measure 25
0000
0000
0101
0000
0000
0000
1001
0000
0000
0000
0011
0000
0001
0100
0001
0100
,  // measure 26
0001
0000
0000
0100
0000
0000
0001
0000
0000
0100
0000
0000
0010
0000
0000
1000
0000
0000
0010
0000
0000
1000
0000
0000
0010
0000
0000
1000
0000
0000
0010
0000
0000
1000
0000
0000
0001
0000
0000
0000
0010
0000
0000
0000
0100
0000
0000
0000
,  // measure 27
1000
0000
0010
0000
0100
0000
0001
0000
1000
0000
0100
0000
0001
0000
0010
0000
0002
0000
2000
0000
0000
3003
0000
0000
,  // measure 28
0000
0000
0000
0100
0010
0000
0000
0000
0000
0000
0000
0000
0000
0000
0000
0000
,  // measure 29
0000
1010
0000
0001
,  // measure 30
1000
0000
1001
0100
0000
0100
0000
0100
,  // measure 31
0000
0100
1001
0100
0000
0100
0000
0100
,  // measure 32
0000
0100
1001
1000
0000
0100
0000
0001
,  // measure 33
0010
1000
0100
0001
0000
0100
0000
1000
,  // measure 34
0010
0000
0001
0000
0100
0000
1000
0000
0001
0100
0001
0100
0001
0000
0010
0000
,  // measure 35
0100
0010
0100
0010
0100
0000
1000
0000
0001
1000
0001
1000
0001
0000
0100
0000
,  // measure 36
0010
1000
0010
1000
0100
0000
0100
0001
0100
0000
0100
1000
0100
0000
0100
0001
,  // measure 37
0100
0000
0100
1000
0010
0000
0010
0001
0010
0000
0010
1000
0010
0000
0010
0001
,  // measure 38
0010
0000
0010
1000
0001
1000
0001
1000
0001
1000
0001
1000
0100
0010
0100
0010
,  // measure 39
0100
0010
0100
0010
1000
0001
1000
0001
1000
0001
1000
0001
1000
0001
1000
0001
,  // measure 40
1000
0000
0001
0000
1000
0000
0002
0000
2000
3003
0000
0000
0000
0000
0000
0000
0110
0000
0000
0000
0000
0000
0000
0000
0001
0000
0100
0000
0001
0000
0100
0000
,  // measure 41
0001
0010
0100
1000
0010
0000
0000
1001
0000
0000
0010
0001
1000
0001
1000
0001
,  // measure 42
0010
0100
1000
0010
0000
0001
0100
0000
0010
0000
1000
0000
0001
0100
0001
0100
,  // measure 43
0001
0010
0100
1000
0001
0000
0000
1001
0000
0000
0001
0010
0100
1000
0001
0010
,  // measure 44
0000
1000
0100
0010
0001
0100
0000
0001
0010
0100
1000
0000
0001
0100
0001
0100
,  // measure 45
0001
0010
0100
1000
0010
0000
0000
1001
0000
0000
0100
0001
1000
0001
1000
0001
,  // measure 46
0010
0100
1000
0010
0000
0010
1000
0000
0100
0000
0010
0000
0001
0100
0001
0100
,  // measure 47
0001
0010
0100
1000
0001
0000
0000
1001
0000
0000
0100
0010
0100
0000
0100
1000
,  // measure 48
0000
1000
0010
0000
0010
0001
0000
0001
0100
0000
0100
0010
0001
0000
0001
0010
,  // measure 49
0000
0010
1000
0000
1000
0100
0010
0000
1001
0000
0000
0000
1000
0000
0100
0000
,  // measure 50
0011
0100
0001
0010
1010
0100
1000
0010
,  // measure 51
0101
0100
0001
0100
1010
0010
1000
0010
,  // measure 52
0101
0001
0010
1000
1001
0100
0001
0100
,  // measure 53
0011
0100
1000
0010
0110
0000
0101
1001
,  // measure 54
1010
0101
0110
1001
1010
0110
0002
2003
,  // measure 55
3200
0302
0023
2030
3200
0310
0101
0011
,  // measure 56
1010
1100
1001
0110
1001
0101
0110
0000
,  // measure 57
1001
0000
0001
0010
1000
0000
2002
0000
,  // measure 58
0000
0000
3003
0100
,  // measure 59
0000
0000
0000
0000
0001
0100
0001
0100
0001
0010
0100
1000
0010
0000
0000
1001
,  // measure 60
0000
0000
0010
0001
1000
0001
1000
0001
0010
0100
1000
0010
0000
0001
0010
0000
,  // measure 61
0100
0000
1010
0000
0001
0100
0001
0100
0001
0010
0100
1000
0001
0000
0000
1001
,  // measure 62
0000
0000
0100
0010
1000
0000
0000
0101
0000
0000
1100
0000
0000
0100
0100
0000
,  // measure 63
0010
0000
0100
0010
0001
0000
0000
1010
0000
0000
0011
0000
0000
0010
0010
0000
,  // measure 64
1001
0000
0000
0000
0001
0010
0100
1000
1010
0000
0010
0100
0001
0000
0000
0110
,  // measure 65
0000
0000
0001
0010
0100
1000
0100
0010
0001
0010
0100
1000
0000
1000
0100
0000
,  // measure 66
0010
0000
1000
0000
0001
0010
0100
1000
0010
0100
0010
0100
0001
0000
0000
0110
,  // measure 67
0000
0000
0100
0001
0010
0100
1000
0001
0000
0100
1000
0001
0010
0100
0000
0001
,  // measure 68
0010
0100
1000
0000
0001
0010
0100
1000
0010
0100
0010
0100
0001
0000
0000
0110
,  // measure 69
0000
0000
0001
0010
0100
1000
0010
0100
0001
0010
0001
1000
0000
0001
0100
0000
,  // measure 70
1000
0000
0100
0000
0010
0100
0010
1000
0100
0010
0001
1000
0010
0000
0000
1010
,  // measure 71
0000
0000
0010
1000
0100
0000
1000
0001
0000
0010
0001
0000
0001
1000
0000
0010
,  // measure 72
0100
0000
0100
0001
1000
0100
0010
0001
1000
0001
0010
0100
1000
0001
1000
0010
,  // measure 73
0001
0000
0000
0000
;
