#TITLE:MAXX UNLIMITED;
#SUBTITLE:;
#ARTIST:Z;
#TITLETRANSLIT:;
#SUBTITLETRANSLIT:;
#ARTISTTRANSLIT:;
#GENRE:;
#CREDIT:;
#BANNER:MAXX UNLIMITED.png;
#BACKGROUND:MAXX UNLIMITED-bg.png;
#LYRICSPATH:;
#CDTITLE:;
#MUSIC:MAXX UNLIMITED.ogg;
#OFFSET:0.000000;
#SAMPLESTART:13.600000;
#SAMPLELENGTH:15.000000;
#SELECTABLE:YES;
#DISPLAYBPM:140.000000:320.000000;
#BPMS:0.000000=300.000000
,164.000000=279.882996
,196.000000=300.000000
,228.000000=150.000000
,244.000000=300.000000
,276.000000=140.078003
,284.000000=124.999992
,285.000000=48.387001
,286.000000=319.984985
;
#STOPS:286.000000=1.500000
;
#BGCHANGES:;
#KEYSOUNDS:;
#ATTACKS:TIME=0.000000:LEN=999.000000:MODS=*99 9999 sudden:TIME=0.200000:LEN=99.000000:MODS=*3 166 suddenoffset:TIME=45.459999:LEN=99.000000:MODS=*3 33 suddenoffset:TIME=51.860001:LEN=99.000000:MODS=*3 166 suddenoffset:TIME=58.259998:LEN=99.000000:MODS=*3 33 suddenoffset:TIME=61.860001:LEN=99.000000:MODS=*2 -33 suddenoffset:TIME=63.180000:LEN=99.000000:MODS=*3 166 suddenoffset:TIME=63.200001:LEN=1.300000:MODS=*3 -75 suddenoffset;

//---------------dance-single - ----------------
#NOTES:
     dance-single:
     yuisin:
     Challenge:
     18:
     1.030796,1.248753,0.888224,0.459082,0.638723,723.000000,634.000000,89.000000,46.000000,0.000000,0.000000,1.030796,1.248753,0.888224,0.459082,0.638723,723.000000,634.000000,89.000000,46.000000,0.000000,0.000000:
// measure 0
0000
0000
0000
0000
,  // measure 1
0000
0000
0000
0000
,  // measure 2
0000
0000
0000
0000
,  // measure 3
0000
0000
0000
0000
,  // measure 4
0000
0000
0000
0000
,  // measure 5
0000
0000
0000
0000
,  // measure 6
0000
0000
0000
0000
,  // measure 7
0000
0000
0000
0000
,  // measure 8
0000
0000
0000
0000
,  // measure 9
0010
0001
1000
0000
0001
0100
0010
0000
,  // measure 10
1000
0001
0010
0000
0100
1000
0010
0000
,  // measure 11
1000
0010
0100
0000
0010
1000
0001
0000
,  // measure 12
0010
0001
0100
0000
0001
0010
0100
0000
,  // measure 13
0010
0001
1000
0000
0010
0100
0001
0000
,  // measure 14
0010
0100
1000
0000
0100
1000
0010
0000
,  // measure 15
0110
0000
0000
2002
0000
0000
0000
3003
,  // measure 16
0001
0010
0100
1000
0010
0100
0001
0010
,  // measure 17
0200
0000
0310
0001
0000
1001
0000
0101
,  // measure 18
0002
0000
0013
0100
0000
1100
0000
1001
,  // measure 19
2000
0000
3001
0100
0000
0110
0000
1010
,  // measure 20
2002
3003
0000
0000
,  // measure 21
2100
0000
3010
0100
0000
0101
0000
1010
,  // measure 22
0020
0000
1030
0100
0000
0011
0000
0101
,  // measure 23
0200
0000
0310
0100
0000
0110
0000
1001
,  // measure 24
0220
0330
1001
0000
,  // measure 25
0100
0010
1000
0000
0100
0010
0001
0000
,  // measure 26
0100
0010
1000
0100
0010
0001
0100
0001
,  // measure 27
0010
0100
0010
0000
0100
1000
0001
0000
,  // measure 28
0010
0100
1000
0010
0100
0001
0010
0001
,  // measure 29
1000
0100
1000
0000
0010
1000
0100
0000
,  // measure 30
0010
0001
0100
0001
0100
0010
1000
0001
,  // measure 31
1000
0100
0010
0000
0100
1000
0010
0000
,  // measure 32
1000
0001
0100
0001
0010
0001
0100
0010
,  // measure 33
1000
0000
1100
0000
0001
0010
0110
0000
,  // measure 34
0100
0000
1100
0000
1000
0001
1001
0000
,  // measure 35
0100
0000
0101
0000
0001
0010
0011
0000
,  // measure 36
1001
1010
0101
0011
,  // measure 37
0110
0000
1001
0000
1000
0100
0110
0000
,  // measure 38
0010
0000
0101
0000
0001
1000
1010
0000
,  // measure 39
0100
0000
1001
0000
0100
0010
0011
0000
,  // measure 40
1000
0001
0100
0010
1000
0100
0010
0001
,  // measure 41
2001
0000
0000
3002
,  // measure 42
0000
0000
0000
0000
,  // measure 43
0023
0000
0000
0230
,  // measure 44
0000
0000
2300
0000
,  // measure 45
3002
0000
0100
0100
,  // measure 46
0000
0000
0010
0010
,  // measure 47
2003
0000
0010
0010
,  // measure 48
0000
0000
0100
0100
,  // measure 49
3001
0000
0000
1000
0100
0010
0001
0000
0000
1000
0010
0100
,  // measure 50
0001
0000
0000
1000
0100
0010
0001
0000
0000
1000
0010
0100
,  // measure 51
0001
0000
0000
0100
0010
0100
0001
0000
0000
0010
0100
0010
,  // measure 52
0001
0000
0000
0100
0010
0100
0001
0000
0000
0100
0010
1000
,  // measure 53
0001
0000
0000
0001
0100
0001
1000
0000
0000
0100
1000
0001
,  // measure 54
1000
0000
0000
0010
1000
0010
0100
0000
0000
0001
0010
0100
,  // measure 55
1000
0000
0000
0100
0010
0100
1000
0000
0000
0010
0100
0010
,  // measure 56
1000
0000
0000
0100
0010
0100
1000
0000
0000
0010
0100
0010
,  // measure 57
2000
0000
0001
0001
0000
0100
0100
0000
0010
0010
0000
0001
0001
0000
3200
0000
,  // measure 58
0000
0000
0010
0010
0000
1000
1000
0000
0010
0010
0000
0001
0001
0000
0320
0000
,  // measure 59
0000
0000
0001
0001
0000
0100
0100
0000
1000
1000
0000
0100
0100
0000
0032
0000
,  // measure 60
0000
0000
1000
1000
0000
0100
0100
0000
0010
0010
0000
1000
1000
0000
0203
0000
,  // measure 61
0310
1000
0100
0100
0010
0001
0001
0100
,  // measure 62
0010
0010
1000
0001
0001
0000
1002
0003
,  // measure 63
0100
0001
0010
0010
0100
1000
1000
0001
,  // measure 64
0010
0010
0001
0100
0100
0000
1002
0003
,  // measure 65
1000
0010
0100
0100
0001
1000
1000
0100
,  // measure 66
0001
0001
0100
0010
0010
0100
0120
0030
,  // measure 67
0001
0100
0010
0010
1000
0001
0001
0100
,  // measure 68
1000
1000
0100
0001
0001
1000
1200
0300
,  // measure 69
0000
0000
1000
1000
0000
0001
0001
0000
0100
0100
0000
0010
0010
0000
2001
0000
,  // measure 70
3000
0000
0001
0001
0000
0010
0010
0000
0100
0100
0000
1000
1000
0000
0010
0000
,  // measure 71
2002
0000
3003
1001
,  // measure 72
1000
0010
1000
0001
0000
0000
0010
0001
1000
0001
0000
0000
,  // measure 73
0100
0010
1000
0010
0000
0000
1000
0001
0010
0001
0000
0000
,  // measure 74
0010
0100
0010
0001
0000
0000
1000
0100
1000
0001
0000
0000
,  // measure 75
0100
0000
0010
0000
1000
0000
0001
0000
0000
0100
0000
0000
0000
0000
0000
1000
0000
0000
0100
0000
0000
0000
0000
0000
,  // measure 76
0001
0010
0001
1000
0000
0000
0010
1000
0001
1000
0000
0000
,  // measure 77
0100
0010
0100
1000
0000
0000
0010
1000
0001
0100
0000
0000
,  // measure 78
0001
0010
0001
1000
0000
0000
0010
1000
0001
0010
0000
0000
,  // measure 79
0100
0000
0010
0000
0001
0000
1000
0000
0000
0010
0000
0000
1000
0000
0000
0100
0000
0000
1000
0000
0000
0000
0000
0000
,  // measure 80
0001
0010
0100
0010
0001
1000
0010
1000
,  // measure 81
0100
0010
0001
0100
0001
0010
0100
1000
,  // measure 82
0010
1000
0100
0010
0100
1000
0001
0100
,  // measure 83
0010
0000
0000
1000
0000
0000
0001
0000
0000
0010
0000
0000
0100
0000
0000
1000
0000
0000
0001
0000
1000
0000
0001
0000
,  // measure 84
1000
0000
0000
0100
0000
0000
0010
0000
0000
0100
0000
0000
0010
0000
0000
0001
0000
0000
1000
0000
0010
0000
1000
0000
,  // measure 85
0001
0000
0000
0010
0000
0000
0001
0000
0000
0100
0000
0000
0001
0000
0000
0010
0000
0000
0100
0000
0010
0000
0001
0000
,  // measure 86
1000
0000
0000
0010
0000
0000
0100
0000
0001
0000
0100
0000
0010
0000
0000
1000
0000
0000
0100
0000
0010
0000
0001
0000
,  // measure 87
1000
0000
0000
0010
0000
0000
1000
0000
0001
0000
1000
0000
0010
0000
0000
0100
0000
0000
1001
0000
0000
0000
0000
0000
,  // measure 88
0010
0012
0000
0003
0000
0000
1001
0000
,  // measure 89
0100
2100
0000
3000
0000
0000
0110
0000
,  // measure 90
0001
2001
0000
3000
0001
0010
0100
1000
,  // measure 91
0120
0030
0000
0101
,  // measure 92
0010
0102
0000
0003
0000
0000
1100
0000
,  // measure 93
0010
2100
0000
3000
0000
0000
1010
0000
,  // measure 94
1000
0012
0000
0003
0010
0100
1001
0000
,  // measure 95
1010
1100
0101
0011
,  // measure 96
0100
2010
0000
3000
0000
0000
1100
0000
,  // measure 97
0010
0102
0000
0003
0000
0000
1100
0000
,  // measure 98
0100
0101
0000
0100
1100
0000
0110
0000
,  // measure 99
2001
3000
0000
0011
,  // measure 100
0010
1020
0000
0030
0000
0000
1100
0000
,  // measure 101
0100
0201
0000
0300
0000
0000
1010
0000
,  // measure 102
0010
0011
0000
0100
1100
0000
0110
0000
,  // measure 103
1002
0000
0000
0003
0000
0000
0000
0000
0000
0010
0001
0100
,  // measure 104
0010
0000
0000
0010
1000
0100
0010
0000
0000
0010
0001
0100
,  // measure 105
0010
0000
0000
0001
0000
0000
0010
0000
1000
0000
0100
0000
0010
0000
0000
0000
0000
0000
0100
0000
1000
0000
0010
0000
,  // measure 106
0100
0000
0000
0100
0001
0010
0100
0000
0000
0100
1000
0010
,  // measure 107
0100
0000
0000
1000
0000
0000
0100
0000
0001
0000
0010
0000
0100
0000
0000
0000
0000
0000
0010
0000
0001
0000
1000
0000
,  // measure 108
0010
0000
0000
1000
0000
0000
0100
0000
0010
0000
0001
0000
1000
0000
0000
0010
0000
0000
0100
0000
0001
0000
0010
0000
,  // measure 109
0001
0000
0000
1000
0000
0000
0010
0000
1000
0000
0100
0000
1000
0000
0000
0010
0000
0000
0110
0000
0000
0000
0000
0000
,  // measure 110
0000
0000
0000
1001
0000
0000
0000
0000
0000
0000
0000
0000
1000
0000
0001
0000
1000
0000
0110
0000
0000
0000
0000
0000
,  // measure 111
0000
0000
0000
1001
0000
0000
0000
0000
0000
0000
0000
0000
0010
0000
0100
0000
0010
0000
1001
0000
0000
0000
0000
0000
,  // measure 112
0000
1100
0120
0030
0000
0101
0120
0030
,  // measure 113
0000
0000
0000
1001
0000
0000
0001
0000
0010
0000
0100
0000
1000
0000
0010
0000
0100
0000
1001
0000
0000
0000
0000
0000
;
