#TITLE:MAX 360;
#SUBTITLE:;
#ARTIST:BEMANI Sound Team"[x]";
#TITLETRANSLIT:;
#SUBTITLETRANSLIT:;
#ARTISTTRANSLIT:;
#GENRE:;
#CREDIT:;
#BANNER:;
#BACKGROUND:MAX 360-bg.png;
#LYRICSPATH:;
#CDTITLE:;
#MUSIC:MAX 360.mp3;
#OFFSET:-0.491000;
#SAMPLESTART:16.266655;
#SAMPLELENGTH:12.000000;
#SELECTABLE:YES;
#BPMS:0.000000=360.000000
,260.000000=180.000000
,292.000000=360.000000
,451.000000=180.000000
,482.000000=720.000000
,514.000000=360.000000
;
#STOPS:323.000000=0.167000,
514.000000=0.167000,
637.000000=0.167000,
640.000000=0.167000
;
#BGCHANGES:;
#KEYSOUNDS:;
#ATTACKS:;

//---------------dance-single - ----------------
#NOTES:
     dance-single:
     :
     Challenge:
     360:
     1.161479,1.974808,0.495250,0.049525,0.214608,985.000000,925.000000,60.000000,6.000000,0.000000,0.000000,1.161479,1.974808,0.495250,0.049525,0.214608,985.000000,925.000000,60.000000,6.000000,0.000000,0.000000:
// measure 0
0000
0000
0000
0000
,  // measure 1
0000
0000
0000
0000
,  // measure 2
0000
0000
0000
0000
,  // measure 3
0000
0000
0000
0000
,  // measure 4
0000
0000
0000
0000
,  // measure 5
0010
1000
0001
0010
,  // measure 6
0100
1000
0001
0100
,  // measure 7
1000
0100
0001
1000
,  // measure 8
0100
0010
1001
0000
,  // measure 9
0010
0000
0100
0000
0001
0100
0001
0100
,  // measure 10
0001
0000
0010
0000
0100
1000
0100
1000
,  // measure 11
0100
0000
1000
0000
0001
1000
0001
1000
,  // measure 12
0001
0100
0010
0000
,  // measure 13
1000
0000
0001
0000
1000
0001
1000
0001
,  // measure 14
0100
0000
0001
0000
0100
0010
0100
0010
,  // measure 15
1000
0100
1000
0000
0001
0010
0001
0000
,  // measure 16
1000
0100
1000
0001
0100
0001
0010
0100
,  // measure 17
1000
0000
0010
0000
1000
0000
0100
0010
,  // measure 18
0001
0000
0010
0000
0100
0000
1000
0001
,  // measure 19
0100
0000
0010
0000
0001
0000
0010
0100
,  // measure 20
0001
0000
0010
0000
0100
0000
0010
0001
,  // measure 21
0100
0000
0010
0000
1000
0000
0100
0010
,  // measure 22
0001
0000
1000
0000
0010
0000
0100
0001
,  // measure 23
0010
0000
0100
0000
0001
0000
0100
1000
,  // measure 24
0010
0000
1000
0000
0100
0000
0010
0001
,  // measure 25
1000
0000
0010
0000
1000
0000
0100
0010
,  // measure 26
0001
0000
1000
0000
0010
0000
0100
0001
,  // measure 27
0010
0000
0001
0000
1000
0000
0001
0100
,  // measure 28
0010
0000
1000
0000
0001
0000
1000
0100
,  // measure 29
1000
0000
0001
1000
0001
0000
0100
0001
,  // measure 30
0100
0000
0010
0100
0001
0100
0010
1000
,  // measure 31
0010
0100
0001
1000
0001
0010
0001
0010
,  // measure 32
0001
1000
0010
0100
0001
0010
0001
0010
,  // measure 33
0001
0000
1000
0001
1000
0001
0010
0000
,  // measure 34
0100
1000
0100
0000
1000
0010
0100
0001
,  // measure 35
1000
0000
0001
0010
0001
0010
0001
0000
,  // measure 36
0100
0010
0100
0000
0001
1000
0100
0010
,  // measure 37
0001
0000
1000
0010
1000
0010
0100
0000
,  // measure 38
0001
1000
0001
0000
0010
0100
1000
0001
,  // measure 39
1000
0000
0100
1000
0001
0000
1001
0000
,  // measure 40
0010
0000
0100
0001
1000
0000
1001
0000
,  // measure 41
0010
1000
0010
0001
0020
0000
1000
0000
,  // measure 42
1030
0001
0100
1000
0020
0000
1000
0000
,  // measure 43
1030
0001
0010
1000
0002
0000
1000
0000
,  // measure 44
1003
0010
0001
0100
0010
0000
0100
0000
,  // measure 45
0010
1000
0100
1000
0010
0100
0001
0100
,  // measure 46
0010
1000
0100
1000
0010
0100
0001
0100
,  // measure 47
0010
1000
0001
0100
0010
1000
0001
1000
,  // measure 48
0001
0100
1000
0100
0001
0100
0010
1000
,  // measure 49
0010
0100
0011
0100
,  // measure 50
1000
0010
1100
0001
,  // measure 51
0010
0100
1001
0010
,  // measure 52
0001
1010
1100
0011
,  // measure 53
0110
0001
0110
1000
,  // measure 54
0001
0100
1001
0100
,  // measure 55
0001
1000
0110
0001
,  // measure 56
1000
0011
0101
1010
,  // measure 57
0001
0010
0100
1000
0100
0010
0001
1000
,  // measure 58
0010
0110
1001
0110
,  // measure 59
1000
0100
0010
0001
1000
0100
0010
0001
,  // measure 60
0010
1001
0110
1001
,  // measure 61
1000
0100
0010
0001
1000
0010
0100
0010
,  // measure 62
0001
0010
1000
0001
0010
0100
0010
0001
,  // measure 63
0100
1000
0100
0001
0100
0010
1000
0001
,  // measure 64
1000
0100
0001
0100
1000
0001
0010
0100
,  // measure 65
0110
0000
1010
0000
1000
0001
0100
0000
0010
0000
0110
0000
0001
0010
0100
0000
,  // measure 66
1000
1100
0100
0110
0010
0011
0001
0101
,  // measure 67
1000
0000
0010
0000
0100
0000
0001
0000
0010
0001
1000
0001
0010
0000
0000
0000
,  // measure 68
0001
0000
0100
0000
0010
0000
1000
0000
0100
1000
0001
1000
0100
0000
0000
0000
,  // measure 69
0100
0000
1010
0000
1000
0001
1000
0100
0010
0000
0011
0000
0001
1000
0001
0100
,  // measure 70
0010
0000
1010
0000
1000
0001
1000
0100
0001
0000
0000
1010
0000
0000
0011
0000
,  // measure 71
1100
0000
0010
0001
0100
0001
0010
0001
0100
0001
0010
0001
0100
0000
0001
0000
,  // measure 72
1001
0000
1000
0100
0001
0100
1000
0000
0001
0100
1000
0100
0001
0000
0000
0000
,  // measure 73
0010
0001
1000
0001
0100
0001
0010
0100
,  // measure 74
1000
0010
1000
0001
1000
0100
1000
0010
,  // measure 75
0100
0001
0100
0010
0100
1000
0100
0001
,  // measure 76
0010
1000
0010
0001
1000
0000
0000
0000
,  // measure 77
0100
1000
0100
0000
0100
0001
0100
0000
,  // measure 78
0100
1000
0100
0000
0010
1000
0010
0000
,  // measure 79
0010
0001
0010
0000
0010
1000
0010
0001
,  // measure 80
0010
0100
0010
0000
0110
0000
1001
0000
,  // measure 81
0101
0000
0010
1000
0001
1000
0100
1000
,  // measure 82
0001
1000
0100
1000
0001
0000
1000
0001
,  // measure 83
0100
0001
1000
0001
0100
0001
1000
0000
,  // measure 84
0001
1000
0010
1000
,  // measure 85
0100
0001
0000
0100
1000
0000
0100
0010
,  // measure 86
0000
0001
0010
0000
1000
0000
0010
0000
,  // measure 87
0001
0010
0000
1000
0010
0000
0001
0010
,  // measure 88
0000
0001
1000
0010
0001
0010
1000
0000
,  // measure 89
1000
0001
0010
0100
,  // measure 90
1000
0001
0100
0001
,  // measure 91
0001
1000
0010
0100
,  // measure 92
0001
1000
0100
0010
,  // measure 93
0010
0001
1000
0100
,  // measure 94
0010
0001
1000
0100
,  // measure 95
0001
0100
1000
0000
0001
0010
1000
0000
,  // measure 96
0001
0100
1000
0000
0010
0000
0100
0000
,  // measure 97
0001
0100
0010
0000
0010
1000
0100
0000
,  // measure 98
0100
0010
0001
0000
1000
0000
1000
0000
,  // measure 99
0001
0010
0001
1000
0100
0000
0101
0000
,  // measure 100
1000
0000
1010
0000
0000
0000
0001
0100
,  // measure 101
0001
0000
0100
0001
0100
0000
0001
0100
,  // measure 102
0001
0000
0001
0100
0010
0000
0010
1000
,  // measure 103
0010
0000
1000
0010
1000
0000
0010
1000
,  // measure 104
0010
0000
1000
0001
1000
0000
1000
0100
,  // measure 105
1000
0000
0100
1000
0100
0000
1000
0100
,  // measure 106
1000
0000
1000
0100
0010
0000
0110
0000
,  // measure 107
0000
0000
0100
0001
0010
0000
0100
1000
,  // measure 108
0100
0000
0010
0100
0001
0000
1000
0010
,  // measure 109
1000
0000
0001
0100
1000
0000
0100
0010
,  // measure 110
1000
0000
0001
0010
0001
0000
0010
0100
,  // measure 111
1000
0000
0010
0100
0001
0000
0010
0100
,  // measure 112
0001
1001
0000
0010
,  // measure 113
0001
0100
1000
0001
,  // measure 114
0010
1000
0100
0010
,  // measure 115
0001
0100
1000
0001
,  // measure 116
0010
0000
1000
0000
0100
0000
0011
0100
,  // measure 117
0001
0010
0100
0001
0100
1000
0010
0100
,  // measure 118
0010
0001
0010
1000
1001
0000
0010
1000
,  // measure 119
0100
0000
0000
1000
0000
0000
0000
0000
0000
1000
0000
0000
0100
0000
0000
0000
0000
0000
0010
0000
0000
0000
0000
0000
0100
0000
0000
0010
0000
0000
0000
0000
0000
0010
0000
0000
0001
0000
0000
0000
0100
0000
0000
0000
1000
0000
0000
0000
,  // measure 120
0001
0010
0001
1000
0100
0001
0020
0000
0000
0000
0000
0000
,  // measure 121
0000
0000
0000
0000
,  // measure 122
0000
0000
0000
0000
,  // measure 123
0000
0000
0000
0000
,  // measure 124
0000
0000
0000
0000
,  // measure 125
0000
0000
0000
0000
,  // measure 126
0000
0000
0000
0000
,  // measure 127
0000
0000
0000
0000
,  // measure 128
0000
0000
0000
0000
0000
0000
0000
0000
0000
0030
0000
0000
1000
0000
0100
0000
,  // measure 129
0010
0100
1000
0010
0100
0010
0001
0010
,  // measure 130
0100
0010
1000
0100
0010
0001
0010
0100
,  // measure 131
0010
0100
1000
0010
0100
0010
1000
0001
,  // measure 132
0100
0001
1000
0001
0100
0001
1000
0100
,  // measure 133
1000
0010
0100
0001
0100
0010
1000
0100
,  // measure 134
0001
0100
1000
0010
0001
0010
1000
0010
,  // measure 135
0001
0010
0100
0001
1000
0100
0010
0001
,  // measure 136
0010
0100
0001
0100
1000
0001
0010
0001
,  // measure 137
0100
0010
1000
0010
0100
1000
0100
0001
,  // measure 138
1000
0001
0010
0100
0010
0001
0100
0001
,  // measure 139
1000
0010
1000
0010
1000
0001
0100
1000
,  // measure 140
0100
0001
1000
0010
0100
0001
1000
0100
,  // measure 141
1000
0100
1000
0001
0010
1000
0010
0001
,  // measure 142
0100
0010
1000
0001
0010
1000
0010
0100
,  // measure 143
0010
0100
1000
0010
0001
0010
1000
0100
,  // measure 144
0001
0100
1000
0010
0100
0001
0100
0010
,  // measure 145
1000
0100
0010
0001
1000
0010
0100
0000
,  // measure 146
0110
0000
0000
0110
0000
0000
0100
0010
,  // measure 147
1000
0100
0010
0001
0100
0010
0100
0000
,  // measure 148
1100
0000
0000
1010
0000
0000
1000
0100
,  // measure 149
1000
0001
0010
0100
1000
0010
0100
0001
,  // measure 150
1000
0100
0001
0100
1000
0010
0100
0010
,  // measure 151
0001
0010
1000
0100
0010
0001
0010
0000
,  // measure 152
0000
0000
0000
0000
0000
0000
0010
0100
,  // measure 153
0010
0000
0000
0001
0000
0000
0010
0000
0100
0000
0010
0000
0100
0000
1000
0000
0100
0000
1000
0000
0000
0000
0000
0000
,  // measure 154
0101
0000
0000
1010
0000
0000
0100
0001
,  // measure 155
1000
0000
0000
0001
0000
0000
0010
0000
0100
0000
0010
0000
0001
0000
0100
0000
0010
0000
1000
0000
0000
0000
0000
0000
,  // measure 156
0110
0000
0000
0101
0000
0000
1000
0010
,  // measure 157
0100
0000
0000
0010
0000
0000
1000
0000
0001
0000
0100
0000
0001
0000
1000
0000
0100
0000
1000
0000
0000
0000
0000
0000
,  // measure 158
0011
0000
0000
0000
0000
0000
0000
0000
0000
1100
0000
0000
0000
0000
0000
0000
0000
0000
1000
0000
0000
0000
1001
0000
,  // measure 159
0000
0010
0000
0000
0000
0000
0001
0000
0101
0000
0010
0000
,  // measure 160
0000
0000
0000
0110
0000
0100
0000
0010
0000
0010
0000
0100
,  // measure 161
0000
0110
0000
2002
0000
0000
0000
0000
0000
0000
0000
0000
,  // measure 162
0000
0000
0000
0000
,  // measure 163
0000
0000
0000
0000
,  // measure 164
0000
0000
0000
0000
,  // measure 165
3003
0000
0000
0000
;

//---------------dance-single - yuisin----------------
#NOTES:
     dance-single:
     :
     Edit:
     360:
     1.161479,1.974808,0.495250,0.049525,0.214608,985.000000,925.000000,60.000000,6.000000,0.000000,0.000000,1.161479,1.974808,0.495250,0.049525,0.214608,985.000000,925.000000,60.000000,6.000000,0.000000,0.000000:
0000
0000
0000
0000
,
0000
0000
0000
0000
,
0000
0000
0000
0000
,
0000
0000
0000
0000
,
0000
0000
0000
0000
,
0010
1000
0001
0010
,
0100
1000
0001
0100
,
1000
0100
0001
1000
,
0100
0010
1001
0000
,
0010
0000
0100
0000
0001
0100
0001
0100
,
0001
0000
0010
0000
0100
1000
0100
1000
,
0100
0000
1000
0000
0001
1000
0001
1000
,
0001
0100
0010
0000
,
1000
0000
0001
0000
1000
0001
1000
0001
,
0100
0000
0001
0000
0100
0010
0100
0010
,
1000
0100
1000
0000
0001
0010
0001
0000
,
1000
0100
1000
0001
0100
0001
0010
0100
,
1000
0000
0010
0000
1000
0000
0100
0010
,
0001
0000
0010
0000
0100
0000
1000
0001
,
0100
0000
0010
0000
0001
0000
0010
0100
,
0001
0000
0010
0000
0100
0000
0010
0001
,
0100
0000
0010
0000
1000
0000
0100
0010
,
0001
0000
1000
0000
0010
0000
0100
0001
,
0010
0000
0100
0000
0001
0000
0100
1000
,
0010
0000
1000
0000
0100
0000
0010
0001
,
1000
0000
0010
0000
1000
0000
0100
0010
,
0001
0000
1000
0000
0010
0000
0100
0001
,
0010
0000
0001
0000
1000
0000
0001
0100
,
0010
0000
1000
0000
0001
0000
1000
0100
,
1000
0000
0001
1000
0001
0000
0100
0001
,
0100
0000
0010
0100
0001
0100
0010
1000
,
0010
0100
0001
1000
0001
0010
0001
0010
,
0001
1000
0010
0100
0001
0010
0001
0010
,
0001
0000
1000
0001
1000
0001
0010
0000
,
0100
1000
0100
0000
1000
0010
0100
0001
,
1000
0000
0001
0010
0001
0010
0001
0000
,
0100
0010
0100
0000
0001
1000
0100
0010
,
0001
0000
1000
0010
1000
0010
0100
0000
,
0001
1000
0001
0000
0010
0100
1000
0001
,
1000
0000
0100
1000
0001
0000
1001
0000
,
0010
0000
0100
0001
1000
0000
1001
0000
,
0010
1000
0010
0001
0020
0000
1000
0000
,
1030
0001
0100
1000
0020
0000
1000
0000
,
1030
0001
0010
1000
0002
0000
1000
0000
,
1003
0010
0001
0100
0010
0000
0100
0000
,
0010
1000
0100
1000
0010
0100
0001
0100
,
0010
1000
0100
1000
0010
0100
0001
0100
,
0010
1000
0001
0100
0010
1000
0001
1000
,
0001
0100
1000
0100
0001
0100
0010
1000
,
0010
0100
0011
0100
,
1000
0010
1100
0001
,
0010
0100
1001
0010
,
0001
1010
1100
0011
,
0110
0001
0110
1000
,
0001
0100
1001
0100
,
0001
1000
0110
0001
,
1000
0011
0101
1010
,
0001
0010
0100
1000
0100
0010
0001
1000
,
0010
0110
1001
0110
,
1000
0100
0010
0001
1000
0100
0010
0001
,
0010
1001
0110
1001
,
1000
0100
0010
0001
1000
0010
0100
0010
,
0001
0010
1000
0001
0010
0100
0010
0001
,
0100
1000
0100
0001
0100
0010
1000
0001
,
1000
0100
0001
0100
1000
0001
0010
0100
,
0110
0000
1010
0000
1000
0001
0100
0000
0010
0000
0110
0000
0001
0010
0100
0000
,
1000
1100
0100
0110
0010
0011
0001
0101
,
1000
0000
0010
0000
0100
0000
0001
0000
0010
0001
1000
0001
0010
0000
0000
0000
,
0001
0000
0100
0000
0010
0000
1000
0000
0100
1000
0001
1000
0100
0000
0000
0000
,
0100
0000
1010
0000
1000
0001
1000
0100
0010
0000
0011
0000
0001
1000
0001
0100
,
0010
0000
1010
0000
1000
0001
1000
0100
0001
0000
0000
1010
0000
0000
0011
0000
,
1100
0000
0010
0001
0100
0001
0010
0001
0100
0001
0010
0001
0100
0000
0001
0000
,
1001
0000
1000
0100
0001
0100
1000
0000
0001
0100
1000
0100
0001
0000
0000
0000
,
0010
0001
1000
0001
0100
0001
0010
0100
,
1000
0010
1000
0001
1000
0100
1000
0010
,
0100
0001
0100
0010
0100
1000
0100
0001
,
0010
1000
0010
0001
1000
0000
0000
0000
,
0100
1000
0100
0000
0100
0001
0100
0000
,
0100
1000
0100
0000
0010
1000
0010
0000
,
0010
0001
0010
0000
0010
1000
0010
0001
,
0010
0100
0010
0000
0110
0000
1001
0000
,
0101
0000
0010
1000
0001
1000
0100
1000
,
0001
1000
0100
1000
0001
0000
1000
0001
,
0100
0001
1000
0001
0100
0001
1000
0000
,
0001
1000
0010
1000
,
0100
0001
0000
0100
1000
0000
0100
0010
,
0000
0001
0010
0000
1000
0000
0010
0000
,
0001
0010
0000
1000
0010
0000
0001
0010
,
0000
0001
1000
0010
0001
0010
1000
0000
,
1000
0001
0010
0100
,
1000
0001
0100
0001
,
0001
1000
0010
0100
,
0001
1000
0100
0010
,
0010
0001
1000
0100
,
0010
0001
1000
0100
,
0001
0100
1000
0000
0001
0010
1000
0000
,
0001
0100
1000
0000
0010
0000
0100
0000
,
0001
0100
0010
0000
0010
1000
0100
0000
,
0100
0010
0001
0000
1000
0000
1000
0000
,
0001
0010
0001
1000
0100
0000
0101
0000
,
1000
0000
1010
0000
0000
0000
0001
0100
,
0001
0000
0100
0001
0100
0000
0001
0100
,
0001
0000
0001
0100
0010
0000
0010
1000
,
0010
0000
1000
0010
1000
0000
0010
1000
,
0010
0000
1000
0001
1000
0000
1000
0100
,
1000
0000
0100
1000
0100
0000
1000
0100
,
1000
0000
1000
0100
0010
0000
0110
0000
,
0000
0000
0100
0001
0010
0000
0100
1000
,
0100
0000
0010
0100
0001
0000
1000
0010
,
1000
0000
0001
0100
1000
0000
0100
0010
,
1000
0000
0001
0010
0001
0000
0010
0100
,
1000
0000
0010
0100
0001
0000
0010
0100
,
0001
1001
0000
0010
,
0001
0100
1000
0001
,
0010
1000
0100
0010
,
0001
0100
1000
0001
,
0010
0000
1000
0000
0100
0000
0011
0100
,
0001
0010
0100
0001
0100
1000
0010
0100
,
0010
0001
0010
1000
1001
0000
0010
1000
,
0100
0000
0000
1000
0000
0000
0000
0000
0000
1000
0000
0000
0100
0000
0000
0000
0000
0000
0010
0000
0000
0000
0000
0000
0100
0000
0000
0010
0000
0000
0000
0000
0000
0010
0000
0000
0001
0000
0000
0000
0100
0000
0000
0000
1000
0000
0000
0000
,
0001
0010
0001
1000
0100
0001
0020
0000
0000
0000
0000
0000
,
0000
0000
0000
0000
,
0000
0000
0000
0000
,
0000
0000
0000
0000
,
0000
0000
0000
0000
,
0000
0000
0000
0000
,
0000
0000
0000
0000
,
0000
0000
0000
0000
,
0000
0000
0000
0000
0000
0000
0000
0000
0000
0030
0000
0000
1000
0000
0100
0000
,
0010
0100
1000
0010
0100
0010
0001
0010
,
0100
0010
1000
0100
0010
0001
0010
0100
,
0010
0100
1000
0010
0100
0010
1000
0001
,
0100
0001
1000
0001
0100
0001
1000
0100
,
1000
0010
0100
0001
0100
0010
1000
0100
,
0001
0100
1000
0010
0001
0010
1000
0010
,
0001
0010
0100
0001
1000
0100
0010
0001
,
0010
0100
0001
0100
1000
0001
0010
0001
,
0100
0010
1000
0010
0100
1000
0100
0001
,
1000
0001
0010
0100
0010
0001
0100
0001
,
1000
0010
1000
0010
1000
0001
0100
1000
,
0100
0001
1000
0010
0100
0001
1000
0100
,
1000
0100
1000
0001
0010
1000
0010
0001
,
0100
0010
1000
0001
0010
1000
0010
0100
,
0010
0100
1000
0010
0001
0010
1000
0100
,
0001
0100
1000
0010
0100
0001
0100
0010
,
1000
0100
0010
0001
1000
0010
0100
0000
,
0110
0000
0000
0110
0000
0000
0100
0010
,
1000
0100
0010
0001
0100
0010
0100
0000
,
1100
0000
0000
1010
0000
0000
1000
0100
,
1000
0001
0010
0100
1000
0010
0100
0001
,
1000
0100
0001
0100
1000
0010
0100
0010
,
0001
0010
1000
0100
0010
0001
0010
0000
,
0000
0000
0000
0000
0000
0000
0010
0100
,
0010
0000
0000
0001
0000
0000
0010
0000
0100
0000
0010
0000
0100
0000
1000
0000
0100
0000
1000
0000
0000
0000
0000
0000
,
0101
0000
0000
1010
0000
0000
0100
0001
,
1000
0000
0000
0001
0000
0000
0010
0000
0100
0000
0010
0000
0001
0000
0100
0000
0010
0000
1000
0000
0000
0000
0000
0000
,
0110
0000
0000
0101
0000
0000
1000
0010
,
0100
0000
0000
0010
0000
0000
1000
0000
0001
0000
0100
0000
0001
0000
1000
0000
0100
0000
1000
0000
0000
0000
0000
0000
,
0011
0000
0000
0000
0000
0000
0000
0000
0000
1100
0000
0000
0000
0000
0000
0000
0000
0000
1000
0000
0000
0000
1001
0000
,
0000
0010
0000
0000
0000
0000
0001
0000
0101
0000
0010
0000
,
0000
0000
0000
0110
0000
0100
0000
0010
0000
0010
0000
0100
,
0000
0110
0000
2002
0000
0000
0000
0000
0000
0000
0000
0000
,
0000
0000
0000
0000
,
0000
0000
0000
0000
,
0000
0000
0000
0000
,
3003
0000
0000
0000
;
