#TITLE:MAX 300;
#SUBTITLE:;
#ARTIST:Ω;
#TITLETRANSLIT:;
#SUBTITLETRANSLIT:;
#ARTISTTRANSLIT:;
#GENRE:;
#CREDIT:;
#BANNER:MAX 300.png;
#BACKGROUND:MAX 300-bg.png;
#LYRICSPATH:;
#CDTITLE:;
#MUSIC:MAX 300.ogg;
#OFFSET:0.000000;
#SAMPLESTART:13.596000;
#SAMPLELENGTH:15.000000;
#SELECTABLE:YES;
#DISPLAYBPM:300.000000;
#BPMS:0.000000=302.520996
,4.000000=300.070007
,290.000000=214.285995
,291.000000=145.160995
,292.000000=104.651001
,293.000000=64.286003
,294.000000=300.131012
;
#STOPS:294.000000=1.200000
;
#BGCHANGES:0.000=MAX 300.avi=1.000=0=0=0=StretchNoLoop====,
99999=-nosongbg-=1.000=0=0=0 // don't automatically add -songbackground-
;
#KEYSOUNDS:;
#ATTACKS:;

//---------------dance-single - ----------------
#NOTES:
     dance-single:
     :
     Challenge:
     18:
     1.150921,1.915038,2.424546,0.000000,0.076107,741.000000,518.000000,223.000000,0.000000,0.000000,0.000000,1.150921,1.915038,2.424546,0.000000,0.076107,741.000000,518.000000,223.000000,0.000000,0.000000,0.000000:
0000
0000
0000
0000
,
0000
0000
0000
0000
,
0000
0000
0000
0000
,
0000
0000
0000
0000
,
0000
0000
0000
0000
,
0000
0000
0000
0000
,
0000
0000
0000
0000
,
0000
0000
0000
0000
,
0000
0000
0000
0000
,
0001
0000
0001
0000
0010
0001
0000
0001
,
0100
0000
0100
0000
0010
1000
0000
1000
,
0100
0000
0100
0000
0010
0001
0000
0001
,
1000
0100
0110
0000
,
1000
0000
1000
0000
0001
0010
0000
0010
,
0100
0000
0100
0000
1000
0010
0000
0010
,
0110
0100
1001
0000
0011
0100
1001
0000
,
1010
1001
1000
0001
0011
1010
1000
0001
,
1000
0000
1000
0000
0000
0010
0000
0010
,
0100
0000
0100
0000
0000
0001
0000
0001
,
0010
0000
0010
0000
0000
0001
0000
0001
,
0011
1010
0101
1001
,
0010
0000
0010
0000
0000
1000
0000
1000
,
0100
0000
0100
0000
0000
0010
0000
0010
,
0001
0000
0001
0000
0000
0100
0000
0100
,
0110
1010
1001
0011
,
0100
0000
0100
0000
0000
0010
0100
0010
,
0001
0000
0001
0000
0000
0100
0001
0100
,
0010
0000
0010
0000
0000
1000
0001
1000
,
1010
0110
1001
0011
,
1000
0000
0011
0000
0100
1000
0010
1000
,
1001
0000
0011
0000
0010
0001
0100
0001
,
1001
0100
1010
0000
1001
0010
0101
0000
,
0110
0101
1010
0010
0110
1001
1100
0100
,
0101
1000
0100
0100
,
0010
0001
1000
0100
,
0001
0000
0100
0000
1000
0001
0100
0001
,
0010
0100
0100
1000
,
0010
0001
0010
1000
,
0001
0000
0010
0000
0001
1000
0010
1000
,
0100
0000
0010
0001
1001
0000
0010
1000
,
1001
0000
0001
0010
0110
0000
1000
0010
,
0110
0000
0001
0010
1100
0000
1000
0010
,
0101
0000
1000
0010
1100
0000
0001
0010
,
0101
0000
1001
1010
0100
0010
1001
0100
,
1001
0010
0011
0001
1001
0001
1100
0001
,
0110
1100
1010
0011
,
0101
1001
0110
0010
,
1001
0000
1010
0000
0110
1000
0101
1000
,
0011
0110
1100
1001
,
0011
0101
1010
0100
,
1001
0000
0110
0000
1010
0001
1100
0001
,
0110
0011
0110
1100
,
1001
1010
0101
0010
,
1001
0000
0011
0000
1010
0100
0011
0100
,
1001
0110
1010
0101
,
0110
1100
0101
1001
,
0010
0100
0110
0000
,
1000
0000
1000
0000
0100
0010
0000
0010
,
0001
0000
0001
0000
1000
0010
0000
0010
,
0100
0000
0100
0000
0001
1000
0000
1000
,
1010
0110
1001
0000
,
0101
0000
0101
0000
0001
0010
0000
0010
,
0110
0000
0110
0000
0100
1000
0000
1000
,
1010
0000
1010
0000
1000
0001
0000
0001
,
0011
0110
1001
0000
,
1010
0000
1010
0000
0110
0001
0000
0001
,
1100
0000
1100
0000
1100
0010
0000
0010
,
1001
0000
1001
0000
0110
1000
0000
1000
,
1010
0110
1001
0000
,
1001
0000
1010
0100
0101
0001
1100
0010
,
1001
0000
0011
0100
1100
1000
1010
0001
,
0110
0000
1010
0000
1100
0000
0110
0000
0011
0000
0101
0000
,
1010
0000
0110
0000
0101
0000
1001
0000
0000
0000
0000
0000
,
0000
0000
0000
0000
0000
0000
0100
0100
,
0001
1000
1100
0000
0001
0100
0001
0010
,
0110
0000
1100
0100
1001
0000
0110
0000
,
0001
1000
0010
0100
0101
0000
0010
0010
,
0100
0001
1100
0000
1000
1000
0001
0010
,
0100
0100
0110
0010
1000
0001
0110
0000
,
1000
1000
0100
0010
1001
0000
0100
0010
,
0110
0000
1000
1000
0001
0001
0100
0010
,
1010
1000
0101
0000
0110
0000
1001
1001
,
0100
0001
0101
0000
1010
1010
1000
0001
,
1001
0000
0101
0101
0001
1000
1010
0000
,
0110
0110
0001
0010
0011
0000
1100
1100
,
0010
0100
0110
0000
0001
0001
0101
0110
,
0001
0000
1000
1000
1010
0110
1000
0000
,
0011
0001
1001
0001
1100
0000
1010
1000
,
1001
1000
0110
0000
0100
0100
1001
1010
,
0101
0010
0011
0101
1010
0100
1001
0000
,
0100
0010
0000
0010
0100
0000
0110
0000
,
1001
0000
0000
0110
0000
0000
1010
0000
,
1000
0010
0000
0010
1000
0000
0101
0000
,
0110
0000
0000
1001
0000
0000
0011
0000
,
0001
0010
0000
0010
0001
0000
1000
0000
,
0010
0100
0000
0100
0001
0000
1001
0000
,
0010
0001
0000
0001
1000
0000
1001
0000
,
0000
0000
0000
0000
0000
0000
1010
1000
,
1100
0100
0110
0010
0011
0001
1001
1000
,
1010
0010
0110
0100
0101
0001
1010
1000
,
0101
0010
0110
1000
1100
0001
0101
0101
,
0001
0010
1100
1100
1000
0010
1001
1100
,
0110
0011
0101
0110
1010
1001
0101
0011
,
1100
0000
0000
1010
0000
0000
0101
0000
0000
1001
0000
0000
0110
0000
0000
0110
0000
0000
1000
0000
0000
0000
0001
0000
,
0000
1000
0000
0000
0000
0000
0000
0000
0000
0001
0000
1000
,
0000
0001
0000
0000
0000
0000
0000
0000
0000
0010
0000
0100
,
0000
0010
0000
0100
0000
0010
0000
0100
0000
1001
0000
0000
;
