#TITLE:リリーゼと炎龍レーヴァテイン;
#SUBTITLE:;
#ARTIST:黒猫ダンジョン;
#TITLETRANSLIT:Lilieze to enryuu Laevateinn;
#SUBTITLETRANSLIT:;
#ARTISTTRANSLIT:Kuro neko dungeon;
#GENRE:;
#CREDIT:;
#BANNER:Lilieze to enryuu Laevateinn.png;
#BACKGROUND:Lilieze to enryuu Laevateinn-bg.png;
#LYRICSPATH:;
#CDTITLE:;
#MUSIC:Lilieze to enryuu Laevateinn.ogg;
#OFFSET:0.000000;
#SAMPLESTART:82.200996;
#SAMPLELENGTH:15.000000;
#SELECTABLE:YES;
#BPMS:0.000000=200.000000
;
#STOPS:
;
#BGCHANGES:0.000=Lilieze to enryuu Laevateinn.avi=1.000=0=0=1=====,
99999.000=-nosongbg-=1.000=0=0=0=StretchNoLoop====,
99999=-nosongbg-=1.000=0=0=0 // don't automatically add -songbackground-
;
#KEYSOUNDS:;
#ATTACKS:;

//---------------dance-single - ----------------
#NOTES:
     dance-single:
     :
     Challenge:
     18:
     1.139928,1.328199,1.195566,0.516267,1.064234,881.000000,749.000000,132.000000,57.000000,0.000000,0.000000,1.139928,1.328199,1.195566,0.516267,1.064234,881.000000,749.000000,132.000000,57.000000,0.000000,0.000000:
// measure 0
0000
0000
0000
0000
,  // measure 1
0000
0000
0000
0000
,  // measure 2
1000
0100
1000
0100
0010
0100
1000
0010
,  // measure 3
0100
0001
0100
0001
0010
0100
1000
0001
,  // measure 4
1000
0010
0100
0010
0100
0001
0010
0001
,  // measure 5
0010
0001
0100
0010
1000
2100
0100
0100
,  // measure 6
0100
3100
0012
0010
0010
0010
0013
2001
,  // measure 7
0001
3001
0201
0301
1200
1000
1300
1020
,  // measure 8
1030
0120
0100
0130
0201
0310
1020
1030
,  // measure 9
0110
0000
0000
1000
0100
0010
0110
0000
0000
0010
0100
1000
,  // measure 10
1001
0000
0000
0001
1000
0100
0010
0100
0001
0100
1000
0010
,  // measure 11
0100
0000
0000
0001
0010
0100
0110
0000
0000
0100
0010
0001
,  // measure 12
1001
0000
0000
1000
0100
0010
0100
1000
0010
0001
0010
0100
,  // measure 13
0010
0000
0000
0010
1000
0100
0110
0000
0000
0010
0001
0100
,  // measure 14
0110
0000
0000
0010
1000
0100
0010
0001
0100
1000
0100
0001
,  // measure 15
1000
0000
0000
0100
1000
0010
0110
0000
0000
0100
0001
0010
,  // measure 16
0110
0000
0000
0100
0010
0001
0100
0010
0001
0010
1000
0001
,  // measure 17
1000
0100
0010
0100
1000
0010
0100
1000
0100
0010
0001
0010
,  // measure 18
1000
0001
0010
0100
0001
0100
0010
0001
0100
0010
0000
0000
,  // measure 19
0010
1000
0001
0010
0001
0100
0010
1000
0100
0001
0100
0010
,  // measure 20
1000
0010
0001
0100
0010
0100
0001
0010
0100
1000
0000
0000
,  // measure 21
0001
0010
0100
0010
0001
0100
0010
0001
0010
0100
0001
0010
,  // measure 22
1000
0010
0100
1000
0010
0100
1000
0100
0010
1000
0100
0010
,  // measure 23
0100
1000
0010
0100
0001
0010
0100
0001
0100
0010
0001
0100
,  // measure 24
0010
1000
0100
0010
1000
0001
0100
0010
0001
0100
0010
1000
,  // measure 25
0001
0010
0011
0100
1000
0010
1010
0100
,  // measure 26
0010
1000
1001
0001
0010
0100
0110
0010
,  // measure 27
0001
1000
1001
1100
1000
0001
1001
0101
,  // measure 28
0001
0100
0110
1001
1000
0100
0110
1001
,  // measure 29
0000
0000
0100
0001
1000
0010
1000
0100
0010
0000
0000
0000
0110
0000
0000
0000
,  // measure 30
0010
0002
0100
0000
1003
0000
0001
2000
,  // measure 31
0100
3100
1000
1001
,  // measure 32
0001
0020
0100
0030
0110
0000
0010
0100
,  // measure 33
1000
0010
1000
0000
0010
0000
0110
0000
,  // measure 34
0010
2000
0100
0000
3001
0000
1000
0020
,  // measure 35
0100
0130
0001
0011
,  // measure 36
0010
0002
0100
0003
1001
0000
0001
0100
,  // measure 37
0001
0010
0100
0000
0010
0100
0010
0100
,  // measure 38
1000
0010
0001
0010
0100
0001
0100
0001
,  // measure 39
0010
1000
0010
0100
1000
0001
0100
0010
,  // measure 40
0100
0001
1000
0000
0100
0000
0010
0000
0001
0000
0100
0000
0010
0000
0100
0000
,  // measure 41
0010
1000
0100
1000
0100
0010
0100
0010
,  // measure 42
0001
0100
1000
0100
0010
1000
0010
1000
,  // measure 43
0100
0001
0100
1000
0001
0010
0100
0010
,  // measure 44
0001
1000
0100
0000
0010
0000
0100
0000
1000
0000
0010
0000
1000
0000
0001
0000
,  // measure 45
0010
0100
1000
0010
0110
0100
0001
0011
,  // measure 46
0010
0100
1100
1000
0010
0110
0100
0001
,  // measure 47
1001
1000
1100
0100
0110
0001
0100
0101
,  // measure 48
0010
1000
1100
0010
0001
0101
0100
0010
,  // measure 49
1010
0100
0011
1000
1010
0001
1000
1010
,  // measure 50
0010
1000
0100
0000
1100
0000
0100
0000
0010
0000
0011
0000
0001
0000
1001
0000
,  // measure 51
1000
0001
0010
0001
0100
0000
0010
0000
1100
0000
0100
0000
0010
0000
0011
0000
,  // measure 52
0010
0001
0100
0000
0101
0000
0100
0000
0001
0000
1001
0000
1000
0000
1100
0000
,  // measure 53
0100
1000
0010
1000
0001
0000
1000
0000
0110
0000
0010
1000
0100
0000
0010
0001
,  // measure 54
1000
0000
0010
0100
0001
0000
0010
0100
1000
0000
0010
0000
0001
0000
0010
0000
,  // measure 55
1000
0000
0001
0000
1000
0000
0010
0000
0100
0010
0100
0010
1000
0100
0010
0001
,  // measure 56
0100
0010
0100
0010
1000
0001
0010
0100
1000
0001
0010
0001
0100
0010
1000
0010
,  // measure 57
0100
0001
0010
0001
1000
0010
0100
0000
0001
0000
0100
0001
0010
0000
0100
1000
,  // measure 58
0001
0000
0100
0010
1000
0000
0100
0010
0001
0000
0100
0000
1000
0000
0100
0000
,  // measure 59
0001
0000
0010
0000
0001
0000
1000
0000
0010
0100
0010
0100
0001
0010
0100
1000
,  // measure 60
0010
0100
0010
0100
0001
1000
0100
0010
0001
0100
0001
0010
0100
0010
0001
1000
,  // measure 61
0010
0000
0000
0100
0000
0000
0010
0000
0000
1000
0000
0000
0001
0000
0000
0010
0000
0000
0100
0000
0000
0000
0000
0000
1001
0000
0000
0000
0001
0000
0000
0000
0100
0000
0000
0000
0010
0000
0000
0000
1000
0000
0000
0000
0100
0000
0000
0000
,  // measure 62
1100
1000
0010
0100
1000
0100
0001
0010
0100
1000
0001
0010
,  // measure 63
0110
0000
1100
0000
0101
0000
1010
0010
1000
0100
0001
0100
,  // measure 64
1000
0010
0100
0001
0010
0100
1100
0010
0001
0101
0010
1000
,  // measure 65
1001
0001
0100
1000
0100
0010
1010
0100
0001
0011
0100
1000
,  // measure 66
1010
0010
0100
1000
0100
0010
1000
0100
0010
1000
0010
0100
,  // measure 67
1000
0010
0100
1000
0001
0010
0100
0001
0010
0100
0001
0100
,  // measure 68
1000
0000
0000
0000
0000
0000
0000
0000
0000
0000
0000
0000
0000
0000
0000
0000
0001
0000
0000
0000
0000
0000
0000
0000
0000
0000
0000
0000
0000
0000
0000
0000
0100
0000
0000
0000
0000
0000
0000
0000
0000
0000
0000
0000
0000
0000
0000
0000
1000
0000
0000
0000
0000
0000
0000
0000
0000
0000
0000
0000
0000
0000
0000
0000
0001
0000
0000
0000
0000
0000
0000
0000
0000
0000
0000
0000
0000
0000
0000
0000
0010
0000
0000
0000
0000
0000
0000
0000
0000
0000
0000
0000
0000
0000
0000
0000
2000
0000
0000
0000
0000
0000
0000
0000
0000
0000
0000
0000
0000
0000
0000
0000
0000
0000
0000
0000
0000
0000
0000
0000
0000
0000
0000
0000
0000
0000
0000
0000
0000
0000
0000
0000
0000
0000
0000
0000
0000
0000
0000
0000
0000
0000
0000
0000
0001
0000
0000
0000
0000
0000
0000
0000
0000
0000
0000
0000
0000
0000
0000
0000
0000
0000
0000
0000
0000
3000
0000
0000
2000
0000
0000
0000
0000
0000
0000
0000
0000
0000
0000
0000
0000
0000
0000
0000
0000
0000
0000
0000
0000
0000
0000
0000
,  // measure 69
0100
0000
0000
0000
0000
0000
0000
0000
0000
0000
0000
0000
0000
0000
0000
0000
0000
0000
0000
0000
0000
0000
0000
0000
0000
0000
0000
0000
0000
0000
0000
3000
2001
0000
0000
0000
0000
0000
0000
0000
0000
0000
0000
0000
0000
0000
0000
0000
0100
0000
0000
0000
0000
0000
3000
0000
0000
0000
0000
0000
0000
0000
0000
0000
,  // measure 70
0102
0000
0000
0000
0000
0000
0000
0000
0000
0000
0000
0000
0000
0000
0000
0000
1000
0000
0000
0000
0000
0000
0000
0000
0000
0000
0000
0000
0000
0000
0000
0003
0012
0000
0000
0000
0000
0000
0000
0000
0000
0000
0000
0000
0000
0000
0000
0000
0010
0000
0000
0000
0000
0000
0000
0003
0002
0000
0000
0000
0000
0000
0000
0000
,  // measure 71
0100
0000
0000
0000
0000
0000
0000
0000
0000
0000
0000
0000
0000
0000
0000
0003
1002
0000
0000
0000
0000
0000
0000
0000
0000
0000
0000
0000
0000
0000
0000
0000
0010
0000
0000
0000
0000
0000
0000
0000
0000
0000
0000
0000
0000
0000
0000
0000
1000
0000
0000
0000
0000
0000
0000
0000
0000
0000
0000
0000
0000
0000
0000
0000
,  // measure 72
0103
0000
0000
0000
0000
0000
0000
0000
0000
0000
0000
0000
0000
0000
0000
0000
0010
0000
0000
0000
0000
0000
0000
0000
0000
0000
0000
0000
0000
0000
0000
0000
0210
0000
0000
0000
0000
0000
0000
0000
0000
0000
0000
0000
0000
0000
0000
0000
0010
0000
0000
0000
0000
0000
0000
0300
0200
0000
0000
0000
0000
0000
0000
0000
,  // measure 73
0001
0000
0000
0000
0000
0000
0000
0000
0000
0000
0000
0000
0000
0000
0000
0000
0000
0000
0000
0000
0000
0000
0000
0000
0000
0000
0000
0000
0000
0000
0000
0300
0210
0000
0000
0000
0000
0000
0000
0000
0000
0000
0000
0000
0000
0000
0000
0000
0302
0000
0000
0000
0000
0000
0000
0000
0000
0000
0000
0000
0000
0000
0000
0000
,  // measure 74
0023
0000
0000
0000
0230
0000
0000
0000
1300
0000
0010
1000
0100
0000
0010
0000
,  // measure 75
0001
0000
0000
0000
0010
0000
0000
0000
0100
0000
0000
0000
0000
0000
0000
0000
0010
0000
0000
0000
0000
0000
0000
0000
0001
0000
0000
0000
0000
0000
0000
0000
2001
0000
0000
0000
0000
0000
0000
0000
0000
0000
0000
0000
0000
0000
0000
0000
0010
0000
0000
0000
0000
0000
0000
3000
2000
0000
0000
0000
0000
0000
0000
0000
,  // measure 76
0001
0000
0000
0000
0000
0000
0000
0000
3000
0000
0000
0000
0000
0000
0000
0000
0001
0000
0000
0000
0010
0000
0000
0000
0100
0000
0000
0000
1000
0000
0000
0000
0002
0000
0000
0000
0000
0000
0000
0000
0100
0000
0000
0000
0000
0000
0000
0000
0100
0000
0000
0000
0000
0000
0000
0003
1002
0000
0000
0000
0000
0000
0000
0000
,  // measure 77
1000
0000
0000
0000
0000
0000
0000
0000
1000
0000
0000
0000
0000
0000
0000
0003
0012
0000
0000
0000
0000
0000
0000
0000
0000
0000
0000
0000
0000
0000
0000
0003
0021
0000
0000
0000
0000
0000
0000
0000
0001
0000
0000
0000
0000
0000
0000
0030
1020
0000
0000
0000
0000
0000
0000
0000
1030
0000
0000
0000
0000
0000
0000
0000
,  // measure 78
0201
0000
0000
0000
0000
0000
0000
0000
0001
0000
0000
0000
0000
0000
0000
0300
1200
0000
0000
0000
0000
0000
0000
0000
1300
0000
0000
0000
0000
0000
0000
0000
2010
0000
0000
0000
0000
0000
0000
0000
0010
0000
0000
0000
0000
0000
0000
0000
0010
0000
0000
0000
0000
0000
0000
3000
2001
0000
0000
0000
0000
0000
0000
0000
,  // measure 79
0001
0000
0000
0000
0000
0000
0000
0000
0001
0000
0000
0000
0000
0000
0000
3000
2100
0000
0000
0000
0000
0000
0000
0000
3000
0000
0000
0000
0000
0000
0000
0000
0011
0000
0000
0000
0000
0000
0000
0000
0010
0000
0000
0000
0000
0000
0000
0000
0110
0000
0000
0000
0000
0000
0000
0000
0100
0000
0000
0000
0000
0000
0000
0000
,  // measure 80
1100
0000
0000
0000
0000
0000
0000
0000
1000
0000
0000
0000
0000
0000
0000
0000
1010
0000
0000
0000
0000
0000
0000
0000
0010
0000
0000
0000
0000
0000
0000
0000
0201
0000
0000
0000
0000
0000
0000
0000
0001
0000
0000
0000
0000
0000
0000
0000
0001
0000
0000
0000
0000
0000
0000
0300
1200
0000
0000
0000
0000
0000
0000
0000
,  // measure 81
1000
0000
0000
0000
0000
0000
0000
0000
1000
0000
0000
0000
0000
0000
0000
0300
0210
0000
0000
0000
0000
0000
0000
0000
0000
0000
0000
0000
0300
0000
0000
0000
0021
0000
0000
0000
0000
0000
0000
0000
0001
0000
0000
0000
0000
0000
0000
0030
1020
0000
0000
0000
0000
0000
0000
0000
1000
0000
0000
0000
0000
0000
0000
0030
,  // measure 82
0210
0000
0000
0000
0000
0000
0000
0000
0010
0000
0000
0000
0000
0000
0000
0300
1200
0000
0000
0000
0000
0000
0000
0000
1300
0000
0000
0000
0000
0000
0000
0000
0011
0000
0000
0000
0000
0000
0000
0000
0011
0000
0000
0000
0000
0000
0000
0000
0000
0000
0000
0000
0000
0000
0000
0000
1010
0000
0000
0000
0000
0000
0000
0000
,  // measure 83
1010
0000
0110
0110
0000
0011
0011
0100
,  // measure 84
1001
1001
0000
0000
1010
1010
0000
0011
,  // measure 85
0011
0000
0110
0110
0000
1010
1010
0100
,  // measure 86
1001
1001
0000
0000
0102
0100
0103
0210
,  // measure 87
0010
0310
1020
1030
1010
0201
0301
0101
,  // measure 88
2100
0000
0000
0000
0000
0000
0000
3000
1200
0000
0000
0000
0000
0000
0000
0300
2100
0000
0000
0000
3000
0000
0000
0000
0210
0000
0000
0000
0000
0000
0000
0300
0120
0000
0000
0000
0000
0000
0000
0030
0210
0000
0000
0000
0300
0000
0000
0000
1001
0000
0000
0000
0000
0000
0000
0000
1001
0000
0000
0000
0000
0000
0000
0000
;
