#TITLE:Let's Check Your Level!;
#SUBTITLE:;
#ARTIST:D.J.Amuro;
#TITLETRANSLIT:;
#SUBTITLETRANSLIT:;
#ARTISTTRANSLIT:;
#GENRE:;
#CREDIT:;
#BANNER:ZZ.png;
#BACKGROUND:ZZ-bg.png;
#LYRICSPATH:;
#CDTITLE:;
#MUSIC:ZZ.ogg;
#OFFSET:0.000000;
#SAMPLESTART:65.454002;
#SAMPLELENGTH:15.000000;
#SELECTABLE:YES;
#BPMS:0.000000=154.000000
,167.000000=308.000000
,167.500000=154.000000
,167.750000=77.000000
,168.000000=154.000000
;
#STOPS:
;
#BGCHANGES:;
#KEYSOUNDS:;
#ATTACKS:;

//---------------dance-single - Let's Check Your Level!----------------
#NOTES:
     dance-single:
     :
     Beginner:
     1:
     0.598734,1.518847,0.554709,0.158488,0.405026,476.000000,413.000000,63.000000,18.000000,0.000000,0.000000,0.598734,1.518847,0.554709,0.158488,0.405026,476.000000,413.000000,63.000000,18.000000,0.000000,0.000000:
// measure 0
0000
0000
0000
0000
,  // measure 1
0000
0000
0000
0000
,  // measure 2
0000
0000
0000
0000
,  // measure 3
0000
0000
0000
0000
,  // measure 4
0000
0000
0000
0000
,  // measure 5
0001
0000
0000
0000
,  // measure 6
1000
0000
0000
0000
,  // measure 7
0001
0000
0000
0000
,  // measure 8
1001
0000
0000
0000
,  // measure 9
1000
0000
1000
0000
,  // measure 10
0001
0000
0000
0000
,  // measure 11
0100
0000
0100
0000
,  // measure 12
0010
0000
0000
0000
,  // measure 13
1000
0000
0010
0000
,  // measure 14
1000
0000
0010
0000
,  // measure 15
0100
0000
0001
0000
,  // measure 16
1001
0000
0000
0000
,  // measure 17
0001
0001
0010
0000
,  // measure 18
1000
1000
0010
0000
,  // measure 19
0100
0100
0010
0000
,  // measure 20
0001
1000
1001
0000
,  // measure 21
0001
0100
0001
0001
,  // measure 22
1000
0100
1000
1000
,  // measure 23
0010
0100
0010
0010
,  // measure 24
0100
0010
1000
0001
,  // measure 25
1001
0000
0000
0110
0000
0000
1001
0000
,  // measure 26
0010
0000
0100
0000
1000
0001
1000
0000
,  // measure 27
0010
0000
0100
0000
0001
1000
0001
0000
,  // measure 28
0010
0100
0010
0000
0100
0010
0100
0000
,  // measure 29
1000
1100
0001
0101
,  // measure 30
1000
0100
0010
0000
0001
0100
0010
0000
,  // measure 31
0100
0010
1000
0001
0000
0001
1000
0000
,  // measure 32
0110
0101
1010
0011
,  // measure 33
1000
0001
1000
0010
0100
0000
0110
0000
,  // measure 34
0010
1000
0100
1000
0001
0010
0100
0000
,  // measure 35
0010
0001
0100
0010
1000
0100
0010
0000
,  // measure 36
0001
0100
1000
0100
0001
0010
0100
1000
,  // measure 37
1010
0011
1100
0101
,  // measure 38
0001
1000
0010
1000
0100
0001
0100
1000
,  // measure 39
0010
0100
0010
1000
0001
0100
1000
0001
,  // measure 40
0110
0000
0010
1000
0100
0010
0001
1000
,  // measure 41
0010
0000
0000
0000
0010
0000
0000
0000
0010
0000
0000
0000
0100
0000
0000
0000
0100
0000
0000
0000
0100
0000
0000
0000
2002
0000
0000
0000
0000
0000
0000
3003
,  // measure 42
0010
0000
1000
0100
0000
1000
0100
0000
0010
0000
0010
0000
0001
0000
0000
0000
,  // measure 43
0010
0000
0001
0100
0000
0001
0100
0000
0010
0000
0010
0000
1000
0000
0000
0000
,  // measure 44
0100
0000
0010
0001
0000
0010
0001
0000
0100
0000
0100
0000
0010
0000
0000
0000
,  // measure 45
1000
0100
1000
0000
0100
0000
0010
0000
0001
0100
0001
0000
1000
0000
0000
0000
,  // measure 46
0110
0000
0010
1000
0000
0001
1000
0001
0010
0000
0001
0000
0100
0000
0010
0000
,  // measure 47
1010
0000
0100
0001
0000
1000
0001
1000
0100
0000
0010
0000
0100
0000
1000
0000
,  // measure 48
0101
0000
0010
1000
0000
0100
0010
0100
1000
0000
0010
0000
0100
0000
0001
0000
,  // measure 49
1000
0100
1000
0001
1000
0010
1000
0000
0001
0010
0001
1000
0001
0100
0010
0100
,  // measure 50
0001
0000
0001
0010
0000
0010
0100
0000
1000
0000
1010
0000
0001
0000
0011
0000
,  // measure 51
1100
0000
0100
1000
0000
1000
0010
0000
1000
0000
1100
0000
0001
0000
0101
0000
,  // measure 52
1010
0000
0100
0010
0000
0010
1000
0000
0001
0000
1001
0000
0100
0000
0110
0000
,  // measure 53
0001
0010
0001
0010
0100
1000
0100
1000
0001
0100
0010
0100
0001
0010
0100
1000
,  // measure 54
0010
0000
1000
0100
0000
0100
0001
0000
0100
1000
0010
0000
0100
0001
0010
0000
,  // measure 55
0110
0000
0001
0100
0000
0100
1000
0000
0100
0001
0010
0000
0100
1000
0010
0000
,  // measure 56
0110
0000
0100
0001
0000
0001
0010
0000
0001
0010
1000
0000
0010
0001
0100
0000
,  // measure 57
0010
0100
0010
0100
0001
0010
0100
1000
0010
1000
0001
0010
0001
0100
1000
0100
,  // measure 58
0002
0000
1000
0203
1000
0000
0320
0000
,  // measure 59
0032
0100
0023
1000
,  // measure 60
0032
0000
0010
0203
1000
0000
0320
0000
,  // measure 61
0031
0000
0000
1000
1010
0000
0000
0001
0011
0000
0100
0000
1000
0010
1000
0010
,  // measure 62
0120
0100
0031
0010
0100
0010
0002
0100
1003
0000
1100
0000
0010
0000
1001
0000
,  // measure 63
2010
0010
3100
0001
0010
0100
2030
0010
3001
0000
0011
0000
0100
0000
1001
0000
,  // measure 64
0210
0010
0301
0100
1000
0100
3002
0010
1003
1000
1100
0000
0010
0010
0110
0000
,  // measure 65
0101
0010
1000
0100
1001
0100
0001
0010
1010
1000
0100
0001
0101
1000
0010
0001
,  // measure 66
1100
0011
1100
0011
1100
0000
0011
1100
0011
1100
0011
0000
1001
0110
1001
0110
,  // measure 67
1001
0000
0100
0010
0100
0000
2002
0000
0000
0000
0000
0000
0000
0000
0000
0000
,  // measure 68
0000
0000
0000
0000
,  // measure 69
3003
0000
0000
0000
;
