#VERSION:0.83;
#TITLE:Lesson by DJ;
#SUBTITLE:;
#ARTIST:U.T.D. & Friends;
#TITLETRANSLIT:;
#SUBTITLETRANSLIT:;
#ARTISTTRANSLIT:;
#GENRE:;
#ORIGIN:;
#CREDIT:;
#BANNER:Lesson by DJ.png;
#BACKGROUND:Lesson by DJ-bg.png;
#PREVIEWVID:;
#JACKET:Lesson by DJ-jacket.png;
#CDIMAGE:;
#DISCIMAGE:;
#LYRICSPATH:;
#CDTITLE:;
#MUSIC:Lesson by DJ.ogg;
#OFFSET:0.020000;
#SAMPLESTART:19.948999;
#SAMPLELENGTH:15.000000;
#SELECTABLE:YES;
#BPMS:0.000=120.000;
#STOPS:;
#DELAYS:;
#WARPS:;
#TIMESIGNATURES:0.000=4=4;
#TICKCOUNTS:0.000=4;
#COMBOS:0.000=1;
#SPEEDS:0.000=1.000=0.000=0;
#SCROLLS:0.000=1.000;
#FAKES:;
#LABELS:0.000=Song Start;
#BGCHANGES:;
#KEYSOUNDS:;
#ATTACKS:
;

//---------------dance-double - ----------------
#NOTEDATA:;
#CHARTNAME:;
#STEPSTYPE:dance-double;
#DESCRIPTION:;
#CHARTSTYLE:;
#DIFFICULTY:Beginner;
#METER:2;
#RADARVALUES:0.063541,0.161473,0.028391,0.009464,0.000000,47.000000,44.000000,3.000000,1.000000,9.000000,0.000000,0.000000,0.000000,63.000000,0.063541,0.161473,0.028391,0.009464,0.000000,47.000000,44.000000,3.000000,1.000000,9.000000,0.000000,0.000000,0.000000,63.000000;
#CREDIT:;
#NOTES:
00000000
00000000
00000000
00000000
,
00000000
00000000
00000000
00000000
,
00000000
00000000
00000000
00000000
,
00000000
00000000
00000000
00000000
,
00000000
00000000
00000000
00000000
,
00000000
00000000
00000000
00000000
,
00000000
00000000
00000000
00000000
,
00000000
00000000
00000000
00000000
,
00000000
00000000
00000000
00000000
,
00000000
00000000
00000000
00000000
,
00000000
00000000
00000000
00000000
,
00000000
00000000
00000001
00000000
,
00000000
00000000
10000000
00000000
,
00000000
00000000
00000010
00100000
,
00000000
00000000
00000100
01000000
,
00000000
00000000
00000000
00000000
,
00000010
00100000
00000010
00000000
,
00000000
00000000
00000000
00000000
,
00000000
00000000
00000000
00000000
,
02000000
00000000
00000000
00000000
,
03000000
00000000
00000000
00000000
,
MFFFFFFF
00000000
MFFFFFFF
00000000
,
MFFFFFFF
00000000
MFFFFFFF
00000000
,
MFFFFFFF
00000000
MFFFFFFF
00000000
,
MFFFFFFF
00000000
MFFFFFFF
00000000
,
MFFFFFFF
00000000
00000000
00000000
,
00000000
00000000
00000001
00000000
,
00000000
00000000
10000000
00000000
,
00000000
00000000
00000001
00001000
,
00000000
00000000
10000000
00010000
,
00000000
00000000
00000000
00000000
,
00000001
00001000
10000000
00000000
,
00000000
00000000
00000000
00000000
,
10000000
00010000
00000001
00000000
,
00000000
00000000
00000000
00000000
,
00000000
00000000
00000000
00000000
,
00000000
00000000
00000000
00000000
,
00000001
00010000
10000000
00001000
,
00010000
00001000
00000001
00000000
,
00000000
00000000
10010000
00000000
,
00000000
00000000
00001001
00000000
,
00000000
00000000
10010000
00000000
,
00000000
00000000
00000000
00000000
,
00000000
00000000
00000000
00000000
00000100
01000000
00010000
00000000
,
00000000
00000000
00000000
00000000
01000000
00000100
00000001
00000000
,
00000000
00000000
00000000
00000000
,
00000000
00000000
00000000
00000000
,
00000000
00000000
00000000
00000000
00000100
01000000
00010000
00000000
,
00000000
00000000
00000000
00000000
01000000
00000100
00000001
00000000
;

//---------------dance-double - ----------------
#NOTEDATA:;
#CHARTNAME:;
#STEPSTYPE:dance-double;
#DESCRIPTION:;
#CHARTSTYLE:;
#DIFFICULTY:Hard;
#METER:12;
#RADARVALUES:0.232534,0.392148,0.085172,0.037854,0.000000,172.000000,163.000000,9.000000,4.000000,0.000000,0.000000,0.000000,0.000000,0.000000,0.232534,0.392148,0.085172,0.037854,0.000000,172.000000,163.000000,9.000000,4.000000,0.000000,0.000000,0.000000,0.000000,0.000000;
#CREDIT:;
#NOTES:
// measure 0
00000000
00000000
00000000
00000000
,  // measure 1
00000000
00000000
00000000
00000000
,  // measure 2
00000000
00000000
00000000
00000000
,  // measure 3
00000000
00000000
00000000
00000000
,  // measure 4
00000000
00000000
00000000
00000000
,  // measure 5
00000000
00000000
00000000
00000000
,  // measure 6
00000000
00000000
00000000
00000000
,  // measure 7
00000000
00000000
00000000
00000000
,  // measure 8
00000000
00000000
00000000
00000000
,  // measure 9
00000000
00000000
00000000
00000000
,  // measure 10
00000000
00000000
00000000
00000000
,  // measure 11
00010000
00000100
00000001
00000000
00000001
00000100
00010000
00000000
,  // measure 12
00001000
01000000
10000000
00000000
10000000
01000000
00001000
00000000
,  // measure 13
00100000
00010000
00000010
00010000
00100000
00010000
00000010
00000000
,  // measure 14
00000100
00001000
01000000
00001000
00000100
00001000
01000000
00000000
,  // measure 15
00100000
00010000
00000010
00010000
00100000
00000000
00011000
00000000
,  // measure 16
00000010
00001000
00100000
00001000
00000010
00000000
00011000
00000000
,  // measure 17
00000000
00000000
00000000
00000000
,  // measure 18
00000200
00000001
00000010
00001300
,  // measure 19
02000000
10000000
00100000
03010000
,  // measure 20
00022000
00000000
00000000
00000000
,  // measure 21
00000000
00000000
00000000
00000000
,  // measure 22
00000000
00000000
00000000
00000000
,  // measure 23
00000000
00000000
00000000
00000000
,  // measure 24
00000000
00000000
00000000
00000000
,  // measure 25
00033000
00000000
00000000
00000000
,  // measure 26
00010000
00000100
00000001
00001000
00000001
00000100
00010000
00000000
,  // measure 27
00001000
01000000
10000000
00010000
10000000
01000000
00001000
00000000
,  // measure 28
00010000
01000000
10000000
00100000
00010000
00000100
00001000
00000010
,  // measure 29
00001000
00100000
00010000
00000010
00001000
00000100
00010000
00001000
,  // measure 30
00010000
01000000
00001000
00000100
00001000
00000000
00000000
00000000
,  // measure 31
00010000
00100000
00001000
00000010
00001000
00000000
00000000
00000000
,  // measure 32
00001000
01000000
00010000
00000100
00010000
00000000
00000000
00000000
,  // measure 33
00001000
00100000
00010000
00000010
00010000
00000000
00000000
00000000
,  // measure 34
00000000
00000000
00000000
00000000
,  // measure 35
00010000
00000100
00010000
00100000
00001000
00000010
00001000
00000100
,  // measure 36
00010000
01000000
10000000
00100000
00010000
00000000
00000000
00000000
,  // measure 37
00010000
00000010
00010000
01000000
00001000
00000100
00001000
00000010
,  // measure 38
00010000
00100000
10000000
01000000
00010000
00000000
00000000
00000000
,  // measure 39
00001001
00000100
00011000
01000000
,  // measure 40
10010000
00100000
00011000
00000010
,  // measure 41
00001001
01000000
10010000
00000100
,  // measure 42
00000000
00000000
00000000
00000000
,  // measure 43
00000100
00000100
00010000
00001000
01000000
01000000
00010000
00000000
,  // measure 44
01000000
01000000
00010000
00001000
00000100
00000100
00000001
00000000
,  // measure 45
00000000
00000000
00000000
00000000
,  // measure 46
00000000
00000000
00000000
00000000
,  // measure 47
00000100
00000100
00010000
00100000
01000000
01000000
00010000
00000000
,  // measure 48
01000000
01000000
00010000
00000010
00000100
00000100
00000001
00000000
;
