#TITLE:LIGHTNING THUNDERBOLT;
#SUBTITLE:;
#ARTIST:TAG;
#TITLETRANSLIT:;
#SUBTITLETRANSLIT:;
#ARTISTTRANSLIT:;
#GENRE:;
#CREDIT:;
#BANNER:;
#BACKGROUND:LIGHTNING THUNDERBOLT-bg.png;
#LYRICSPATH:;
#CDTITLE:;
#MUSIC:LIGHTNING THUNDERBOLT.wav;
#OFFSET:1.020000;
#SAMPLESTART:87.300003;
#SAMPLELENGTH:12.000000;
#SELECTABLE:YES;
#BPMS:0.000000=155.000000
;
#STOPS:
;
#BGCHANGES:;
#KEYSOUNDS:;
#ATTACKS:;

//---------------dance-single - ----------------
#NOTES:
     dance-single:
     :
     Challenge:
     14:
     0.697138,0.852287,0.332725,0.230348,0.716638,572.000000,533.000000,39.000000,27.000000,15.000000,0.000000,0.697138,0.852287,0.332725,0.230348,0.716638,572.000000,533.000000,39.000000,27.000000,15.000000,0.000000:
// measure 0
0000
0000
0000
0000
,  // measure 1
0000
0000
0000
0000
,  // measure 2
0000
0000
0000
0000
,  // measure 3
0000
0000
0000
0000
,  // measure 4
0000
0000
0000
0000
,  // measure 5
1000
0000
0001
1000
0000
0001
1000
0000
0001
0010
0000
0100
1000
0000
0001
0100
,  // measure 6
0001
0000
0010
0100
0000
0010
0100
0000
1000
0010
0000
0100
0001
0000
0100
0001
,  // measure 7
1000
0100
1000
0100
1000
0000
0010
0100
0010
0100
0010
0000
1000
0100
0010
0001
,  // measure 8
0100
0000
0010
1000
0000
1000
0100
0000
1001
0000
0000
0000
MFFF
0000
0000
0000
,  // measure 9
0110
0000
0000
0100
0000
0001
0000
1000
0100
0000
0100
0000
0010
0000
MFFF
0000
,  // measure 10
0000
0000
0100
0000
0010
1000
0000
0010
0100
0000
0100
0000
0010
0000
0010
0000
,  // measure 11
1001
0000
0000
0010
0000
0100
0000
0001
0010
0000
0010
0000
0100
1000
0100
0000
,  // measure 12
0000
0000
0100
0000
0010
0001
0000
0010
0001
0000
0001
0000
0100
0000
0100
0000
,  // measure 13
1010
0000
0000
0010
0000
1000
0000
0100
0010
0000
0010
0000
0001
0000
MFFF
0000
,  // measure 14
0000
0000
1000
0000
0010
0100
0000
0010
0100
0000
0100
0000
0010
0000
0010
0000
,  // measure 15
0101
0000
0000
0100
0000
0001
0000
0010
0100
0000
1000
0000
0010
0100
0010
0000
,  // measure 16
0000
0000
1001
0000
0000
0101
0000
0000
0011
0000
0000
1010
0000
0000
0110
0000
,  // measure 17
1001
1000
0100
0001
0100
0010
1000
0010
,  // measure 18
0001
0100
0001
0000
0010
0000
0100
0000
1000
0000
0100
0000
0010
0000
0110
0000
,  // measure 19
1001
0001
0010
0100
0001
0100
1000
0001
,  // measure 20
0100
0010
0100
0000
0010
0000
1000
0000
0100
0000
0100
0000
0001
0000
0000
0000
,  // measure 21
0110
0010
0001
0100
0010
1000
0100
0001
,  // measure 22
0100
0010
0100
0000
1000
0000
0001
0000
0010
0000
0100
0000
1000
0000
1010
0000
,  // measure 23
0110
0001
0100
1000
0100
0010
1000
0010
,  // measure 24
0010
0000
0001
1000
0001
1000
0001
0000
0010
0000
0000
1100
0000
0000
0001
0000
,  // measure 25
0100
0000
0000
0100
0001
0000
1000
0000
0000
1000
0001
0000
0010
0000
0001
0000
,  // measure 26
0100
0000
0000
0100
0001
0000
1000
0000
0000
1000
0001
0000
0010
0000
0001
0000
,  // measure 27
0100
0000
0000
0100
1000
0000
0001
0000
0000
0001
1000
0000
0010
0000
1000
0000
,  // measure 28
0100
0000
0000
0100
1000
0000
0001
0000
0000
0001
1000
0000
0010
0000
0100
0000
,  // measure 29
0011
0000
0000
1001
0000
0000
0011
0000
0000
1001
0000
0000
0011
0000
0100
0010
,  // measure 30
0100
0000
0000
1001
0000
0000
1100
0000
0000
1001
0000
0000
1100
0000
0010
0001
,  // measure 31
0010
0000
0000
1000
0000
0000
0100
0000
0000
0001
0000
0000
0010
0000
1001
0000
,  // measure 32
0010
0000
0000
1000
0000
0000
0100
0000
0000
0100
0000
0000
1001
0000
MFFF
0000
,  // measure 33
0001
0000
0100
0001
0000
0100
0001
0000
1000
0100
0000
1000
0100
0000
0010
0001
,  // measure 34
0010
0000
0001
1000
0000
0001
1000
0000
0001
0100
0000
0001
0100
0000
MFFF
0000
,  // measure 35
0100
0000
0010
0100
0000
0010
0100
0000
0001
0100
0000
0001
1000
0000
0001
0100
,  // measure 36
0001
0000
1000
0010
0000
1000
0010
0000
1000
0001
0000
0100
0001
0000
MFFF
0000
,  // measure 37
0010
0000
0100
0001
0000
0001
0010
0000
0100
1000
0000
1000
0001
0000
0100
0001
,  // measure 38
1000
0000
0001
0100
0000
0100
0010
0000
1000
0010
0000
0010
0100
0000
MFFF
0000
,  // measure 39
0100
0000
0001
1000
0000
1000
0010
0000
1000
0010
0000
0010
0100
0000
0100
0000
,  // measure 40
1001
0000
0000
0000
0000
0000
0000
0000
0010
1000
0010
1000
0010
0000
0100
0001
,  // measure 41
0100
0001
MFFF
0001
,  // measure 42
0000
1000
MFFF
1000
,  // measure 43
0000
0010
MFFF
0010
,  // measure 44
0000
0100
MFFF
0100
,  // measure 45
1000
0010
1000
0000
0001
0000
0100
1000
,  // measure 46
0010
1000
0100
0000
0010
0100
0100
0000
,  // measure 47
0001
1000
0010
0000
1000
0000
0010
0001
,  // measure 48
0001
0010
0100
0000
0010
0010
1000
0000
,  // measure 49
0001
0000
0000
MFFF
0220
0000
0000
0330
,  // measure 50
0010
0000
0000
0010
0001
0000
1000
0000
0000
1000
0001
0000
0100
0000
0001
0000
,  // measure 51
0010
0000
0000
0010
0001
0000
1000
0000
0000
1000
0001
0000
0010
0000
0001
0000
,  // measure 52
0010
0000
0000
0010
1000
0000
0001
0000
0000
0001
1000
0000
0100
0000
1000
0000
,  // measure 53
0010
0000
0000
0010
1000
0000
0001
0000
0000
0001
1000
0000
0010
0000
0100
0000
,  // measure 54
0011
0000
0000
1001
0000
0000
0011
0000
1100
0000
0000
0110
0000
0000
1100
0000
,  // measure 55
0010
0000
0000
0001
0000
0000
0100
0000
1001
0000
0000
0010
0000
0000
0001
0000
,  // measure 56
0110
0000
0000
0100
0001
0000
0000
0001
1000
0000
0000
1000
0100
0000
0000
0100
,  // measure 57
0000
0000
0001
0100
0001
0100
0001
0000
0010
0100
1000
0001
1000
0000
0000
0000
,  // measure 58
1000
0000
0100
1000
0000
0100
1000
0000
0001
0100
0000
1000
0100
0000
0010
1000
,  // measure 59
0010
0000
1000
0001
0000
1000
0001
0000
1000
0100
0000
0001
0100
0000
MFFF
0000
,  // measure 60
0100
0000
0010
0100
0000
0010
0100
0000
0001
0100
0000
1000
0001
0000
1000
0100
,  // measure 61
1000
0000
0001
0010
0000
0001
0010
0000
1000
0010
0000
0100
1000
0000
MFFF
0000
,  // measure 62
0010
0000
0100
1000
0000
1000
0010
0000
0010
0100
0000
0100
0001
0000
0001
1000
,  // measure 63
0010
0000
1000
0100
0000
0100
0010
0000
0010
0001
0000
0001
0010
0000
MFFF
0000
,  // measure 64
0010
0000
0010
0001
0000
0001
0100
0000
0100
1000
0000
1000
0100
0000
0100
0000
,  // measure 65
0010
0000
0010
1000
0000
1000
0100
0000
0100
0000
0000
0100
1000
0000
0001
0000
,  // measure 66
0002
0000
0000
1000
0000
0000
0100
0000
0000
1000
0000
0000
0203
0000
0302
0000
,  // measure 67
1000
0000
0023
0100
0000
0000
0001
0000
0000
1000
0000
0000
0032
0000
2003
0000
,  // measure 68
3200
0000
0000
0010
0000
0000
1000
0000
0000
0010
0000
0000
2300
0000
3020
0000
,  // measure 69
0100
0000
2030
0001
0000
0000
0100
0000
0000
0010
0000
0000
3002
0000
0010
0000
,  // measure 70
2003
0000
0000
0010
0000
0000
3200
0000
0000
0010
0000
0000
2300
0000
0001
0000
,  // measure 71
3100
0000
0020
0001
0000
0000
1000
0000
0000
0001
0000
0000
0230
0000
0320
0000
,  // measure 72
0032
0000
0000
0100
0000
0000
0023
0000
0000
0100
0000
0000
0032
0000
0203
0000
,  // measure 73
0320
0000
0000
0032
0000
0000
0203
0000
0000
2300
0000
0000
3010
0000
0010
0000
,  // measure 74
1001
0000
0000
0000
;
