#TITLE:この青空の下で;
#SUBTITLE:;
#ARTIST:TAG meets “eimy”;
#TITLETRANSLIT:Kono aozora no shita de;
#SUBTITLETRANSLIT:;
#ARTISTTRANSLIT:;
#GENRE:;
#CREDIT:;
#BANNER:Kono aozora no shita de.png;
#BACKGROUND:Kono aozora no shita de-bg.png;
#LYRICSPATH:;
#CDTITLE:;
#MUSIC:Kono aozora no shita de.ogg;
#OFFSET:0.000000;
#SAMPLESTART:36.780998;
#SAMPLELENGTH:15.000000;
#SELECTABLE:YES;
#DISPLAYBPM:165.000000;
#BPMS:0.000000=164.800003
,4.000000=165.000000
;
#STOPS:
;
#BGCHANGES:;
#KEYSOUNDS:;
#ATTACKS:;

//---------------dance-single - ----------------
#NOTES:
     dance-single:
     :
     Challenge:
     14:
     0.663839,0.770563,0.339378,0.130530,0.400292,534.000000,495.000000,39.000000,15.000000,0.000000,0.000000,0.663839,0.770563,0.339378,0.130530,0.400292,534.000000,495.000000,39.000000,15.000000,0.000000,0.000000:
0000
0000
0000
0000
,
0000
0000
0000
0000
,
0000
0000
0000
0000
,
0000
0000
0000
0000
,
0000
0000
0000
0000
,
1000
0100
0010
0001
0010
0100
1000
0010
,
1000
0001
0000
0001
0100
0000
0100
0010
0000
0010
1000
0000
0010
0000
0100
0000
,
0001
0010
0100
1000
0100
0010
0001
0100
,
0001
1000
0000
1000
0100
0000
0100
0000
0000
0000
0100
0000
0010
0000
0001
0000
,
0100
0010
1000
0010
0100
0001
1000
0100
,
0000
0100
0010
0001
1000
0001
0010
0100
,
1000
0010
0100
0010
0000
0010
1000
0100
,
0010
0110
0000
1001
0000
0011
0000
0110
,
0100
0010
0001
0010
0100
1000
0001
0100
,
0000
0100
0010
1000
0001
1000
0010
0100
,
0001
0010
0100
0010
0000
0010
0001
0100
,
0010
0110
0000
1001
0100
0010
0100
0000
,
1000
0100
1000
0010
0100
0001
0010
0100
,
0010
1000
0001
1000
0010
0100
1000
0000
,
0001
0010
0001
0100
0010
1000
0100
0001
,
0100
0010
0001
1000
0100
0001
0010
0100
,
1000
1000
1100
0000
0001
0001
0101
0000
,
0100
0100
0110
0000
0010
0010
1010
0000
,
1000
0100
0010
0001
1000
0010
0001
0100
,
1000
0100
0001
0010
0100
1000
0010
0100
,
1001
1001
0000
0000
0000
0000
0110
0000
,
1000
0000
1000
0100
0000
0100
0010
0000
0010
0000
0010
0001
0000
0001
0100
0000
,
0100
0000
0100
0010
0000
0010
1000
0000
1000
0000
0000
0000
0010
0000
0100
0000
,
0001
0000
0001
0100
0000
0100
0010
0000
0010
0000
0010
1000
0000
1000
0100
0000
,
0100
0000
0100
0010
0000
0010
0001
0000
0001
0000
0000
0000
0110
0000
0000
0000
,
0010
0000
0010
0100
0000
0100
1000
0000
1000
0000
0001
0000
0001
0000
0001
0000
,
1000
0100
1000
0010
0001
0100
0001
0010
,
1000
0100
1000
0010
1000
0100
0010
0001
,
1000
0100
1000
0000
0001
0100
0001
0000
0010
0001
0010
0000
0100
1000
0100
0000
,
0010
0000
0010
0001
0000
0001
0100
0000
0000
0000
0100
0000
0100
0000
0100
0000
,
0010
0000
0010
1000
0000
1000
0001
0000
0000
0000
0001
0000
0001
0000
0001
0000
,
0100
0000
0100
0001
0000
0001
1000
0000
1000
0000
1000
0100
0000
0100
0010
0000
,
0010
0000
0010
0001
0000
0001
1000
0000
0000
0000
0000
0000
0010
0000
0100
0000
,
0001
0010
0100
0010
0001
0100
0010
1000
,
0010
0110
1000
1010
,
0001
0000
0000
1000
0000
0000
0200
0000
0000
0000
0000
0000
0300
0000
0000
0000
,
0110
0000
0000
0110
0000
0000
0110
0000
0000
0000
0001
0100
0010
0000
0000
0000
,
1000
0000
1000
0100
0000
0100
0001
0000
0001
0100
0000
0100
1000
0000
1000
0001
,
0000
0001
0010
0000
0010
0100
0000
0100
1000
0000
1000
0100
0000
0100
0001
0000
,
0001
0000
0001
0010
0000
0010
1000
0000
1000
0010
0000
0010
0001
0000
0001
1000
,
0000
1000
0010
0000
0010
0100
0000
0100
0001
0000
0001
0010
0001
0000
0000
0000
,
0100
0010
0000
0010
1000
0000
1000
0100
0000
0100
0010
0000
0010
0001
0010
0000
,
0100
0010
0000
0010
0001
0000
0001
1000
0000
1000
0010
0000
0010
0100
0010
0000
,
1000
0100
1000
0001
0010
0100
0010
0001
,
1000
0100
0001
1000
0010
0100
0001
0100
,
1001
2002
0000
0000
3003
0000
0000
0000
,
0220
0000
0000
0000
,
0000
0000
0330
0000
,
1100
1100
0000
0000
0000
0000
0000
0101
,
0000
0011
0000
1010
0000
0110
0110
0000
,
0202
0000
0000
0300
,
2000
0000
0000
0003
,
0200
0000
0000
3000
,
0020
0000
0330
0110
,
0010
0000
0010
0001
0000
0001
1000
0000
0000
0000
1000
0000
1000
0000
0010
0000
,
0010
0000
0010
1000
0000
1000
0001
0000
0000
0000
0001
0000
0010
0000
0010
0000
,
0100
0000
0100
1000
0000
1000
0001
0000
0001
0000
0001
0100
0000
0100
0010
0000
,
0010
0000
0010
1000
0000
1000
0100
0000
0100
0000
0000
0000
0100
0000
0010
0000
,
0001
0100
0010
0100
0001
0010
0100
0001
,
0100
1100
0010
0011
,
0001
0000
0000
0100
0000
0000
0020
0000
0000
0000
0000
0000
0000
0000
0030
0000
,
0110
0000
0000
0110
0000
0000
0110
0000
0002
0000
0000
0000
2003
0000
0000
0000
,
3001
0100
0010
1000
0010
0100
0001
0010
,
0001
0100
0000
0100
1000
0000
1000
0100
0000
0100
0001
0000
0010
0000
0100
0000
,
1000
0010
0100
0001
0100
0010
1000
0100
,
1000
0000
1000
0010
0000
0010
0001
0000
0001
0010
0000
0010
1000
0000
0100
0000
,
1000
0100
0010
0001
0010
0100
1000
0010
,
1000
0100
0000
0100
0001
0000
0001
0100
0000
0100
1000
0000
0010
0000
0100
0000
,
0001
0010
0100
1000
0100
0010
0001
0100
,
0001
0010
0000
0011
0000
0000
1001
0000
0000
0000
0001
0000
0100
0000
0010
0000
,
0220
0000
0000
0000
,
0000
0000
0000
0000
,
0330
0000
0000
0000
;
