#TITLE:Hades Doll;
#SUBTITLE:;
#ARTIST:BEMANI Sound Team "Power Of Nature";
#TITLETRANSLIT:;
#SUBTITLETRANSLIT:;
#ARTISTTRANSLIT:;
#GENRE:;
#CREDIT:;
#BANNER:Hades_Doll.png;
#BACKGROUND:Hades_Doll-bg.png;
#LYRICSPATH:;
#CDTITLE:;
#MUSIC:Hades Doll.ogg;
#OFFSET:-0.660000;
#SAMPLESTART:13.000000;
#SAMPLELENGTH:12.000000;
#SELECTABLE:YES;
#BPMS:0.000000=185.000000
,184.000000=92.500000
,196.000000=185.000000
;
#STOPS:
;
#BGCHANGES:;
#KEYSOUNDS:;
#ATTACKS:;

//---------------dance-single - ----------------
#NOTES:
     dance-single:
     :
     Easy:
     8:
     0.455935,0.664026,0.439607,0.219803,0.004396,363.000000,313.000000,50.000000,25.000000,0.000000,0.000000,0.455935,0.664026,0.439607,0.219803,0.004396,363.000000,313.000000,50.000000,25.000000,0.000000,0.000000:
0000
0000
0000
0000
,
0000
0000
0000
0000
,
0000
0000
0000
0000
,
0000
0000
0000
0000
,
1001
0010
0100
0010
,
0011
0100
1000
0100
,
0110
0001
0100
0001
,
1010
1000
0010
1000
,
0100
1001
0010
1001
,
0100
1001
0110
1001
,
1000
0100
0010
0100
,
1000
0010
0100
0010
,
1000
0001
0010
0100
,
0010
0001
0110
0110
,
0001
0100
0010
0100
,
0001
0010
0100
0010
,
0001
1000
0010
0100
,
0001
0100
0001
0000
1001
0000
0000
0000
,
1000
0100
0001
0100
,
1000
0010
0001
0010
,
1000
0001
0010
0100
,
1000
1100
0001
0101
,
0001
0100
1000
0100
,
0001
0010
1000
0010
,
0001
1000
0010
0100
,
0010
0100
0010
0000
0110
0000
0000
0000
,
1001
0010
0010
0100
,
0110
0001
0001
1000
,
0001
0101
1000
1010
,
0001
0011
1000
1100
,
0001
0000
0010
0100
0010
0000
0001
0000
,
0010
0100
1000
0010
,
1000
0000
0100
0010
0100
0000
1000
0000
,
0010
0100
0001
0000
,
0010
0000
0001
1000
0001
2000
0000
3020
,
0000
0230
0000
0302
0000
2003
0000
3001
,
0000
0010
0000
0100
0000
0010
0000
0001
,
0000
1000
0000
0010
0000
1001
0000
0000
,
1000
0000
0100
0010
0100
0000
1000
0000
,
0010
0100
0001
0010
,
0001
0000
0100
0010
0100
0000
0001
0020
,
0000
0230
0000
2300
0000
3020
0000
0130
,
0000
0001
0000
1000
0000
0010
0000
1000
,
0000
0100
0000
0010
0000
0001
0000
0020
,
0000
0000
0000
0030
0000
0100
0000
2002
,
0000
0000
3003
0000
,
0100
0100
0100
0100
0100
0100
0100
0100
,
0100
0100
0100
0100
0100
0100
0100
0100
,
0100
0000
0100
0000
0100
0000
0100
0000
0100
0000
1001
0000
0001
1000
0001
0000
,
0010
0100
1100
0010
,
0100
0101
0001
0010
,
0110
1000
0100
0110
,
0001
0101
0101
1000
,
1100
1100
0010
0110
,
0110
0100
1001
1001
,
0000
0000
0002
0000
,
2003
0000
3020
0000
,
2030
0000
3002
0000
,
0023
0000
0230
0000
,
2300
3001
1000
0100
,
0010
0001
0010
0000
0001
0000
1000
0000
,
0010
0100
0010
0000
1000
0000
0100
0000
,
0001
0100
2002
0000
,
0000
3003
0220
0000
,
0000
0000
0330
0000
0001
0010
0100
0000
,
0010
0000
0100
0000
1000
0010
0100
0000
,
0010
0000
0100
0000
0001
0010
0001
0000
,
1000
0010
1000
0000
0001
0000
0101
0000
,
1000
0000
1100
0000
0010
0100
0001
0000
,
0010
0000
0001
0000
0100
0010
1000
0000
,
0100
0000
0010
0000
0100
1000
0001
0000
,
0010
0001
1000
0000
0100
0000
0010
0000
,
0100
0010
0001
1000
,
0001
1000
0110
1001
,
0110
0000
1001
0000
0001
1000
0001
1000
,
0001
1000
0001
1000
0001
0000
0000
0100
,
0000
0010
0000
0110
0000
1000
0000
0001
,
0000
1001
0000
0010
0000
1000
0000
1100
,
0000
0010
0000
0001
0000
0101
0000
1010
,
0000
1001
0000
0200
0300
0000
0000
0000
;

//---------------dance-single - ----------------
#NOTES:
     dance-single:
     :
     Medium:
     13:
     0.688299,0.838770,0.501152,0.228596,0.101110,548.000000,491.000000,57.000000,26.000000,0.000000,0.000000,0.688299,0.838770,0.501152,0.228596,0.101110,548.000000,491.000000,57.000000,26.000000,0.000000,0.000000:
// measure 0
0000
0000
0000
0000
,  // measure 1
0000
0000
0000
0000
,  // measure 2
0000
0000
0000
0000
,  // measure 3
0000
0000
0000
0000
,  // measure 4
0110
0000
0001
0010
0001
1000
0010
0100
,  // measure 5
0001
0000
0100
0001
0100
0010
1000
0100
,  // measure 6
0010
0000
0001
1000
0001
0100
0010
1000
,  // measure 7
0100
0010
0001
0010
0001
0100
0010
0100
,  // measure 8
0010
1010
0100
0101
,  // measure 9
0010
1100
0001
0101
,  // measure 10
1000
0100
0010
0100
2000
0000
0010
0000
,  // measure 11
3001
0100
0010
0100
0002
0000
0010
0000
,  // measure 12
1003
0100
0010
0001
1000
0010
0100
0010
,  // measure 13
1000
0110
0001
0110
,  // measure 14
0001
0010
0100
0010
0002
0000
0100
0000
,  // measure 15
1003
0010
0100
0010
2000
0000
0100
0000
,  // measure 16
3001
0010
0100
1000
0001
0100
0010
0100
,  // measure 17
0001
0010
0100
0100
0100
0000
1001
0000
,  // measure 18
1000
0100
0001
0100
2000
0000
0010
0000
,  // measure 19
3001
0100
1000
0100
0002
0000
0010
0000
,  // measure 20
1003
0100
0001
0100
1000
0010
0001
0010
,  // measure 21
1000
0100
1000
0010
0110
0000
1001
0000
,  // measure 22
0001
0010
1000
0010
0002
0100
0100
0000
,  // measure 23
1003
0010
0001
0010
2000
0100
0100
0000
,  // measure 24
3001
0010
1000
0010
0001
0100
1000
0100
,  // measure 25
0001
1000
0010
0010
0110
0000
1010
0000
,  // measure 26
0101
0000
1000
0100
0001
0100
1000
0010
,  // measure 27
0100
0010
1000
0001
0010
0001
1000
0010
,  // measure 28
0100
0110
0001
0011
,  // measure 29
0100
0000
1100
0000
0001
0010
0100
1000
,  // measure 30
0001
0000
0000
0010
0000
0000
0001
0000
0100
0000
0010
0000
0100
0000
0001
0000
,  // measure 31
1000
0000
0000
0010
0000
0000
1000
0000
0100
0000
0010
0000
0100
0000
1000
0000
,  // measure 32
0010
0000
0000
1000
0000
0000
0010
0000
0100
0000
0001
0000
0010
0000
0100
0000
,  // measure 33
1000
0000
0000
0001
0000
0000
1000
0000
0100
0000
0000
0000
0010
0000
0001
0000
,  // measure 34
0100
0000
0000
0010
0000
0000
0100
0000
0001
0000
0010
0000
0100
0000
1000
0000
,  // measure 35
0000
1100
0000
0101
0000
1010
0000
0011
,  // measure 36
0000
1000
0100
0001
0000
1000
0010
0001
,  // measure 37
0000
0100
0000
0100
0000
0110
0000
0000
,  // measure 38
1000
0000
0000
1000
0000
0000
1000
0000
0100
0000
0001
0000
0100
0000
0010
0000
,  // measure 39
0001
0000
0000
0001
0000
0000
0001
0000
0100
0000
1000
0000
0100
0000
0010
0000
,  // measure 40
0100
0000
0000
0100
0000
0000
0100
0000
0010
0000
1000
0000
0100
0000
0010
0000
,  // measure 41
0000
0011
0000
1001
0000
1010
0000
0101
,  // measure 42
0000
0100
0001
0100
0001
0010
0100
2000
,  // measure 43
0000
3020
0000
0032
0000
0203
0000
0320
,  // measure 44
0000
0000
0000
0000
0030
1000
0001
2002
,  // measure 45
0000
0000
0000
3003
,  // measure 46
0110
0001
1000
0110
0001
1000
0110
0001
,  // measure 47
1000
0110
0001
1000
0110
0001
1000
0110
,  // measure 48
0001
0000
0000
0000
1000
0000
0000
0000
0110
0000
0000
0000
0001
0000
0000
0000
1000
0000
0000
0000
0220
0330
0000
0000
0001
0000
0010
0000
0100
0000
1000
0000
,  // measure 49
0001
0001
0100
0100
0010
0010
1000
1000
,  // measure 50
0010
0010
0100
0100
0001
0001
0010
0010
,  // measure 51
0100
0100
0010
0010
0001
0001
0100
0100
,  // measure 52
0010
0010
0010
0010
0010
0010
0100
0100
,  // measure 53
0100
0100
0100
0100
0001
0001
0001
0001
,  // measure 54
0001
0001
1000
1000
1000
1000
1000
1000
,  // measure 55
0000
0000
0000
0000
0000
0000
0000
0000
0010
0000
0000
0100
0000
0000
0001
0000
,  // measure 56
0020
0000
0000
0100
0000
0000
0130
0000
1000
0000
0000
0010
0000
0000
0100
0000
,  // measure 57
0002
0000
0000
0010
0000
0000
0013
0000
0200
0000
0000
2300
0000
0000
3020
0000
,  // measure 58
0230
0000
0000
0302
0000
0000
0023
0000
0130
0000
0000
0000
0110
0000
0000
0000
,  // measure 59
1001
0000
0110
0000
0001
0010
0001
0100
,  // measure 60
0010
0100
1000
0001
0010
0100
0001
1000
,  // measure 61
0010
1000
0100
0010
1000
0001
0100
0010
,  // measure 62
0001
1000
0001
0010
0100
0000
1100
0000
,  // measure 63
0101
0000
0000
0110
0000
0000
0001
1000
0001
1000
0000
0000
,  // measure 64
0010
0000
0100
0000
0010
0000
0100
0000
0000
0000
0000
0000
0001
0000
0000
0100
0000
0000
0010
0000
0000
0100
0000
0000
,  // measure 65
0001
1000
0100
0001
1000
0010
0001
0100
,  // measure 66
0010
1000
0001
0100
1000
0001
0010
1000
,  // measure 67
0010
0100
0001
0010
0001
0100
0010
1000
,  // measure 68
0100
1000
0001
0000
1000
0100
1000
0010
,  // measure 69
0100
0001
0010
0100
0001
0100
1000
0100
,  // measure 70
0010
1000
0010
0001
1000
0010
0100
1000
,  // measure 71
0100
0010
1000
0001
0010
0100
0010
0100
,  // measure 72
0010
0100
0010
0100
1000
0001
1000
0001
,  // measure 73
1000
0001
1000
0001
1001
0000
1010
0000
,  // measure 74
0101
0000
0011
0000
0110
0010
0010
0010
,  // measure 75
0010
0000
0010
0000
0010
0100
0010
0100
0010
0000
0001
0000
1000
0000
1100
0000
,  // measure 76
0000
0101
0000
0110
0000
0001
0010
0011
,  // measure 77
0000
1100
0000
1001
0010
0100
0010
0110
,  // measure 78
0000
0101
0000
1010
0000
1100
0100
0110
,  // measure 79
0000
1001
0000
0200
0300
0000
0000
0000
;

//---------------dance-single - ----------------
#NOTES:
     dance-single:
     :
     Hard:
     16:
     0.915638,1.013514,0.580281,0.272556,0.707767,729.000000,663.000000,66.000000,31.000000,0.000000,0.000000,0.915638,1.013514,0.580281,0.272556,0.707767,729.000000,663.000000,66.000000,31.000000,0.000000,0.000000:
0000
0000
0000
0000
,
0000
0000
0000
0000
,
0000
0000
0000
0000
,
0000
0000
0000
0000
,
1001
0000
0000
0000
1000
0100
0010
0001
0100
0000
0010
0000
0100
0000
0001
0000
,
0110
0000
0000
0000
0001
0100
0010
1000
0100
0000
0010
0000
0100
0000
1000
0000
,
0101
0000
0000
0000
0010
0100
0010
1000
0100
0000
0010
0000
0001
0000
1000
0000
,
0010
1000
0010
0100
0001
0100
0001
0010
,
0110
1100
0101
0011
,
1010
0000
1000
0100
0010
0000
0001
0100
0010
1000
0010
0100
0001
0010
0100
1000
,
0001
0100
0010
0100
0002
0000
0010
0000
,
1003
0100
0010
0100
2000
0000
0010
0000
,
3001
0100
0010
0100
0001
1000
0100
0010
,
0001
0000
1000
0010
1000
0000
0001
0010
0001
0000
1000
0010
0100
0000
0001
0010
,
0100
1000
0010
0001
0020
0000
1000
0000
,
0130
0001
0010
1000
0020
0000
0001
0000
,
0130
1000
0010
0100
0001
0010
1000
0010
,
0001
0100
0001
0100
0001
0000
1000
0000
1020
0000
0000
0000
0130
0000
0000
0000
,
0101
0001
0010
0100
2100
0000
3010
0000
,
1010
0100
0001
0010
0021
0000
0130
0000
,
0110
0010
0001
0100
1000
0100
0001
0010
,
0110
0000
1000
0100
1000
0000
0001
0100
0001
0000
0010
0001
0100
0000
0010
1000
,
0200
0310
0001
0100
0210
0301
0010
0100
,
1200
1300
0001
0010
0201
0310
1000
0001
,
1002
0013
0100
0010
2001
3010
0100
0010
,
0100
0010
0100
0010
0100
0000
0001
0000
0020
0000
0000
0000
0030
0000
0000
0000
,
1001
0000
0000
0000
1000
0010
0100
0001
0010
0000
0100
0000
0010
0000
0001
0000
,
0110
1000
0001
0010
0011
0100
1000
0001
,
0101
0000
1000
0000
0001
0010
0100
1000
0010
0000
1000
0000
0100
0000
0001
0000
,
0010
0000
0001
0100
0010
0000
1000
0100
0010
0001
0010
0100
1000
0010
0100
0001
,
0010
0000
0100
0010
0000
0100
0010
0000
0001
0000
0010
0000
0100
0000
1000
0000
,
0010
0000
0100
0010
0000
0100
0010
0000
1000
0000
0100
0000
0010
0000
0001
0000
,
1000
0000
0001
1000
0000
0001
1000
0000
0010
0000
0100
0000
0001
0000
0010
0000
,
0100
0000
1000
0001
0000
1000
0001
0000
0010
0000
0001
0000
0100
0000
0010
1000
,
0200
0000
0010
0000
0301
0100
1000
0010
,
0100
0101
0000
1010
0000
0011
0000
1100
,
0000
0101
1000
1100
0000
1010
0001
0011
,
0000
0000
0100
0000
0000
0000
0100
0000
0000
0000
0110
0000
0000
0000
1000
0001
,
0100
0000
0010
0100
0000
0010
0100
0000
1000
0000
0100
0000
0001
0000
0010
0000
,
0100
0000
0010
0100
0000
0010
0100
0000
0001
0000
0100
0000
1000
0000
0010
0000
,
0100
0000
0001
1000
0000
0001
1000
0000
0010
0000
0001
0000
0010
0000
1010
0000
,
0000
0101
0000
0011
0000
1100
0000
0101
,
0000
0001
0010
0100
1000
0010
0100
0020
,
0000
1000
0000
0001
0000
1000
0000
0031
,
0010
1000
0100
0011
0000
0001
0100
1010
,
0000
0000
1000
0000
0001
0000
0010
0001
1000
0000
0010
1000
0100
0010
0001
0100
,
0010
0000
1000
0100
1000
0000
0100
0000
0001
0100
0001
0000
0100
0000
1000
0100
,
1000
0000
0100
0000
0001
0100
0001
0000
0010
0000
1000
0100
0010
0000
0100
0000
,
0001
0000
1000
0000
0100
0000
0000
0000
0001
0000
0000
0000
0010
0000
0001
0000
0100
0000
0000
0000
0220
0330
0000
0000
1000
0000
0100
0000
0001
0000
0010
0000
,
1001
0000
0010
1000
0010
0000
0100
0001
0100
0000
0010
1000
0010
0000
0100
0001
,
0100
0000
0001
1000
0001
0000
0010
0001
0010
0000
0100
1000
0001
0000
0010
0001
,
1000
0000
0010
0100
0001
0000
0010
0100
1000
0000
0010
1000
0100
0010
0100
0010
,
0001
0000
0100
0000
1000
0000
0010
0000
1000
0100
0010
0001
0100
0000
0010
0000
,
0001
0000
0100
0000
0010
0100
0001
0010
0100
0000
1000
0100
0010
0000
0001
0100
,
0010
0000
0100
0010
1000
0000
0010
0100
0001
1000
0100
0010
0001
0100
0010
0100
,
0000
0000
0000
0000
0000
0000
0000
0000
0010
0000
0000
1001
0000
0000
0100
0010
,
0200
0000
0000
0010
0000
0000
0010
0000
0310
0000
0000
1001
0000
0000
0010
0100
,
0020
0000
0000
0100
0000
0000
0100
0000
0130
0000
0000
0001
0000
0000
1000
0000
,
0100
0000
0000
0010
0000
0000
0100
0000
1000
0000
0001
0000
1000
0000
0001
0000
,
0200
0000
0000
0000
0020
0000
0330
0000
0100
0000
0000
0101
0000
0000
0001
1000
,
0200
0000
0000
0010
0000
0000
0310
0001
0010
0000
0000
1001
0000
0000
1000
0010
,
0200
0000
0000
0010
0000
0000
0310
1000
0010
0000
0000
0100
0000
0000
0001
0000
,
0010
0000
0000
0000
0000
0000
0000
0000
0000
0100
0000
0000
0000
0000
0000
0000
0000
0000
1000
0000
0000
0000
0000
0000
0001
0000
0000
0000
1000
0000
0000
0000
0001
0000
0000
0000
1000
0000
0000
0000
0001
0000
0000
0000
1000
0000
0000
0000
,
0001
1000
0001
1000
0001
1000
0001
0010
0100
1000
0001
0100
,
0010
0000
1000
0000
0001
0000
0010
0000
0100
0000
1000
0000
1200
0000
0000
0310
0000
0000
0001
0000
0000
0100
0000
0000
,
0210
0301
0010
0100
1200
1300
0001
0010
,
0201
0310
1000
0001
1002
0103
0010
0100
,
2001
0000
3100
0000
0010
0000
0100
0000
1000
0000
0001
0100
0001
0000
1000
0100
,
1000
0000
0100
1000
0010
0000
0100
0001
0010
0000
0100
0010
0001
1000
0100
1000
,
0001
0000
0100
0001
1000
0010
0100
0010
1000
0000
0010
1000
0100
0010
0001
0010
,
0100
0000
0010
0001
0100
0010
1000
0010
0100
0000
0001
1000
0100
0010
0001
0100
,
0001
0000
1000
0100
0010
0001
0100
0010
1000
0000
0001
0000
1000
0000
0001
0000
,
1000
0001
1000
0001
0010
0100
0010
0100
,
0010
0000
0000
0100
0000
0000
0010
0000
0000
0100
0000
0000
1000
0000
0100
0000
0010
0000
0001
0000
1000
0000
0010
0000
,
0100
0000
0000
0000
0001
0000
0000
0000
1000
0000
0000
0000
0100
0000
0000
0000
0010
0000
0000
0000
0001
0000
0000
0000
1000
0000
0000
0010
0000
0000
1000
0000
0000
0010
0000
0000
0100
0000
0000
0001
0000
0000
0100
0000
0000
0001
0000
0000
,
0010
0001
0010
0001
1000
0100
0010
0001
1000
0000
0010
0000
0100
0000
0101
0000
,
0001
0011
0010
1100
0000
1001
0001
0101
,
0100
1010
0000
1100
0100
0110
0001
0101
,
0100
1001
0010
0110
0000
0101
0100
1010
,
0000
1001
0000
0200
0300
0000
0000
0000
;
