#TITLE:Emblem of the Moon;
#SUBTITLE:;
#ARTIST:dj TAKA;
#TITLETRANSLIT:;
#SUBTITLETRANSLIT:;
#ARTISTTRANSLIT:;
#GENRE:;
#CREDIT:;
#BANNER:Emblem of the Moon.png;
#BACKGROUND:Emblem of the Moon-bg.png;
#LYRICSPATH:;
#CDTITLE:;
#MUSIC:Emblem of the Moon.ogg;
#OFFSET:0.000000;
#SAMPLESTART:40.083096;
#SAMPLELENGTH:12.000000;
#SELECTABLE:YES;
#BPMS:0.000000=150.000000
,131.000000=300.000000
,131.500000=150.000000
,131.750000=75.000000
,132.000000=150.000000
,227.000000=300.000000
,227.500000=150.000000
,227.750000=75.000000
,228.000000=150.000000
;
#STOPS:
;
#BGCHANGES:;
#KEYSOUNDS:;
#ATTACKS:;

//---------------dance-single - ----------------
#NOTES:
     dance-single:
     :
     Challenge:
     17:
     0.820140,0.966593,0.242136,0.328056,0.949019,735.000000,704.000000,31.000000,42.000000,0.000000,0.000000,0.820140,0.966593,0.242136,0.328056,0.949019,735.000000,704.000000,31.000000,42.000000,0.000000,0.000000:
// measure 0
0000
0000
0000
0000
,  // measure 1
0000
0000
0000
0000
,  // measure 2
0000
0000
0000
0000
,  // measure 3
0000
0000
0000
0000
,  // measure 4
0000
0000
0000
0000
,  // measure 5
1000
0010
1000
0010
0100
0001
0100
0001
1000
0010
1000
0001
0100
0001
0010
0100
,  // measure 6
1000
0010
0100
0010
1000
0000
0001
0010
0100
0010
0001
0000
0100
0000
0010
0000
,  // measure 7
1000
0100
0010
0001
1000
0000
0001
0100
0001
1000
0010
1000
0001
0010
0100
1000
,  // measure 8
0200
1000
0001
1300
,  // measure 9
0001
0010
0100
1000
0010
0100
0010
0000
1000
0100
0010
0001
0100
0010
0100
0000
,  // measure 10
0002
0000
0000
0000
0103
0000
0000
0010
0010
0000
0000
0000
1000
0100
0010
0001
,  // measure 11
1000
0010
0100
0010
1000
0100
0010
0001
0100
0010
0100
0001
0010
0001
0100
0010
,  // measure 12
2000
0000
0000
0000
0100
0000
3001
0000
0000
0000
0000
0010
0010
0000
0000
0000
,  // measure 13
1000
0100
0010
0001
0100
0010
0100
0001
0010
0100
1000
0010
0100
0010
1000
0100
,  // measure 14
0010
0001
0100
0001
0010
0000
0100
1000
0010
1000
0100
0000
0010
0000
0001
0000
,  // measure 15
1000
0100
1000
0001
1000
0000
0001
0100
0001
1000
0001
0010
0100
0010
0100
1000
,  // measure 16
0020
1000
0001
1030
,  // measure 17
1001
0000
0001
0100
0001
0000
0010
0000
0100
0010
0100
0010
0001
1000
0001
1000
,  // measure 18
0100
0000
1000
0010
1000
0000
0100
0000
0010
0100
0010
0100
1000
0010
1000
0010
,  // measure 19
1000
0100
0010
0001
0100
0010
0100
0001
0010
0100
1000
0010
0100
0010
1000
0100
,  // measure 20
0010
0001
0010
0100
1000
0100
1000
0001
0100
0010
1000
0100
0010
0001
0100
0010
,  // measure 21
1000
0100
1100
0010
0001
1000
1010
0001
,  // measure 22
0010
0100
0110
0010
0001
1000
1001
0100
,  // measure 23
1000
0010
1000
0010
0100
0001
0100
0001
1000
0100
0010
0001
1000
0001
0100
0010
,  // measure 24
1000
0100
0010
0001
1000
0100
0010
0001
0100
0010
0100
0001
0010
0100
1000
0001
,  // measure 25
0010
0000
0001
0100
0010
0000
1010
0000
,  // measure 26
1001
0000
0000
0000
0100
0000
0000
0000
0010
0000
0001
0000
0100
0001
1000
0010
,  // measure 27
0100
0000
0010
1000
0100
0000
1001
0000
,  // measure 28
0101
0000
0000
0000
1010
0000
0000
0000
0001
0000
0010
0000
0100
0000
1000
0001
,  // measure 29
1000
0000
0100
1000
0010
0000
0110
0000
,  // measure 30
0100
0001
0100
0000
0010
0100
0010
0000
1000
0010
1000
0000
0100
0000
0010
0001
,  // measure 31
0100
0110
0010
1001
,  // measure 32
0101
0000
0000
0000
0100
0000
0010
0000
1000
0000
0100
0000
0220
0000
0000
0330
,  // measure 33
0010
0001
0010
0001
1000
0000
1000
0000
0010
1000
0010
1000
0001
0100
0001
0000
,  // measure 34
1000
0010
0100
0010
1000
0000
0001
0010
0100
0010
0001
0000
1000
0000
0100
0000
,  // measure 35
0010
0001
0100
0001
0010
0000
0100
1000
0010
1000
0100
0000
0010
0000
0100
0000
,  // measure 36
0010
0001
1000
0100
0010
0001
1000
0010
0100
0010
1000
0001
0010
0100
1000
0001
,  // measure 37
0010
0100
0010
0001
0100
0010
0000
0110
0000
0010
1000
0100
0010
0001
0010
0001
,  // measure 38
1000
0010
1000
0001
1000
0000
0001
0010
0001
1000
0001
0000
0100
0000
0100
0000
,  // measure 39
0001
0010
0100
1000
0010
0100
0010
1000
0100
0010
0001
0010
0001
0100
0010
1000
,  // measure 40
0010
0100
0001
0100
0001
0010
0100
1000
0001
0000
0000
0000
0000
0000
0000
0000
,  // measure 41
2002
0000
0000
3003
0000
0010
1000
0100
,  // measure 42
0020
0000
0000
0000
0000
0000
0032
0000
0000
0000
0000
0000
0203
0000
0000
0000
0000
0000
0310
0000
0000
1000
0100
0010
,  // measure 43
0002
0000
0000
0100
0000
0000
0013
0000
,  // measure 44
0001
0010
0001
0200
0000
0010
0310
0000
,  // measure 45
1000
0100
1000
0020
0000
0100
0130
0000
,  // measure 46
0001
0010
0001
2000
0000
0010
3010
0000
,  // measure 47
0100
0000
0000
0010
0000
0000
0100
0000
0000
0002
0000
0000
0000
0000
0000
0010
0000
0000
0013
0000
0000
0001
0010
0100
,  // measure 48
2000
0000
0000
0000
0000
0000
3000
0000
0100
0000
0010
0100
0010
0000
0010
0000
,  // measure 49
2001
3001
0010
0020
0100
0230
1000
2300
,  // measure 50
0010
0000
3020
0000
0230
0000
0001
0000
0301
0000
0002
0000
0010
0000
0013
0100
,  // measure 51
0020
0001
0031
0002
0100
0203
0010
0320
,  // measure 52
1000
0000
2030
0000
3002
0000
0000
0000
0013
0000
0000
0000
0001
0010
0100
1000
,  // measure 53
0001
0100
0001
0010
0001
0100
0001
0010
0100
1000
0010
1000
0100
1000
0010
1000
,  // measure 54
0001
0010
0100
0010
0001
0010
0100
1000
0010
0100
0010
1000
0010
0100
0001
0010
,  // measure 55
0100
0110
1000
1001
,  // measure 56
0010
0000
0000
0000
0000
0000
0000
0000
0000
0010
0000
0000
0000
0000
0000
0000
0000
0000
0010
0000
0000
0000
0000
0000
0110
0000
0000
0000
0000
0000
0001
0000
0010
0000
0100
0000
2000
0000
0000
0000
0000
0000
0000
0000
0000
3000
0000
0000
,  // measure 57
0001
0100
0001
0000
0101
0000
0010
0000
1000
0100
1000
0000
1100
0000
0001
0000
,  // measure 58
0010
0100
0010
0000
0110
0000
0100
0000
1000
0010
1000
0000
1010
0000
0001
0000
,  // measure 59
0010
0001
1000
0000
1100
0000
0010
0000
0001
1000
0100
0000
1010
0000
0010
0000
,  // measure 60
0100
0010
1000
0000
1001
0000
0100
0000
0010
0001
0100
0000
0101
0000
0010
0000
,  // measure 61
1000
0100
0010
0001
0100
0010
1000
0100
0010
0001
0100
0010
0100
0001
0010
0100
,  // measure 62
1000
0010
1000
0010
0100
0001
0100
0001
0010
0100
0010
0100
1000
0010
0100
0001
,  // measure 63
0010
0001
0100
0001
0010
0100
1000
0010
1000
0100
0010
0100
1000
0001
0100
0010
,  // measure 64
1000
0000
0001
0100
0010
0000
0110
0000
1000
0100
0010
0001
0100
0000
0000
0000
,  // measure 65
0200
0000
0010
0320
0000
2030
0000
3200
,  // measure 66
0000
0010
0320
0000
0031
0010
1000
0010
,  // measure 67
0002
0000
0100
0203
0000
0320
0000
2030
,  // measure 68
0000
0000
0001
0000
3002
0000
0000
0000
1003
0010
0100
0010
1000
0001
1000
0100
,  // measure 69
0010
0001
0100
0001
0010
0100
1000
0001
1000
0010
1000
0100
1000
0010
0100
0010
,  // measure 70
1000
0100
0010
0001
0100
0010
0100
0001
0010
0100
1000
0010
1000
0100
0010
0001
,  // measure 71
1000
0100
0010
0100
1000
0001
1000
0001
0100
0001
0010
0100
1000
0010
1000
0010
,  // measure 72
0100
0000
0010
1000
0001
0000
0011
0000
0010
0100
1000
0020
0000
0000
0000
0000
,  // measure 73
0000
0000
0000
0000
,  // measure 74
0000
0000
0000
0000
,  // measure 75
0030
0000
0000
0000
;

//---------------dance-single - ----------------
#NOTES:
     dance-single:
     :
     Hard:
     15:
     0.678428,0.849430,0.304623,0.281191,0.495989,608.000000,569.000000,39.000000,36.000000,0.000000,0.000000,0.678428,0.849430,0.304623,0.281191,0.495989,608.000000,569.000000,39.000000,36.000000,0.000000,0.000000:
0000
0000
0000
0000
,
0000
0000
0000
0000
,
0000
0000
0000
0000
,
0000
0000
0000
0000
,
0000
0000
0000
0000
,
1000
0100
1000
0000
0010
0000
0100
0000
0001
0010
0001
0000
0100
0000
0001
0000
,
0010
0100
0010
0100
0010
0000
0100
0010
0100
0010
0100
0000
0010
0000
0001
0000
,
1000
0010
1000
0000
0100
0000
0010
0001
0010
0000
0100
0000
0010
0000
0001
0000
,
0200
0000
0001
0000
0010
0010
0310
0000
,
0001
0010
0001
0010
0001
0010
0001
0000
1000
0100
1000
0100
1000
0100
1000
0000
,
0010
0000
0000
0000
0100
0000
0000
0010
0100
0000
0000
0000
0010
0000
1000
0000
,
0100
0010
0100
0000
0010
0000
0001
1000
0001
0000
0100
0000
0010
0000
1000
0000
,
1000
0000
0000
0000
0010
0000
0110
0000
0000
0000
0000
0100
0010
0000
0000
0000
,
0010
1000
0010
0000
1000
0000
0100
0000
0010
0001
0010
0000
0100
0000
1000
0000
,
0001
0010
0001
0010
0001
0000
1000
0010
1000
0010
1000
0000
0100
0000
0010
0000
,
0001
1000
0001
1000
0001
0000
0100
0001
0100
0001
0100
0000
0001
0000
0010
0000
,
0200
0000
1000
0000
0010
0010
0310
0010
,
0110
0000
0100
0010
0100
0000
0100
0000
1000
0010
0000
0010
1000
0000
0110
0000
,
0001
0000
0100
0010
0100
0000
0100
0000
0001
1000
0000
1000
0001
0000
1001
0000
,
0010
0001
0100
0010
1000
0100
0001
0100
,
1000
1000
0010
0100
0001
0001
1000
0010
,
1010
0000
0010
0100
0010
0000
0010
0000
0100
0001
0000
0001
0100
0000
0001
0000
,
0011
0000
1000
0001
1000
0000
1000
0000
0001
0010
0000
0110
0000
0000
0010
0001
,
1000
0100
1000
1000
0001
0010
0100
0100
,
1000
0100
0000
1000
0010
0000
0100
0000
0001
1000
0001
0000
0010
0001
1000
0000
,
0001
0000
1001
0010
0100
0000
0110
0000
,
0001
0000
0000
0000
1000
0000
0000
0000
0101
0000
0100
0000
0010
1000
0010
1000
,
0020
0000
0130
0001
0010
0000
0110
0000
,
0002
0000
0000
0000
0023
0000
0000
0000
0130
0000
0110
0000
0000
0000
0010
0001
,
1000
0000
0010
1000
0100
0000
0110
0000
,
0010
0001
0010
0000
0001
0010
0001
0000
1000
0010
1000
0000
0100
0000
0010
0001
,
0200
0301
0120
1030
,
0100
0000
0000
0000
0010
0000
1001
0000
0000
0000
1001
0000
0220
0000
0000
0330
,
0001
0100
0001
0100
0001
0000
1000
0000
0001
0010
0001
0010
0001
0010
0001
0000
,
0100
0010
0100
0010
0100
0000
0010
0100
0010
0100
0010
0000
0100
0000
0010
0000
,
1000
0010
1000
0010
1000
0000
0001
0010
0001
0010
0001
0000
0010
0000
0100
0000
,
1000
0010
0100
0000
0001
0000
0010
0000
0001
1000
0100
0000
0010
0000
0001
0000
,
1000
0010
1000
0010
1000
0010
0000
0010
0000
0100
0001
0000
0010
0000
0010
0000
,
0100
1000
0100
1000
0100
0000
0010
0001
0010
0001
0010
0000
0100
0000
1000
0000
,
0010
1000
0010
0000
0100
0010
0100
0000
0001
0010
0001
0000
1000
0001
1000
0000
,
0001
0100
0010
0100
1001
0000
0000
0000
,
1020
0000
0000
0000
0000
0130
0001
0010
,
0210
0000
1000
0000
0310
0000
0001
0100
,
0200
0000
0000
1000
0000
0000
0301
0000
,
0010
0001
0100
0002
0000
1000
1003
0000
,
0010
1000
0100
2000
0000
0001
3001
0000
,
0010
0001
1000
0020
0000
0100
0130
0000
,
0010
1000
0100
0020
0000
0100
0130
0010
,
0110
0000
0000
0000
0000
0000
0000
0000
0010
0000
0001
1000
0001
0000
0001
0000
,
0100
0000
0010
0000
1000
0000
0000
1002
0000
0000
0013
0000
0001
0000
0100
0000
,
0010
0000
0100
0000
0001
0000
0000
2001
0000
0000
3010
0000
1000
0000
0100
0000
,
0001
0000
0100
0000
1000
0000
0000
0201
0000
0000
0301
0000
0010
0000
1000
0000
,
0010
0000
0100
0000
1000
0000
0000
1020
0000
0000
0130
0000
0100
0000
0000
0000
,
0001
0010
0001
0000
1000
0000
0100
0000
0010
0001
0010
0000
0100
0000
0010
0000
,
0100
1000
0000
0100
1000
0000
0010
0000
0100
0001
0100
0000
0001
0000
0000
0000
,
0210
0301
0210
1300
,
0011
0000
0000
1001
0000
0000
1010
0000
0110
0000
0000
0000
2002
0000
0000
3003
,
0010
1000
0010
0000
1010
0000
0100
0000
0001
0010
0001
0000
0011
0000
0100
0000
,
0010
0001
0010
0000
0110
0000
0001
0000
0100
0000
0100
0000
0010
0000
0010
0000
,
0100
0001
0100
0000
0101
0000
0010
0000
1000
0100
1000
0000
1100
0000
0001
0000
,
0010
0100
0010
0000
0200
0000
0000
0000
0310
0000
0010
0000
0010
0000
0010
0000
,
0001
0100
0001
0100
0001
0000
0001
0000
1000
0100
1000
0100
1000
0000
1000
0000
,
0010
0100
0010
0000
1000
0010
1000
0000
0001
0010
0001
0000
0010
0100
0010
0000
,
0100
1000
0010
0001
0010
1000
0100
0100
,
0010
0000
0001
1000
0001
0000
0100
0000
0010
0000
0010
0000
0010
0000
0010
0000
,
0210
0000
0001
0302
0000
0023
0000
2030
,
0000
3100
0200
0000
0310
0001
0010
1000
,
0210
0000
1300
2000
0000
3020
0000
0032
,
0000
0103
0200
0000
0000
0000
0300
0000
,
0001
1000
0001
1000
0001
1000
0001
0000
0100
0010
0100
0010
0100
0010
0100
0000
,
0010
1000
0010
0000
0100
0010
0100
0000
0001
0010
0001
0000
1000
0001
1000
0000
,
0001
0100
0001
0100
0001
0100
0001
0100
0010
1000
0010
1000
0010
1000
0010
1000
,
0001
0000
0010
0001
0100
0000
0001
0000
1000
0100
0001
0200
0000
0000
0000
0000
,
0000
0000
0000
0000
,
0000
0000
0000
0000
,
0300
0000
0000
0000
;
