#TITLE:ENDYMION;
#SUBTITLE:;
#ARTIST:fallen shepherd ft. RabbiTon Strings;
#TITLETRANSLIT:;
#SUBTITLETRANSLIT:;
#ARTISTTRANSLIT:;
#GENRE:;
#CREDIT:;
#BANNER:ENDYMION.png;
#BACKGROUND:ENDYMION-bg.png;
#LYRICSPATH:;
#CDTITLE:;
#MUSIC:ENDYMION.ogg;
#OFFSET:0.110000;
#SAMPLESTART:90.141090;
#SAMPLELENGTH:15.000000;
#SELECTABLE:YES;
#BPMS:0.000000=220.000000
,72.000000=440.000000
,180.000000=220.000000
,216.000000=880.000000
,232.000000=220.000000
,312.000000=440.000000
,336.000000=220.000000
,340.000000=440.000000
,398.000000=220.000000
,399.000000=110.000000
,400.000000=440.000000
,464.000000=220.000000
,505.000000=440.000000
,627.000000=220.000000
,633.500000=440.000000
;
#STOPS:
;
#BGCHANGES:;
#KEYSOUNDS:;
#ATTACKS:;

//---------------dance-double - ----------------
#NOTES:
     dance-double:
     :
     Challenge:
     20:
     1.134231,1.921206,0.881273,0.195838,0.416157,973.000000,865.000000,108.000000,24.000000,560.000000,0.000000,1.134231,1.921206,0.881273,0.195838,0.416157,973.000000,865.000000,108.000000,24.000000,560.000000,0.000000:
// measure 0
00000000
00000000
00000000
00000000
,  // measure 1
00000000
00000000
00000000
00000000
,  // measure 2
00000000
00000000
00000000
00000000
,  // measure 3
00000000
00000000
00000000
00000000
00000000
00000000
00010000
00100000
01000000
10000000
00000000
00000000
,  // measure 4
01010000
00000000
00000000
00001000
00000100
00000010
00000001
00000000
00000000
00001010
00000000
00000000
,  // measure 5
MMMMMMMM
00000000
00000000
00000000
00000000
00000000
00000000
00000000
00000000
00000000
00000000
00000000
00000100
00000000
00000000
00000000
00001000
00000000
00000000
00000000
00010000
00000000
00000000
00000000
01000000
00000000
00000000
00000000
00000000
00000000
00000000
00000000
00000000
10010000
00000000
00000000
00000000
00000000
00000000
00000000
00000000
00000000
01100000
00000000
00000000
00000000
00000000
00000000
,  // measure 6
00000000
00011000
00000000
MMMMMMMM
00000000
00000220
00000000
00000000
,  // measure 7
00000000
00000000
00000330
MMMMMMMM
,  // measure 8
00011000
00010000
00100000
10000000
01000000
00100000
00110000
00000000
,  // measure 9
00001100
00000000
00000011
00000010
00000001
00000100
00001000
00010000
,  // measure 10
00110000
00000000
MMMMMMMM
00000000
01010000
00010000
00100000
10000000
,  // measure 11
00100000
00010000
00011000
00000000
00000110
00000000
00010100
00010000
,  // measure 12
00100000
00000000
01000000
00000000
00010000
00000000
00001000
00000000
00000100
00000010
00000001
00000010
00001000
00000000
MMMMMMMM
00000000
,  // measure 13
00001010
00000010
00001000
00011000
01000000
00100000
10100000
00000000
,  // measure 14
01100000
01000000
01001000
00001000
00000100
00000110
00000001
00001000
,  // measure 15
00000100
00001000
00010000
00001000
00000100
00000000
MMMMMMMM
00000000
00011000
00000000
00010000
00000000
00100000
00000000
01000000
00000000
,  // measure 16
10000000
00000000
01000000
00000000
00010000
00000000
00001000
00000000
00000010
00000000
00000100
00000000
00000101
00000000
00000000
00001010
,  // measure 17
00000000
00000000
MMMMMMMM
00000000
00000000
00110000
00000000
00000000
10000000
01000000
00100000
00010000
00001000
00000100
00000010
00000001
,  // measure 18
00001000
00000000
00000100
00000000
00000010
00000001
00000100
00000001
,  // measure 19
00001000
00000000
00000100
00000000
00000010
00001000
00010000
00000000
,  // measure 20
00001000
00010000
00100000
00000000
MMMMMMMM
00000000
10010000
00000000
,  // measure 21
10000000
01000000
00010000
01000000
10000000
00000000
00010000
00000000
,  // measure 22
01000000
00010000
00001000
00000010
00001000
00000100
00000001
00000100
,  // measure 23
00000010
00000000
00000100
00000000
00001000
00000010
00000100
00000001
,  // measure 24
00000010
00000000
00001000
00000000
00010000
00001000
00000100
00000000
,  // measure 25
00001000
00010000
01000000
00000000
MMMMMMMM
00000000
01100000
00000000
,  // measure 26
00010000
00001000
00000100
00001000
00010000
00000000
00000100
00000000
,  // measure 27
00000010
00001000
00000010
00000001
00000100
00000010
00000100
00000010
,  // measure 28
00001000
00010000
00100000
10000000
,  // measure 29
00100000
00001000
00100000
00001000
01000000
00010000
01000000
00010000
,  // measure 30
10000000
00010000
10000000
00010000
00001000
00000000
00000100
00000000
,  // measure 31
00000001
00000000
00000100
00000000
00000001
00000100
00000001
00000100
,  // measure 32
00000010
00000100
00000010
00000100
00010000
00000100
00010000
00000100
,  // measure 33
00010000
00100000
01000000
10000000
00000000
00000000
MMMMMMMM
00000000
,  // measure 34
00010000
00001000
00000100
00000010
00000000
00000000
MMMMMMMM
00000000
,  // measure 35
00001000
00010000
00100000
01000000
00000000
00000000
MMMMMMMM
00000000
,  // measure 36
00100000
00010000
00001000
00000100
00000000
00000000
MMMMMMMM
00000000
,  // measure 37
00000001
00000010
00000100
00001000
00000000
00000000
MMMMMMMM
00000000
,  // measure 38
00000100
00001000
00010000
01000000
00000000
00000000
MMMMMMMM
00000000
,  // measure 39
01000000
00010000
00001000
00000100
00000000
00000000
MMMMMMMM
00000000
,  // measure 40
00000010
00001000
00010000
00100000
00000000
00000000
MMMMMMMM
00000000
,  // measure 41
10000000
00010000
10000000
00010000
00100000
00010000
00100000
00010000
,  // measure 42
00001000
00010000
00001000
00010000
00000010
00010000
00000010
00001000
,  // measure 43
00000001
00001000
00000001
00001000
00000010
00000100
00001000
00000001
,  // measure 44
00001000
00000010
00001000
00000100
00000010
00000001
00000010
00001000
,  // measure 45
00200000
00000000
0000MMMM
00000000
00000000
00300000
00000000
00000000
,  // measure 46
MMMMMMMM
MMMMMMMM
MMMMMMMM
MMMMMMMM
,  // measure 47
10010000
00000000
01100000
00100000
00110000
00010000
00010010
00000010
,  // measure 48
00000011
00000000
00000001
00000000
00001001
00000000
00001000
00000000
00000010
00001000
00000010
00001000
00000010
00000000
00000000
00000000
,  // measure 49
00001001
00000000
00001010
00000010
00000110
00000100
00010100
00010000
,  // measure 50
01010000
00000000
01000000
00000000
01100000
00000000
00100000
00000000
00100000
01000000
00100000
01000000
00010000
01000000
00010000
01000000
,  // measure 51
00010000
00000000
00011000
MMMM1000
00001010
00000010
00000110
00000100
,  // measure 52
00010100
00000000
0001MMMM
00000000
00110000
00000000
00100000
00000000
00100000
01000000
00100000
10000000
00100000
00010000
00100000
00010000
,  // measure 53
00001000
MMMMMMMM
00000110
MMMMMMMM
,  // measure 54
02200000
00000000
00000000
00000000
,  // measure 55
00000000
00000000
00000000
03300000
,  // measure 56
MMMMMMMM
MMMMMMMM
MMMMMMMM
MMMMMMMM
,  // measure 57
MMMMMMMM
MMMMMMMM
MMMMMMMM
MMMMMMMM
,  // measure 58
00000000
00000000
00000000
00000000
00011000
00000000
MMMMMMMM
00000000
00001001
00000000
00000000
00000001
00000010
00000000
00000010
00000000
,  // measure 59
00001000
00000000
00000100
00000000
00010000
00000000
00100000
00000000
10000000
00100000
01000000
00100000
10000000
01000000
00010000
00001000
,  // measure 60
00000010
00000000
00000000
00000000
00011000
00000000
MMMMMMMM
00000000
10010000
00000000
00000000
10000000
01000000
00000000
01000000
00000000
,  // measure 61
00010000
00100000
00010000
00100000
00001000
00010000
00001000
00010000
00000100
00000010
00000001
00000010
00001000
00010000
00001000
00000100
,  // measure 62
00000010
00000000
00000000
00000000
MMMMMMMM
00000000
00000000
00000000
01000000
00000000
00000000
01000000
10000000
00000000
10000000
00000000
,  // measure 63
00100000
00000000
00000000
00100000
00010000
00000000
00010000
00000000
00001000
01000000
00001000
00100000
00001000
01000000
00001000
00010000
,  // measure 64
00001000
00000100
00000001
00000100
00010000
01000000
10000000
01000000
,  // measure 65
00010000
00000000
MMMMMMMM
00000000
00001000
00001000
00001000
00001000
,  // measure 66
00010000
00000000
MMMMMMMM
00000000
00002001
00000000
00003100
00000001
,  // measure 67
00000010
00000000
00001000
00000000
00000100
00000000
00000010
00000000
00001000
00000000
0010MMMM
00010000
00100000
00000000
01000000
00000000
,  // measure 68
MMMMMMMM
10020000
00000000
01030000
10000000
00100000
00010000
01000000
,  // measure 69
MMMM1000
00000000
00000100
00001000
00000100
00000000
00000010
00000000
00000001
00000010
00001000
00000000
00000100
00000000
00000010
00000000
,  // measure 70
00000011
00000000
MMMMMMMM
00000000
00002100
00000000
00003010
00001000
,  // measure 71
00010000
00000000
00000010
00000000
00001000
00000000
00010000
00000000
MMMM0010
00000000
00001000
00010000
00001000
00000000
00000100
00000000
,  // measure 72
00000001
00000000
00000010
00001000
00000010
00000000
00000100
00000000
00010000
00000000
00001000
00000000
01000000
00000000
00010000
00000000
,  // measure 73
01000000
00010000
00001000
00000010
00000001
00000100
00002000
00000000
,  // measure 74
00013000
00000000
MMMMMMMM
00000000
10020000
00000000
00130000
00010000
,  // measure 75
00001000
00000000
00000010
00000000
0001MMMM
00000000
00100000
00000000
00001000
00000000
00010000
00001000
00010000
00000000
00000100
00000000
,  // measure 76
MMMMMMMM
00002001
00000000
00003100
00001000
00010000
00100000
MMMM1000
,  // measure 77
00000010
00000000
00000001
00000010
00001000
00000000
00000001
00000000
00000100
00001000
00000100
00000000
00001000
00000000
00000000
00000000
,  // measure 78
00010000
00001000
00010000
00001000
01000000
00001000
01000000
00001000
,  // measure 79
00100000
00010000
10000000
00100000
01000000
00010000
00001000
00000010
,  // measure 80
00000100
00000001
00000100
00000001
00000010
00000001
00000010
00000001
,  // measure 81
00001000
00000100
00000010
00000100
00001000
00010000
00100000
10000000
,  // measure 82
00200000
00300000
MMMMMMMM
00000000
,  // measure 83
00000200
00000000
00000300
00000000
,  // measure 84
00000001
00000010
00000100
00001000
00010000
00100000
01000000
10000000
,  // measure 85
01000000
00100000
00010000
00001000
00010000
00100000
01000000
10000000
,  // measure 86
01000000
00100000
00010000
00001000
00000100
00000010
00000100
00000010
,  // measure 87
00000100
00001000
00000001
00001000
00000010
00001000
00000100
00001000
,  // measure 88
00020000
0000MMMM
0000MMMM
0000MMMM
0000MMMM
0000MMMM
0000MMMM
0000MMMM
,  // measure 89
1003MMMM
00010000
10000000
00100000
10000000
00100000
01000000
00010000
,  // measure 90
10000000
01000000
00010000
00001000
00010000
00001000
01000000
00010000
,  // measure 91
00002000
MMMM0000
00000000
MMMM0000
00000000
MMMM0000
00000000
MMMM0000
,  // measure 92
00000000
MMMM0000
00000000
MMMM0000
00000000
MMMM0000
00000000
MMMM0000
,  // measure 93
00003001
00001000
00000010
00001000
00000010
00000100
00001000
00000100
,  // measure 94
00001000
00010000
00001000
01000000
00010000
10000000
00100000
00010000
,  // measure 95
00002000
00000000
00000000
00000000
,  // measure 96
00013000
00100000
01000000
10000000
01000000
00100000
00010000
00001000
,  // measure 97
00000100
00000001
00000100
00001000
00000100
00001000
00000100
00000010
,  // measure 98
00000100
00000001
00000100
00001000
00010000
00100000
0100MMMM
00010000
,  // measure 99
00100000
00000000
00000000
00000000
10000000
00000000
00000000
00000000
00100000
00000000
00000000
00000000
00010000
00000000
00001000
00000000
00000100
00000000
00000001
00000100
00001000
00010000
00100000
01000000
,  // measure 100
10000000
00000000
00000000
01100000
00000000
00000000
01010000
00000000
,  // measure 101
00110000
00000000
00000000
00001100
00000000
00000000
00000110
00000000
,  // measure 102
00000011
00000000
00000000
00000101
00000000
00000000
00001100
00000000
,  // measure 103
00010000
00001000
00000100
00001000
00010000
00001000
00000100
00001000
,  // measure 104
00010000
00000000
00000000
01100000
00000000
00000000
10100000
00000000
,  // measure 105
11000000
00000000
00000000
00101000
00000000
00000000
00011000
00000000
,  // measure 106
00001000
00000010
00000001
00000010
00001000
00000010
00000001
00000010
,  // measure 107
00001000
00011000
00011000
00011000
,  // measure 108
00011000
00000000
00000000
01100000
00000000
00000000
10010000
00000000
,  // measure 109
00011000
00000000
00000000
00000110
00000000
00000000
00001001
00000000
,  // measure 110
00011000
00000000
00000000
01100000
00000000
00000000
10010000
00000000
,  // measure 111
01100000
00000000
00000000
00011000
00000000
00000000
00000110
00000000
,  // measure 112
00000001
00000000
00000000
00001000
00000000
00000000
00100000
00000000
,  // measure 113
10000000
00000000
00000000
00001000
00000000
00000000
00000100
00000000
,  // measure 114
00000001
00000010
00000001
00000010
00000001
00001000
00000100
00001000
,  // measure 115
00000100
00001000
00010000
01000000
00100000
01000000
00100000
01000000
,  // measure 116
00000000
MMMMMMMM
MMMMMMMM
MMMMMMMM
,  // measure 117
00000000
00000000
00002000
00000000
00000000
00000100
00000000
00000000
,  // measure 118
00000001
00000000
00000010
00000000
00023000
00000000
00000000
01000000
,  // measure 119
00000000
10000000
00100000
00032000
,  // measure 120
00000000
00000000
00000000
00000000
,  // measure 121
00013000
00000000
00000000
10010000
00000000
00000000
01000000
00000000
,  // measure 122
01000000
00000000
00100000
00010000
00000000
00010000
00001000
00000000
,  // measure 123
00001000
00000010
00000000
00000010
00000001
00000000
00000001
00000100
,  // measure 124
00000010
00000000
00001000
00000000
00000000
MMMMMMMM
00000000
00000000
00010000
01000000
00010000
01000000
00010000
10000000
01000000
10000000
,  // measure 125
01000000
10000000
00100000
01000000
00010000
10000000
00010000
10000000
00001000
00010000
00001000
00010000
00000001
00001000
00000001
00001000
,  // measure 126
00000010
00010000
00001000
00010000
00002000
00000000
00000000
00000000
00000000
00000000
00000000
00000000
00000000
00000000
00000000
00000000
,  // measure 127
00103000
00000000
00000000
01000000
00000000
00000000
00100000
00000000
00000000
00000000
00000000
00000000
00000000
00000000
10010000
00000000
00000000
00000000
00000000
00000000
00000000
00000000
01100000
00000000
,  // measure 128
00000000
00000000
00000000
MMMMMMMM
00000000
00000000
00000000
00010100
00000000
00000000
00000000
00000110
,  // measure 129
00000000
00001001
00000000
MMMMMMMM
,  // measure 130
00000000
00000000
00000000
00000100
00000000
00000010
00000000
00010000
00000000
00001000
00000000
00000100
,  // measure 131
00000000
00010000
00000000
00001000
00000000
00000010
00000000
00010000
00000000
0010MMMM
00000000
10000000
,  // measure 132
00000000
01000000
00000000
00010000
00000000
01000000
00000000
00100000
00000000
00010000
00000000
01000000
,  // measure 133
00000000
00001000
00000000
MMMM0100
00000000
00000010
00000000
00000001
00000000
00000010
00000000
00001000
,  // measure 134
00000000
00000000
00000100
00000000
00000000
00000000
00000010
00000000
00000000
00000001
00000000
00000000
00001000
00000000
00000000
00000100
00000000
00000000
00000010
00000000
00000000
00001000
00000000
00000000
,  // measure 135
00000010
00001000
00100000
00001000
00100000
00001000
00000010
00001000
,  // measure 136
00000010
00001000
00010000
01000000
10000000
00100000
01000000
00010000
,  // measure 137
01000000
00010000
00000100
00010000
00000100
00010000
01000000
00010000
,  // measure 138
01000000
00010000
10000000
00010000
01000000
00100000
00010000
00100000
,  // measure 139
01000000
00001000
00010000
00001000
00010000
00000100
MMMM0010
00001000
,  // measure 140
00000010
00000001
00001000
00000100
00000010
00000100
00000010
00001000
,  // measure 141
00010000
0010MMMM
10000000
00100000
01000000
00100000
01000000
00010000
,  // measure 142
01000000
00001000
00010000
00000000
00000100
00000000
00000110
00000000
,  // measure 143
00000000
00001001
00001000
0001MMMM
,  // measure 144
01010000
00000000
10000000
00010000
,  // measure 145
00001000
00101000
MMMM0100
00000010
,  // measure 146
00000010
00000110
00000000
00001001
,  // measure 147
00000000
00000000
10010000
00000000
00000000
MMMMMMMM
00000000
00000000
,  // measure 148
00101000
00011000
00000000
00010000
,  // measure 149
MMMM0010
00000001
00000101
00000000
,  // measure 150
00001010
00001100
00000000
00011000
,  // measure 151
0001MMMM
10000000
10100000
00000000
,  // measure 152
00101000
MMMM1000
00011000
00000000
,  // measure 153
00100000
00020000
01000000
10000000
,  // measure 154
00100000
00032000
00000100
00000001
,  // measure 155
00000010
00013000
00000000
MMMMMMMM
,  // measure 156
MMMMMMMM
MMMMMMMM
00000000
00011000
,  // measure 157
00000100
00000000
00000000
00000000
00000000
00000010
00000000
00000000
00000000
00000000
MMMMMMMM
00000000
00000000
00000000
00000000
00001000
00000000
00000000
00000000
00000000
00010000
00000000
00000000
00000000
00000000
00000000
00000000
00000000
00000000
00000000
00100000
00000000
,  // measure 158
00000000
MMMMMMMM
00000000
20020000
00000000
00000000
00000000
00000000
,  // measure 159
00000000
00000000
00000000
00000000
,  // measure 160
00000000
00000000
00000000
00000000
,  // measure 161
00000000
00000000
00000000
00000000
,  // measure 162
00000000
00000000
00000000
30030000
00000000
00000000
00000000
00000000
;

//---------------dance-double - ----------------
#NOTES:
     dance-double:
     :
     Edit:
     1:
     1.134231,1.921206,0.881273,0.195838,0.416157,973.000000,865.000000,108.000000,24.000000,87.000000,0.000000,1.134231,1.921206,0.881273,0.195838,0.416157,973.000000,865.000000,108.000000,24.000000,87.000000,0.000000:
00000000
00000000
00000000
00000000
,
00000000
00000000
00000000
00000000
,
00000000
00000000
00000000
00000000
,
00000000
00000000
00000000
00000000
00000000
00000000
00010000
00100000
01000000
10000000
00000000
00000000
,
01010000
00000000
00000000
00001000
00000100
00000010
00000001
00000000
00000000
00001010
00000000
00000000
,
MFFFFFFF
00000000
00000000
00000000
00000000
00000000
00000000
00000000
00000000
00000000
00000000
00000000
00000100
00000000
00000000
00000000
00001000
00000000
00000000
00000000
00010000
00000000
00000000
00000000
01000000
00000000
00000000
00000000
00000000
00000000
00000000
00000000
00000000
10010000
00000000
00000000
00000000
00000000
00000000
00000000
00000000
00000000
01100000
00000000
00000000
00000000
00000000
00000000
,
00000000
00011000
00000000
MFFFFFFF
00000000
00000220
00000000
00000000
,
00000000
00000000
00000330
MFFFFFFF
,
00011000
00010000
00100000
10000000
01000000
00100000
00110000
00000000
,
00001100
00000000
00000011
00000010
00000001
00000100
00001000
00010000
,
00110000
00000000
MFFFFFFF
00000000
01010000
00010000
00100000
10000000
,
00100000
00010000
00011000
00000000
00000110
00000000
00010100
00010000
,
00100000
00000000
01000000
00000000
00010000
00000000
00001000
00000000
00000100
00000010
00000001
00000010
00001000
00000000
MFFFFFFF
00000000
,
00001010
00000010
00001000
00011000
01000000
00100000
10100000
00000000
,
01100000
01000000
01001000
00001000
00000100
00000110
00000001
00001000
,
00000100
00001000
00010000
00001000
00000100
00000000
MFFFFFFF
00000000
00011000
00000000
00010000
00000000
00100000
00000000
01000000
00000000
,
10000000
00000000
01000000
00000000
00010000
00000000
00001000
00000000
00000010
00000000
00000100
00000000
00000101
00000000
00000000
00001010
,
00000000
00000000
MFFFFFFF
00000000
00000000
00110000
00000000
00000000
10000000
01000000
00100000
00010000
00001000
00000100
00000010
00000001
,
00001000
00000000
00000100
00000000
00000010
00000001
00000100
00000001
,
00001000
00000000
00000100
00000000
00000010
00001000
00010000
00000000
,
00001000
00010000
00100000
00000000
MFFFFFFF
00000000
10010000
00000000
,
10000000
01000000
00010000
01000000
10000000
00000000
00010000
00000000
,
01000000
00010000
00001000
00000010
00001000
00000100
00000001
00000100
,
00000010
00000000
00000100
00000000
00001000
00000010
00000100
00000001
,
00000010
00000000
00001000
00000000
00010000
00001000
00000100
00000000
,
00001000
00010000
01000000
00000000
MFFFFFFF
00000000
01100000
00000000
,
00010000
00001000
00000100
00001000
00010000
00000000
00000100
00000000
,
00000010
00001000
00000010
00000001
00000100
00000010
00000100
00000010
,
00001000
00010000
00100000
10000000
,
00100000
00001000
00100000
00001000
01000000
00010000
01000000
00010000
,
10000000
00010000
10000000
00010000
00001000
00000000
00000100
00000000
,
00000001
00000000
00000100
00000000
00000001
00000100
00000001
00000100
,
00000010
00000100
00000010
00000100
00010000
00000100
00010000
00000100
,
00010000
00100000
01000000
10000000
00000000
00000000
MFFFFFFF
00000000
,
00010000
00001000
00000100
00000010
00000000
00000000
MFFFFFFF
00000000
,
00001000
00010000
00100000
01000000
00000000
00000000
MFFFFFFF
00000000
,
00100000
00010000
00001000
00000100
00000000
00000000
MFFFFFFF
00000000
,
00000001
00000010
00000100
00001000
00000000
00000000
MFFFFFFF
00000000
,
00000100
00001000
00010000
01000000
00000000
00000000
MFFFFFFF
00000000
,
01000000
00010000
00001000
00000100
00000000
00000000
MFFFFFFF
00000000
,
00000010
00001000
00010000
00100000
00000000
00000000
MFFFFFFF
00000000
,
10000000
00010000
10000000
00010000
00100000
00010000
00100000
00010000
,
00001000
00010000
00001000
00010000
00000010
00010000
00000010
00001000
,
00000001
00001000
00000001
00001000
00000010
00000100
00001000
00000001
,
00001000
00000010
00001000
00000100
00000010
00000001
00000010
00001000
,
00200000
00000000
0000MFFF
00000000
00000000
00300000
00000000
00000000
,
MFFFFFFF
MFFFFFFF
MFFFFFFF
MFFFFFFF
,
10010000
00000000
01100000
00100000
00110000
00010000
00010010
00000010
,
00000011
00000000
00000001
00000000
00001001
00000000
00001000
00000000
00000010
00001000
00000010
00001000
00000010
00000000
00000000
00000000
,
00001001
00000000
00001010
00000010
00000110
00000100
00010100
00010000
,
01010000
00000000
01000000
00000000
01100000
00000000
00100000
00000000
00100000
01000000
00100000
01000000
00010000
01000000
00010000
01000000
,
00010000
00000000
00011000
MFFF1000
00001010
00000010
00000110
00000100
,
00010100
00000000
0001MFFF
00000000
00110000
00000000
00100000
00000000
00100000
01000000
00100000
10000000
00100000
00010000
00100000
00010000
,
00001000
MFFFFFFF
00000110
MFFFFFFF
,
02200000
00000000
00000000
00000000
,
00000000
00000000
00000000
03300000
,
MFFFFFFF
MFFFFFFF
MFFFFFFF
MFFFFFFF
,
MFFFFFFF
MFFFFFFF
MFFFFFFF
MFFFFFFF
,
00000000
00000000
00000000
00000000
00011000
00000000
MFFFFFFF
00000000
00001001
00000000
00000000
00000001
00000010
00000000
00000010
00000000
,
00001000
00000000
00000100
00000000
00010000
00000000
00100000
00000000
10000000
00100000
01000000
00100000
10000000
01000000
00010000
00001000
,
00000010
00000000
00000000
00000000
00011000
00000000
MFFFFFFF
00000000
10010000
00000000
00000000
10000000
01000000
00000000
01000000
00000000
,
00010000
00100000
00010000
00100000
00001000
00010000
00001000
00010000
00000100
00000010
00000001
00000010
00001000
00010000
00001000
00000100
,
00000010
00000000
00000000
00000000
MFFFFFFF
00000000
00000000
00000000
01000000
00000000
00000000
01000000
10000000
00000000
10000000
00000000
,
00100000
00000000
00000000
00100000
00010000
00000000
00010000
00000000
00001000
01000000
00001000
00100000
00001000
01000000
00001000
00010000
,
00001000
00000100
00000001
00000100
00010000
01000000
10000000
01000000
,
00010000
00000000
MFFFFFFF
00000000
00001000
00001000
00001000
00001000
,
00010000
00000000
MFFFFFFF
00000000
00002001
00000000
00003100
00000001
,
00000010
00000000
00001000
00000000
00000100
00000000
00000010
00000000
00001000
00000000
0010MFFF
00010000
00100000
00000000
01000000
00000000
,
MFFFFFFF
10020000
00000000
01030000
10000000
00100000
00010000
01000000
,
MFFF1000
00000000
00000100
00001000
00000100
00000000
00000010
00000000
00000001
00000010
00001000
00000000
00000100
00000000
00000010
00000000
,
00000011
00000000
MFFFFFFF
00000000
00002100
00000000
00003010
00001000
,
00010000
00000000
00000010
00000000
00001000
00000000
00010000
00000000
MFFF0010
00000000
00001000
00010000
00001000
00000000
00000100
00000000
,
00000001
00000000
00000010
00001000
00000010
00000000
00000100
00000000
00010000
00000000
00001000
00000000
01000000
00000000
00010000
00000000
,
01000000
00010000
00001000
00000010
00000001
00000100
00002000
00000000
,
00013000
00000000
MFFFFFFF
00000000
10020000
00000000
00130000
00010000
,
00001000
00000000
00000010
00000000
0001MFFF
00000000
00100000
00000000
00001000
00000000
00010000
00001000
00010000
00000000
00000100
00000000
,
MFFFFFFF
00002001
00000000
00003100
00001000
00010000
00100000
MFFF1000
,
00000010
00000000
00000001
00000010
00001000
00000000
00000001
00000000
00000100
00001000
00000100
00000000
00001000
00000000
00000000
00000000
,
00010000
00001000
00010000
00001000
01000000
00001000
01000000
00001000
,
00100000
00010000
10000000
00100000
01000000
00010000
00001000
00000010
,
00000100
00000001
00000100
00000001
00000010
00000001
00000010
00000001
,
00001000
00000100
00000010
00000100
00001000
00010000
00100000
10000000
,
00200000
00300000
MFFFFFFF
00000000
,
00000200
00000000
00000300
00000000
,
00000001
00000010
00000100
00001000
00010000
00100000
01000000
10000000
,
01000000
00100000
00010000
00001000
00010000
00100000
01000000
10000000
,
01000000
00100000
00010000
00001000
00000100
00000010
00000100
00000010
,
00000100
00001000
00000001
00001000
00000010
00001000
00000100
00001000
,
00020000
0000MFFF
0000MFFF
0000MFFF
0000MFFF
0000MFFF
0000MFFF
0000MFFF
,
1003MFFF
00010000
10000000
00100000
10000000
00100000
01000000
00010000
,
10000000
01000000
00010000
00001000
00010000
00001000
01000000
00010000
,
00002000
MFFF0000
00000000
MFFF0000
00000000
MFFF0000
00000000
MFFF0000
,
00000000
MFFF0000
00000000
MFFF0000
00000000
MFFF0000
00000000
MFFF0000
,
00003001
00001000
00000010
00001000
00000010
00000100
00001000
00000100
,
00001000
00010000
00001000
01000000
00010000
10000000
00100000
00010000
,
00002000
00000000
00000000
00000000
,
00013000
00100000
01000000
10000000
01000000
00100000
00010000
00001000
,
00000100
00000001
00000100
00001000
00000100
00001000
00000100
00000010
,
00000100
00000001
00000100
00001000
00010000
00100000
0100MFFF
00010000
,
00100000
00000000
00000000
00000000
10000000
00000000
00000000
00000000
00100000
00000000
00000000
00000000
00010000
00000000
00001000
00000000
00000100
00000000
00000001
00000100
00001000
00010000
00100000
01000000
,
10000000
00000000
00000000
01100000
00000000
00000000
01010000
00000000
,
00110000
00000000
00000000
00001100
00000000
00000000
00000110
00000000
,
00000011
00000000
00000000
00000101
00000000
00000000
00001100
00000000
,
00010000
00001000
00000100
00001000
00010000
00001000
00000100
00001000
,
00010000
00000000
00000000
01100000
00000000
00000000
10100000
00000000
,
11000000
00000000
00000000
00101000
00000000
00000000
00011000
00000000
,
00001000
00000010
00000001
00000010
00001000
00000010
00000001
00000010
,
00001000
00011000
00011000
00011000
,
00011000
00000000
00000000
01100000
00000000
00000000
10010000
00000000
,
00011000
00000000
00000000
00000110
00000000
00000000
00001001
00000000
,
00011000
00000000
00000000
01100000
00000000
00000000
10010000
00000000
,
01100000
00000000
00000000
00011000
00000000
00000000
00000110
00000000
,
00000001
00000000
00000000
00001000
00000000
00000000
00100000
00000000
,
10000000
00000000
00000000
00001000
00000000
00000000
00000100
00000000
,
00000001
00000010
00000001
00000010
00000001
00001000
00000100
00001000
,
00000100
00001000
00010000
01000000
00100000
01000000
00100000
01000000
,
00000000
MFFFFFFF
MFFFFFFF
MFFFFFFF
,
00000000
00000000
00002000
00000000
00000000
00000100
00000000
00000000
,
00000001
00000000
00000010
00000000
00023000
00000000
00000000
01000000
,
00000000
10000000
00100000
00032000
,
00000000
00000000
00000000
00000000
,
00013000
00000000
00000000
10010000
00000000
00000000
01000000
00000000
,
01000000
00000000
00100000
00010000
00000000
00010000
00001000
00000000
,
00001000
00000010
00000000
00000010
00000001
00000000
00000001
00000100
,
00000010
00000000
00001000
00000000
00000000
MFFFFFFF
00000000
00000000
00010000
01000000
00010000
01000000
00010000
10000000
01000000
10000000
,
01000000
10000000
00100000
01000000
00010000
10000000
00010000
10000000
00001000
00010000
00001000
00010000
00000001
00001000
00000001
00001000
,
00000010
00010000
00001000
00010000
00002000
00000000
00000000
00000000
00000000
00000000
00000000
00000000
00000000
00000000
00000000
00000000
,
00103000
00000000
00000000
01000000
00000000
00000000
00100000
00000000
00000000
00000000
00000000
00000000
00000000
00000000
10010000
00000000
00000000
00000000
00000000
00000000
00000000
00000000
01100000
00000000
,
00000000
00000000
00000000
MFFFFFFF
00000000
00000000
00000000
00010100
00000000
00000000
00000000
00000110
,
00000000
00001001
00000000
MFFFFFFF
,
00000000
00000000
00000000
00000100
00000000
00000010
00000000
00010000
00000000
00001000
00000000
00000100
,
00000000
00010000
00000000
00001000
00000000
00000010
00000000
00010000
00000000
0010MFFF
00000000
10000000
,
00000000
01000000
00000000
00010000
00000000
01000000
00000000
00100000
00000000
00010000
00000000
01000000
,
00000000
00001000
00000000
MFFF0100
00000000
00000010
00000000
00000001
00000000
00000010
00000000
00001000
,
00000000
00000000
00000100
00000000
00000000
00000000
00000010
00000000
00000000
00000001
00000000
00000000
00001000
00000000
00000000
00000100
00000000
00000000
00000010
00000000
00000000
00001000
00000000
00000000
,
00000010
00001000
00100000
00001000
00100000
00001000
00000010
00001000
,
00000010
00001000
00010000
01000000
10000000
00100000
01000000
00010000
,
01000000
00010000
00000100
00010000
00000100
00010000
01000000
00010000
,
01000000
00010000
10000000
00010000
01000000
00100000
00010000
00100000
,
01000000
00001000
00010000
00001000
00010000
00000100
MFFF0010
00001000
,
00000010
00000001
00001000
00000100
00000010
00000100
00000010
00001000
,
00010000
0010MFFF
10000000
00100000
01000000
00100000
01000000
00010000
,
01000000
00001000
00010000
00000000
00000100
00000000
00000110
00000000
,
00000000
00001001
00001000
0001MFFF
,
01010000
00000000
10000000
00010000
,
00001000
00101000
MFFF0100
00000010
,
00000010
00000110
00000000
00001001
,
00000000
00000000
10010000
00000000
00000000
MFFFFFFF
00000000
00000000
,
00101000
00011000
00000000
00010000
,
MFFF0010
00000001
00000101
00000000
,
00001010
00001100
00000000
00011000
,
0001MFFF
10000000
10100000
00000000
,
00101000
MFFF1000
00011000
00000000
,
00100000
00020000
01000000
10000000
,
00100000
00032000
00000100
00000001
,
00000010
00013000
00000000
MFFFFFFF
,
MFFFFFFF
MFFFFFFF
00000000
00011000
,
00000100
00000000
00000000
00000000
00000000
00000010
00000000
00000000
00000000
00000000
MFFFFFFF
00000000
00000000
00000000
00000000
00001000
00000000
00000000
00000000
00000000
00010000
00000000
00000000
00000000
00000000
00000000
00000000
00000000
00000000
00000000
00100000
00000000
,
00000000
MFFFFFFF
00000000
20020000
00000000
00000000
00000000
00000000
,
00000000
00000000
00000000
00000000
,
00000000
00000000
00000000
00000000
,
00000000
00000000
00000000
00000000
,
00000000
00000000
00000000
30030000
00000000
00000000
00000000
00000000
;
