#VERSION:0.83;
#TITLE:Deep tenDon Reflex;
#SUBTITLE:;
#ARTIST:BEMANI Sound Team "Coyaan";
#TITLETRANSLIT:;
#SUBTITLETRANSLIT:;
#ARTISTTRANSLIT:;
#GENRE:;
#ORIGIN:;
#CREDIT:;
#BANNER:;
#BACKGROUND:Deep tenDon Reflex-bg.png;
#PREVIEWVID:;
#JACKET:Deep tenDon Reflex-jacket.png;
#CDIMAGE:;
#DISCIMAGE:;
#LYRICSPATH:;
#CDTITLE:;
#MUSIC:Deep tenDon Reflex.ogg;
#OFFSET:0.000000;
#SAMPLESTART:88.000000;
#SAMPLELENGTH:15.000000;
#SELECTABLE:YES;
#BPMS:0.000000=180.000000,
150.000000=90.000000,
166.000000=180.000000,
178.500000=360.000000,
179.000000=180.000000,
179.750000=90.000000,
180.000000=180.000000,
180.500000=360.000000,
181.500000=180.000000,
272.500000=90.000000,
283.500000=180.000000;
#STOPS:113.000000=0.167000,
114.000000=0.167000,
115.000000=0.167000,
116.000000=0.167000,
166.000000=0.167000,
169.000000=0.167000,
172.000000=0.167000,
172.500000=0.167000,
175.500000=0.167000,
177.500000=0.167000,
177.750000=0.167000,
182.500000=0.167000,
235.500000=0.167000,
236.500000=0.167000,
237.500000=0.167000,
238.500000=0.167000;
#DELAYS:;
#WARPS:;
#TIMESIGNATURES:0.000000=4=4;
#TICKCOUNTS:0.000000=4;
#COMBOS:0.000000=1;
#SPEEDS:0.000000=1.000000=0.000000=0;
#SCROLLS:0.000000=1.000000;
#FAKES:;
#LABELS:0.000000=Song Start;
#BGCHANGES:;
#KEYSOUNDS:;
#ATTACKS:
;

//---------------dance-single - ----------------
#NOTEDATA:;
#CHARTNAME:;
#STEPSTYPE:dance-single;
#DESCRIPTION:;
#CHARTSTYLE:;
#DIFFICULTY:Medium;
#METER:13;
#RADARVALUES:0.660303,0.848879,0.811051,0.575585,0.231106,530.000000,437.000000,93.000000,66.000000,0.000000,0.000000,0.000000,0.000000,0.000000,0.660303,0.848879,0.811051,0.575585,0.231106,530.000000,437.000000,93.000000,66.000000,0.000000,0.000000,0.000000,0.000000,0.000000;
#CREDIT:yuisin;
#NOTES:
// measure 0
0000
0000
0000
0000
,  // measure 1
0000
0000
0000
0000
,  // measure 2
0000
0000
0000
0000
,  // measure 3
0000
0000
0000
0000
,  // measure 4
0000
0000
0000
0000
,  // measure 5
0000
0000
0000
0000
,  // measure 6
0110
0000
0000
0001
0002
0000
0000
1003
,  // measure 7
2000
0000
3020
0000
0230
0000
0302
0003
,  // measure 8
1001
0000
0000
0100
0200
0000
0000
0310
,  // measure 9
0020
2030
3200
0310
,  // measure 10
1001
0000
0001
0100
0001
0101
0000
1010
,  // measure 11
0000
1000
0100
1000
1100
0000
0011
0000
,  // measure 12
1001
0000
0010
0001
0010
0110
0000
1001
,  // measure 13
0000
0000
0010
0000
1000
0000
0010
0000
0110
0000
0000
0100
0000
0000
0100
0000
,  // measure 14
1001
0000
0100
1000
0100
1100
0000
1001
,  // measure 15
0000
0100
0001
0100
0101
0000
1001
0000
,  // measure 16
0110
0000
0010
0010
0000
0100
0100
0000
,  // measure 17
1000
1000
0000
0001
0001
0000
1001
0000
,  // measure 18
0100
0001
0100
0001
1000
0010
1000
0010
,  // measure 19
0100
0001
0010
0100
0010
0001
1000
0010
,  // measure 20
0100
0100
0001
1000
0100
0100
1000
0001
,  // measure 21
0010
0010
0010
0010
0020
0000
0000
0000
,  // measure 22
0030
0001
0101
0000
1000
1100
0000
0001
,  // measure 23
0101
0000
1000
1100
0000
0001
0101
0000
,  // measure 24
0000
0001
0011
0000
1000
1010
0000
0001
,  // measure 25
0011
0000
1000
1010
0000
0001
0011
0000
,  // measure 26
0000
0100
0101
0000
0100
1100
0000
0100
,  // measure 27
0101
0000
0100
1100
0000
0100
0101
0000
,  // measure 28
0000
0000
0000
0000
1010
0000
0000
0000
2020
3030
0000
0000
0101
0000
0000
0000
0202
0303
0000
0000
0011
0000
0000
0000
0022
0033
0000
0000
1010
0000
0000
0000
,  // measure 29
2020
3030
0000
0000
0110
0000
0000
0000
1001
0000
0000
0000
0000
0000
0000
0000
0000
0000
0000
0000
0010
0000
0000
0000
0010
0000
0000
0000
0000
0000
0000
0000
,  // measure 30
0001
0001
0010
0100
1000
1000
0010
0100
,  // measure 31
0001
0001
0001
0000
0000
0010
0010
0000
,  // measure 32
1000
0100
0010
0001
0001
0100
0010
1000
,  // measure 33
1000
1000
0100
0000
0000
0010
0010
0000
,  // measure 34
1000
1000
0010
0100
0001
0001
0010
0100
,  // measure 35
1000
1000
1000
0000
0000
0010
0010
0000
,  // measure 36
0001
0100
0010
1000
1000
0100
0010
0001
,  // measure 37
0001
0000
0001
0000
0100
0000
0000
0000
0001
0000
0010
0000
1000
0000
0000
0010
,  // measure 38
0000
0010
0100
0000
1000
0000
0001
0000
1000
0000
0010
0000
0001
0000
0000
0010
,  // measure 39
0000
0010
0100
0000
1001
0000
0000
0000
0110
0000
0000
1000
2000
0000
0000
3001
,  // measure 40
0002
0000
0023
0000
0230
0000
2300
3000
1001
0000
0000
0100
0200
0000
0000
0310
,  // measure 41
0020
0000
0000
0000
0032
0000
0000
0000
0103
0000
0000
0100
0000
0000
0100
0000
2002
3003
0000
0000
1000
0000
0000
0000
0100
0000
0000
0000
1000
0000
0000
0000
,  // measure 42
1100
0000
0000
0000
0000
0000
0000
0000
0022
0033
0000
0000
0001
0000
0000
0000
0100
0000
0000
0000
0001
0000
0000
0000
0101
0000
0000
0000
0000
0000
0000
0000
,  // measure 43
2020
3030
0000
0000
2002
3003
0000
0000
0010
0000
0000
0000
1000
0000
0000
0000
0010
0000
0000
0000
0110
0000
0000
0000
0000
0000
0000
0000
2002
3003
0000
0000
,  // measure 44
0010
0000
0001
0000
0010
0000
0110
0100
0100
0000
2002
0000
0000
0000
0000
0000
,  // measure 45
0000
0000
0000
0000
3003
0000
0000
0000
0000
0000
0000
0000
0101
0303
0000
0000
0000
0000
0000
0000
2002
3003
0000
0000
0100
0000
0000
0000
1000
0000
0000
0000
,  // measure 46
0100
1100
0000
1001
0000
0110
0000
0010
,  // measure 47
0010
0000
0100
0100
0000
0001
0001
0000
,  // measure 48
1000
1000
0000
1001
0000
0100
1000
0100
,  // measure 49
1000
0001
0010
0001
0010
0100
1000
0010
,  // measure 50
0001
0010
1000
0001
0010
0100
0100
1000
,  // measure 51
0001
0100
0100
1000
0001
0010
0010
0010
,  // measure 52
0010
0020
0000
0000
0000
0030
0001
0101
,  // measure 53
0000
0000
1000
0100
2000
0000
3000
0000
0001
0100
0002
0000
0003
0000
1000
0100
,  // measure 54
2000
0000
3000
0000
0001
0100
0002
0000
0003
0000
0000
0000
0001
0000
0011
0000
,  // measure 55
0000
0000
1000
0010
2000
0000
3000
0000
0001
0010
0002
0000
0003
0000
1000
0010
,  // measure 56
2000
0000
3000
0000
0001
0010
0002
0000
0003
0000
0000
0000
0100
0000
0101
0000
,  // measure 57
0000
0000
0100
1000
0200
0000
0300
0000
0100
0001
0200
0000
0300
0000
0100
1000
,  // measure 58
0200
0000
0000
0000
0300
0000
0000
0000
0100
0000
0001
0000
0200
0000
0000
0000
0300
0000
0000
0000
0000
0000
0000
0000
1010
0000
0000
0000
2002
3003
0000
0000
,  // measure 59
0011
0000
0000
0000
2002
3003
0000
0000
1010
0000
0000
0000
0220
0330
0000
0000
0011
0000
0000
0000
0220
0330
0000
0000
1001
0000
0000
0000
0110
0000
0000
0000
,  // measure 60
0000
0000
0010
0110
0000
1000
1000
0010
,  // measure 61
0100
0001
0001
0010
0100
0001
0001
0001
,  // measure 62
0000
0000
0010
0110
0000
0001
0100
0010
,  // measure 63
1000
1000
0100
0010
1000
1000
1000
0010
,  // measure 64
0000
0000
0010
0110
0000
0001
0001
0010
,  // measure 65
0100
1000
1000
0010
0100
1000
1000
1000
,  // measure 66
0000
0000
0010
0110
0000
1000
0100
0010
,  // measure 67
0001
0001
0100
0010
0001
0001
0001
0010
,  // measure 68
0000
0000
1000
0000
0000
0100
0010
0010
0000
0100
0000
0000
1000
0001
0100
0000
,  // measure 69
0010
0000
2000
0000
3000
0100
0010
0010
0000
0001
0000
0000
2000
0000
3020
0000
,  // measure 70
0230
0000
0302
0000
0003
1000
0100
1000
0000
0001
0000
0100
0001
0000
0010
0000
,  // measure 71
0000
1001
0000
0110
0000
1001
1100
0000
,  // measure 72
1001
0101
0000
1010
1100
0000
0011
0101
,  // measure 73
0000
1001
0000
1000
0100
0001
0010
0100
,  // measure 74
0100
0000
0010
0100
0010
0100
0010
0000
0110
0000
0000
0000
1001
0000
1001
0000
;

//---------------dance-single - air----------------
#NOTEDATA:;
#CHARTNAME:air;
#STEPSTYPE:dance-single;
#DESCRIPTION:air;
#CHARTSTYLE:;
#DIFFICULTY:Challenge;
#METER:18;
#RADARVALUES:0.986717,1.403914,1.465125,0.688958,0.819772,792.000000,624.000000,168.000000,79.000000,0.000000,0.000000,0.000000,0.000000,0.000000,0.986717,1.403914,1.465125,0.688958,0.819772,792.000000,624.000000,168.000000,79.000000,0.000000,0.000000,0.000000,0.000000,0.000000;
#CREDIT:yuisin;
#NOTES:
0000
0000
0000
0000
,
0000
0000
0000
0000
,
0000
0000
0000
0000
,
0000
0000
0000
0000
,
0000
0000
0000
0000
,
0000
0000
0000
0000
,
1001
0000
0000
0000
0000
0000
0001
0000
0010
0000
0100
0000
0010
0000
0000
0100
0000
0000
0000
0000
0000
0110
0000
0000
,
0000
0010
0001
0100
0010
1000
0100
0010
,
1001
0000
0000
0000
0000
0000
1000
0000
0010
0000
0100
0000
0010
0000
0000
0100
0000
0000
0000
0000
0000
0110
0000
0000
,
0000
0000
0010
0000
1000
0000
0100
0000
0011
0000
0000
0101
0000
0000
1010
0000
,
0110
0000
0000
0000
0001
1000
0001
1000
1100
0000
0011
0000
0000
0000
0101
0000
,
0000
0000
1000
0001
1000
0001
0011
0000
1001
0000
0000
0000
1010
0000
0000
0000
,
0101
0000
0000
0000
0100
0010
0100
0010
1010
0000
1001
0000
0000
0000
1100
0000
,
0000
0000
0100
0010
0100
0010
0011
0000
1001
0000
0000
1010
0000
0000
0110
0000
,
1001
0000
0000
0000
1000
0001
1000
0001
0101
0000
0011
0000
0000
0000
1010
0000
,
0000
0000
0001
1000
0001
1000
1100
0000
1010
0000
0000
0000
0011
0000
0000
0000
,
0102
0000
0013
2100
0000
3010
1002
0000
,
0103
0000
0210
0000
0000
0000
0310
0100
0010
0000
1000
0100
0010
0000
0000
0000
,
0100
0010
0100
1000
0010
0001
0010
1000
,
0100
0010
0001
1000
0010
0001
1000
0100
,
0001
0001
0100
0100
1000
1000
0010
0010
,
0001
0100
0010
1000
0100
0010
0100
1000
0002
0000
0000
0000
0003
0000
0000
0000
,
0010
0011
1001
0000
1010
1001
0010
0011
,
1001
0010
1010
1001
0100
0110
1001
0000
,
0010
0011
0110
0000
1010
0110
0001
0011
,
0110
0000
1000
0000
1010
0000
0110
0000
0001
0000
0101
0000
0110
0000
0100
0010
,
0110
1000
1001
0000
1100
1001
0100
0101
,
1001
0000
0100
0000
1100
0000
1001
0000
0100
0000
0110
0000
1001
0001
1000
0001
,
1000
0000
0000
0000
0000
0000
0000
0000
0011
0000
0000
0000
0000
0000
0000
0000
0220
0330
0000
0000
0000
0000
0000
0000
1010
0000
0000
0000
0000
0000
0000
0000
2002
3003
0000
0000
0000
0000
0000
0000
0101
0000
0000
0000
0000
0000
0000
0000
0220
0330
0000
0000
0000
0000
0000
0000
1001
0000
0000
0000
0000
0000
0000
0000
,
0022
0033
0000
0000
0000
0000
0000
0000
1100
0000
0000
0000
0000
0000
0000
0000
1001
0000
0000
0000
0000
0000
0000
0000
0000
0000
0000
0000
0000
0000
0000
0000
0001
0000
0000
0000
0000
0000
0000
0000
0010
0000
0000
0000
0000
0000
0000
0000
0010
0000
0000
0000
0000
0000
0000
0000
0100
0000
0000
0000
0000
0000
0000
0000
,
0010
0000
0001
1000
0100
0000
0010
0000
0100
0000
0010
0001
0100
0000
0010
1000
,
0010
1000
0001
0100
0010
0000
0100
0000
0001
0000
0010
0000
0010
0000
0001
1000
,
0100
0000
0010
0000
0001
0000
0100
0000
0010
1000
0010
1000
0001
0010
0001
0100
,
0010
1000
0100
0010
0100
0000
0000
0000
1001
0000
0100
0000
0100
0000
1000
0001
,
0010
0000
0100
0000
1000
0000
0010
0000
0010
0000
0100
0001
0010
0000
0100
1000
,
0100
1000
0001
0100
0010
0000
0100
0000
1001
0000
0100
0000
0100
0000
0001
1000
,
0010
0000
0100
0000
0001
0000
0010
0000
0100
0000
0010
0001
0010
0001
1000
0100
,
1000
0010
0100
0001
0010
0000
0000
0000
0200
0000
0302
0000
0203
2300
0000
3020
,
0000
0032
0023
2030
3200
0000
0300
0000
0020
0000
2030
0000
3020
0032
0000
0203
,
0000
0000
0000
2300
0000
0000
3200
0000
0000
0302
0000
0000
0013
0000
0100
0000
1000
0000
0010
0000
0100
0000
0001
0000
1001
0000
0000
0000
0000
0000
1000
0010
1000
0010
0000
0000
0100
0000
0000
0011
0000
0000
0000
0000
0000
1001
0000
0000
,
0000
0000
0000
0010
0000
0000
0001
0000
0000
0100
0000
0000
1000
0000
0000
0100
0000
0000
0010
0000
0000
1000
0000
0000
0001
0000
0000
0000
0000
0000
0010
0001
0010
0001
0000
0000
0100
0000
0000
1010
0000
0000
0000
0000
0000
1001
0000
0000
,
0000
0000
0000
0000
0100
0000
0000
0000
1000
0000
0000
0000
0010
0000
0000
0000
0011
0000
0000
0000
0000
0000
0101
0000
0000
0000
0000
0000
1010
0000
0000
0000
0220
0330
0000
0000
0000
0000
0000
0000
0010
0000
0000
0000
0001
0000
0000
0000
0010
0000
0000
0000
0001
0000
0000
0000
0101
0000
0000
0000
0000
0000
0000
0000
,
1010
0000
0000
0000
0000
0000
0000
0000
0000
0000
0000
0000
0000
0000
0000
0000
2002
3003
0000
0000
0000
0000
0000
0000
0100
0000
0000
0000
1000
0000
0000
0000
0100
0000
0000
0000
1000
0000
0000
0000
1010
0000
0000
0000
0000
0000
0000
0000
1001
0000
0000
0000
0000
0000
0000
0000
0000
0000
0000
0000
0000
0000
0000
0000
,
0022
0033
0000
0000
0000
0000
0000
0000
2200
3300
0000
0000
0000
0000
0000
0000
0100
0000
0000
0000
0001
0000
0000
0000
0100
0000
0000
0000
0001
0000
0000
0000
0011
0000
0000
0000
0000
0000
0000
0000
1001
0000
0000
0000
0000
0000
0000
0000
0000
0000
0000
0000
0000
0000
0000
0000
0022
0033
0000
0000
0000
0000
0000
0000
,
0010
1000
0010
1000
1100
0000
1001
0011
0110
0000
2002
0000
0000
0000
0000
0000
,
0000
0000
0000
0000
0000
0000
0000
0000
0000
0000
0000
0000
0000
0000
0000
0000
0000
0000
0000
0000
0000
0000
0000
0000
0000
0000
0000
0000
0000
0000
0000
0000
0000
0000
0000
0000
0000
0000
0000
0000
3003
0000
0000
0000
0000
0000
0000
0000
0000
0000
0000
0000
0000
0000
0000
0000
0000
0000
0000
0000
0000
0000
0000
0000
0000
0000
0000
0000
0000
0000
0000
0000
1010
0000
0000
0000
0000
0000
0000
0000
0000
0000
0000
0000
0000
0000
0000
0000
0000
0000
0000
0000
0000
0000
0000
0000
0000
0000
0000
0000
0000
0000
0000
0000
0000
0000
0000
0000
0000
0000
0000
0000
0000
0000
0000
0000
0000
0000
0000
0000
0022
0000
0000
0033
0000
0000
0000
0000
0000
0000
0000
0000
0000
0000
0000
0000
0000
0000
0000
0000
0000
0000
0000
0000
1000
0000
0000
0000
0000
0000
0000
0000
0000
0000
0000
0000
0010
0000
0000
0000
0000
0000
0000
0000
0000
0000
0000
0000
1000
0000
0000
0000
0000
0000
0000
0000
0000
0000
0000
0000
0010
0000
0000
0000
0000
0000
0000
0000
0000
0000
0000
0000
,
1100
0011
0000
1010
0000
2100
0000
3010
,
0102
0000
0013
2001
0000
3100
0210
0000
,
0310
0100
0010
0000
0001
0100
0010
0000
0000
0000
0100
0000
0010
0000
0100
0000
,
0001
0010
1000
0010
0001
0100
0010
1000
,
0001
0010
1000
0001
0100
1000
1000
0100
,
0100
0000
0001
0000
0001
0000
0010
0000
0010
0000
1000
0100
0010
0001
0100
0010
,
0100
0001
2000
0000
0000
0000
3000
0000
0000
0000
0102
0000
0100
0000
0013
0000
,
0000
0000
2100
0100
3010
0000
0000
0000
0102
0100
0013
0000
0000
0000
2100
0100
,
3010
0000
0000
0000
0102
0100
0013
0000
0000
0000
1020
0000
1000
0000
0130
0000
,
0000
0000
0021
0001
0130
0000
0000
0000
1020
1000
0130
0000
0000
0000
0021
0001
,
0130
0000
0000
0000
1020
1000
0130
0000
0000
0000
0021
0000
0001
0000
1030
0000
,
0000
0000
1020
1000
0031
0000
0000
0000
0021
0001
1030
0000
0000
0000
1020
1000
,
0031
0000
0000
0000
0000
0000
0000
0000
0000
0000
0000
0000
0000
0000
0000
0000
0021
0000
0000
0000
0001
0000
0000
0000
1030
0000
0000
0000
0010
0000
0000
0000
0100
0000
0000
0000
0010
0000
0000
0000
0100
0000
0000
0000
0000
0000
0000
0000
0011
0000
0000
0000
0000
0000
0000
0000
2002
3003
0000
0000
0000
0000
0000
0000
,
1010
0000
0000
0000
0000
0000
0000
0000
0220
0330
0000
0000
0000
0000
0000
0000
0101
0000
0000
0000
0000
0000
0000
0000
0220
0330
0000
0000
0000
0000
0000
0000
1010
0000
0000
0000
0000
0000
0000
0000
2002
3003
0000
0000
0000
0000
0000
0000
0011
0000
0000
0000
0000
0000
0000
0000
1001
0000
0000
0000
0000
0000
0000
0000
,
0000
0000
1000
0000
0010
0000
0010
0000
0100
0000
0010
0000
1000
0001
0100
0000
,
0010
0000
0110
0000
0010
1000
0100
0000
0010
0001
0010
0001
1000
0100
0010
0000
,
0100
0000
1001
0000
0010
0000
0010
0000
1000
0001
0100
0000
0010
0000
1010
0000
,
0100
0000
0010
0001
0100
0001
1000
0010
1000
0100
0010
0001
0100
0010
0100
0000
,
0000
0000
1001
0000
0100
0000
0100
0000
0001
1000
0010
0000
0100
0000
0001
0000
,
0010
0000
0110
0000
0100
1000
0010
0000
0100
0001
0100
0001
1000
0100
0010
0000
,
0100
0000
1001
0000
0100
0000
0100
0000
1000
0001
0010
0000
0110
0000
1000
0000
,
0100
1000
0010
1000
0001
0100
0001
0010
0100
1000
0010
0001
0010
1000
0001
0000
,
0000
0000
0000
0000
1002
0000
0000
0000
0003
0000
0010
0001
0011
0000
1100
0000
0000
0000
0120
0000
0000
0000
0030
0000
0001
0100
0001
0100
0110
0000
0000
0000
,
1010
0000
0000
0000
0000
0000
0000
0000
0000
0000
0000
0000
0000
0000
0000
0000
0000
0000
0000
0000
0000
0000
0000
0000
0201
0000
0000
0000
0000
0000
0000
0000
0000
0000
0000
0000
0000
0000
0000
0000
0000
0000
0000
0000
0000
0000
0000
0000
0300
0000
0000
0000
0000
0000
0000
0000
0000
0000
0000
0000
0010
0000
0000
0000
0000
0000
1000
0000
0000
0000
0000
0000
1001
0000
0000
0000
0000
0000
0000
0000
0000
0000
0000
0000
0101
0000
0000
0000
0000
0000
0000
0000
0000
0000
0000
0000
0000
0000
0000
0000
0000
0000
0000
0000
0000
0000
0000
0000
0110
0000
0000
0000
0000
0000
0000
0000
0000
0000
0000
0000
0000
0000
0000
0000
0000
0000
0000
0000
0000
0000
0000
0000
0100
0000
0000
0000
0000
0000
0010
0000
0000
0000
0000
0000
0110
0000
0000
0000
0000
0000
0000
0000
1000
0000
0000
0000
0000
0000
0000
0000
0010
0000
0000
0000
0000
0000
0000
0000
0100
0000
0000
0000
0000
0000
0000
0000
0001
0000
0000
0000
0000
0000
0000
0000
0010
0000
0000
0000
0000
0000
0000
0000
,
1000
0000
0000
0000
0000
0000
0000
0000
0010
0000
0000
0000
0000
0000
0000
0000
0001
0000
0000
0000
0000
0000
0000
0000
0100
0000
0000
0000
0000
0000
0000
0000
0000
0000
0000
0000
0000
0000
0000
0000
0000
0000
0000
0000
0000
0000
0000
0000
0000
0000
0000
0000
0000
0000
0000
0000
0000
0000
0000
0000
0010
0000
0000
0000
0000
0000
0001
0000
0000
0000
0000
0000
1001
0000
0000
0000
0000
0000
0000
0000
0000
0000
0000
0000
0110
0000
0000
0000
0000
0000
0000
0000
0000
0000
0000
0000
0000
0000
0000
0000
0000
0000
0000
0000
0000
0000
0000
0000
0011
0000
0000
0000
0000
0000
0000
0000
0000
0000
0000
0000
0000
0000
0000
0000
0000
0000
0000
0000
0000
0000
0000
0000
0001
0000
0000
0000
0000
0000
0100
0000
0000
0000
0000
0000
0010
0000
0000
0000
0000
0000
0100
0000
0000
0000
0000
0000
0010
0000
0000
0000
0000
0000
1000
0000
0000
0000
0000
0000
2200
0000
0000
0000
0000
0000
0000
0000
0000
0000
0000
0000
0000
0000
0000
0000
0000
0000
0000
0000
0000
0000
0000
0000
,
3300
0000
0022
0000
0033
0000
0110
0000
0010
0001
0101
0000
0110
0000
0010
1000
,
1100
0000
1001
0000
0100
0001
0011
0000
1001
0000
0100
1000
1010
0000
1001
0000
,
0000
0000
0110
0000
0000
0000
0001
0000
1000
0000
0100
0000
0010
0000
0100
1000
,
0001
1000
0010
0100
0001
0010
0110
0000
0100
0000
0000
0000
0010
0000
1001
0000
;
