#TITLE:打打打打打打打打打打;
#SUBTITLE:;
#ARTIST:ヒゲドライバー join. SELEN;
#TITLETRANSLIT:Dadadadadadadadadada;
#SUBTITLETRANSLIT:;
#ARTISTTRANSLIT:Hige Diver join. SELEN;
#GENRE:;
#CREDIT:;
#BANNER:Dadadadadadadadadada.png;
#BACKGROUND:Dadadadadadadadadada-bg.png;
#LYRICSPATH:;
#CDTITLE:;
#MUSIC:Dadadadadadadadadada.ogg;
#OFFSET:0.000000;
#SAMPLESTART:59.816002;
#SAMPLELENGTH:15.000000;
#SELECTABLE:YES;
#BPMS:0.000000=156.000000
;
#STOPS:
;
#BGCHANGES:0.000=Dadadadadadadadadada.avi=1.000=0=0=0=StretchNoLoop====,
99999=-nosongbg-=1.000=0=0=0 // don't automatically add -songbackground-
;
#KEYSOUNDS:;
#ATTACKS:;

//---------------dance-single - ----------------
#NOTES:
     dance-single:
     :
     Challenge:
     15:
     0.803362,0.880267,0.518081,0.065938,1.017323,597.000000,542.000000,55.000000,7.000000,0.000000,0.000000,0.803362,0.880267,0.518081,0.065938,1.017323,597.000000,542.000000,55.000000,7.000000,0.000000,0.000000:
// measure 0
0000
0000
0000
0000
,  // measure 1
0000
0000
0000
0000
,  // measure 2
0000
0000
0000
0000
,  // measure 3
0000
0000
0000
0000
,  // measure 4
0000
0000
0000
0000
,  // measure 5
0000
0000
0000
0000
,  // measure 6
0001
0001
0001
1000
1000
1000
0010
0010
0010
1001
0000
0000
,  // measure 7
1000
0010
0000
0010
0100
0000
0001
0000
0010
0100
0000
0100
1000
0000
0010
0000
,  // measure 8
0100
0010
0000
0010
1000
0000
0100
0000
0010
0000
0001
0000
1001
0000
0000
0000
,  // measure 9
0001
0010
0000
0010
0100
0000
1000
0000
0010
0100
0000
0100
0001
0000
0010
0000
,  // measure 10
0100
0010
0000
0010
0001
0000
0100
0000
0010
0000
1000
0000
1001
0000
0000
0000
,  // measure 11
1000
0010
0000
0010
0100
0000
0100
0000
0001
1000
0000
1000
0010
0000
0010
0000
,  // measure 12
0100
0001
0000
0001
0010
0000
0010
0000
0001
0000
1000
0000
0110
0000
0000
0000
,  // measure 13
0001
0010
0000
0010
0100
0000
0100
0000
1000
0001
0000
0001
0100
0000
0100
0000
,  // measure 14
0010
1000
0000
1000
0010
0000
0010
0000
0100
0000
0110
0000
1001
0000
0000
0000
,  // measure 15
1000
0100
1000
0100
1000
0001
1000
0001
0000
0001
0010
0100
1000
0000
0010
0000
,  // measure 16
0100
0001
0100
0001
1000
0001
1000
0001
1000
0010
1000
0010
0100
0000
0001
0000
,  // measure 17
1000
0000
0000
1000
0100
0000
0000
0100
0010
0000
0000
0010
0001
0000
0000
0001
,  // measure 18
0100
0000
0000
0100
0010
0000
0000
0010
1000
0000
0000
1000
0100
0000
1000
0000
,  // measure 19
0001
0100
0001
0100
0001
1000
0001
1000
0000
1000
0010
0100
0001
0000
1000
0000
,  // measure 20
0010
1000
0010
1000
0001
1000
0001
1000
0001
0010
0001
0010
0100
0000
1000
0000
,  // measure 21
0001
0000
0000
0001
0100
0000
0000
0100
0010
0000
0000
0010
1000
0000
0000
1000
,  // measure 22
0100
0000
0000
0100
0010
0000
0000
0010
0001
0000
0100
0000
0010
0000
0000
0000
,  // measure 23
1000
0100
0010
0100
0000
0000
1000
0000
0001
0010
0100
0010
0000
0000
0001
0000
,  // measure 24
1000
0010
0100
0010
0000
0000
0010
0000
1000
0000
0001
0000
1001
0000
0000
0000
,  // measure 25
0001
0100
0010
0100
0000
0000
0001
0000
1000
0010
0100
0010
0000
0000
1000
0000
,  // measure 26
0001
0010
0100
0010
0000
0000
0010
0000
0001
0000
1000
0000
1001
0000
0000
0000
,  // measure 27
0001
0010
0100
0010
0000
0000
0010
0000
1000
0010
0100
0010
0000
0000
0010
0000
,  // measure 28
0001
0010
0100
0010
0000
0000
0010
0000
1000
0000
0001
0000
0110
0000
0000
0000
,  // measure 29
1000
0010
0100
0010
0000
0000
0010
0000
0100
0010
0001
0010
0000
0000
0010
0000
,  // measure 30
0100
0010
1000
0010
0000
0000
0010
0000
0001
0000
1000
0000
0110
0000
0000
0000
,  // measure 31
1000
0010
1000
0010
0100
0010
0100
0010
0000
0010
1000
0001
0100
0000
0001
0000
,  // measure 32
0100
0010
0100
0010
0100
0001
0100
0001
1000
0001
1000
0001
0010
0000
0100
0000
,  // measure 33
1000
0000
0000
1000
0100
0000
0000
0100
0001
0000
0000
0001
1000
0000
0000
1000
,  // measure 34
0010
0000
0000
0010
0001
0000
0000
0001
0100
0000
0000
0100
0010
0000
1000
0000
,  // measure 35
0010
1000
0010
1000
0000
1000
0100
0000
0100
0010
0100
0010
0000
0010
0001
0000
,  // measure 36
0001
1000
0001
1000
0100
1000
0100
1000
0100
0010
0100
0010
0001
0000
1000
0000
,  // measure 37
0010
0000
0000
0010
1000
0000
0000
1000
0001
0000
0000
0001
0100
0000
0000
0100
,  // measure 38
1000
0000
0000
1000
0010
0000
0000
0010
0001
0000
0000
0001
0100
0000
0010
0000
,  // measure 39
0100
0000
0000
1100
0000
0000
0110
0000
0010
0000
0000
0101
0000
0000
1001
0000
,  // measure 40
1000
0000
0000
0110
0000
0000
1010
0000
0010
0000
0100
0000
0001
0000
0000
0000
,  // measure 41
0001
0000
1000
0000
0100
0000
0010
0000
0100
0000
1000
0010
0000
0000
0100
0000
,  // measure 42
0001
0010
0100
0010
0001
0000
1001
0001
,  // measure 43
0100
0000
0000
0011
0000
0000
1001
0000
0001
0000
0000
0110
0000
0000
0101
0000
,  // measure 44
0100
0000
0000
1010
0000
0000
0101
0000
0010
0000
0100
0000
1001
0000
0000
0000
,  // measure 45
1000
0000
0100
0000
0001
0000
0010
1000
,  // measure 46
0100
0110
1000
1001
,  // measure 47
0100
0000
0000
0001
0010
0000
0000
0000
,  // measure 48
2020
3030
0202
0303
,  // measure 49
1000
1000
1000
0100
0100
0100
0010
0010
0010
0011
0000
0000
,  // measure 50
0001
0001
0001
1000
1000
1000
0010
0010
0010
0110
0000
0000
,  // measure 51
0100
0100
0100
0100
0100
0100
0010
0010
0010
0010
0010
0010
,  // measure 52
1000
1000
1000
1000
1000
1000
1001
0000
0000
0000
0000
0000
,  // measure 53
1010
0010
0010
0010
0010
0010
0210
0010
0010
0310
0000
0000
,  // measure 54
0101
0100
0100
0100
0100
0100
0120
0100
0100
0130
0000
0000
,  // measure 55
1010
0010
0010
0010
0010
0010
0210
0010
0010
0310
0010
0010
,  // measure 56
0011
0010
0010
0010
0010
0010
1010
0000
0000
0000
0000
0000
,  // measure 57
1100
0100
0100
0110
0000
0000
0011
0010
0010
0110
0000
0000
,  // measure 58
1001
1001
1001
1001
1001
1001
1001
0000
0000
0000
0000
0000
,  // measure 59
1000
0010
0000
0010
0100
0000
0001
0000
0010
0100
0000
0100
1000
0000
0010
0000
,  // measure 60
0100
0010
0000
0010
1000
0000
0100
0000
0010
0000
0001
0000
1001
0000
0000
0000
,  // measure 61
0001
0010
0000
0010
0100
0000
1000
0000
0010
0100
0000
0100
0001
0000
0010
0000
,  // measure 62
0100
0010
0000
0010
0001
0000
0100
0000
0010
0000
1000
0000
1001
0000
0000
0000
,  // measure 63
1000
0010
0000
0010
0100
0000
0100
0000
0001
1000
0000
1000
0010
0000
0010
0000
,  // measure 64
0100
0001
0000
0001
0010
0000
0010
0000
0100
0000
1000
0000
1001
0000
0000
0000
,  // measure 65
0001
0010
0100
0010
0000
0000
0100
0000
1000
0010
0100
0010
0000
0000
0100
0000
,  // measure 66
0010
1000
0000
1000
0010
0000
0010
0000
0100
0000
0110
0000
1001
0000
0000
0000
;
