#TITLE:DIAVOLO;
#SUBTITLE:;
#ARTIST:度胸兄弟;
#TITLETRANSLIT:;
#SUBTITLETRANSLIT:;
#ARTISTTRANSLIT:Dokyou kyoudai;
#GENRE:;
#CREDIT:;
#BANNER:DIAVOLO.png;
#BACKGROUND:DIAVOLO-bg.png;
#LYRICSPATH:;
#CDTITLE:;
#MUSIC:DIAVOLO.ogg;
#OFFSET:0.000000;
#SAMPLESTART:67.510002;
#SAMPLELENGTH:15.000000;
#LASTBEATHINT:288.000000;
#SELECTABLE:YES;
#BPMS:0.000000=160.000000
;
#STOPS:
;
#BGCHANGES:0.000=DIAVOLO.avi=1.000=0=0=0=StretchNoLoop====,
99999=-nosongbg-=1.000=0=0=0 // don't automatically add -songbackground-
;
#KEYSOUNDS:;
#ATTACKS:;

//---------------dance-single - ----------------
#NOTES:
     dance-single:
     :
     Edit:
     20:
     1.386914,2.308929,0.738014,0.342649,2.473225,1105.000000,1021.000000,84.000000,39.000000,0.000000,0.000000,1.386914,2.308929,0.738014,0.342649,2.473225,1105.000000,1021.000000,84.000000,39.000000,0.000000,0.000000:
0000
0000
0000
0000
,
0000
0000
0000
0000
,
0000
0000
0000
0000
,
0000
0000
0000
0000
,
0000
0000
0000
0000
,
2001
0000
0000
0000
3001
0010
0100
1000
0002
0000
0000
1003
0100
0010
0001
0100
,
0020
0000
0000
0000
0130
0001
0010
0100
2000
0000
0000
3010
1000
0100
0010
0001
,
2000
0000
0000
3100
0010
0001
0100
0010
2000
0000
0000
3010
0100
0001
0010
0100
,
1000
0000
0000
1100
0000
0000
0001
0000
0000
0101
0000
0000
1001
0000
0000
0001
0010
0100
1000
0000
0000
0001
0100
0010
,
1000
0100
1000
0100
0010
0001
0010
0011
,
1001
1000
0010
1000
0010
1010
0101
0000
,
1001
0010
0001
0010
0001
1000
0010
1010
,
1001
1000
0010
1000
0001
0101
1001
0100
,
2000
0000
0000
0000
3001
0010
0100
1000
0002
0000
0000
1003
0010
0100
0001
0010
,
0200
0000
0000
0000
0310
0001
0100
0010
2000
0000
0000
3001
1000
0100
0010
0001
,
0200
0000
0000
0310
1000
0100
1000
0001
0020
0000
0000
0031
0100
0001
0010
0001
,
2000
0000
3001
0100
0020
0000
1030
0100
0020
0000
0030
0000
1001
0000
0000
0000
,
1010
0100
0001
0010
0011
0100
1000
0001
,
0110
0100
0001
1000
1100
0100
0010
0001
,
0101
0010
0100
0010
1000
0010
1000
0010
1010
1000
0001
1000
0001
0100
0001
0100
,
0110
0000
0000
1010
0000
0000
1100
0000
0000
0101
0000
0000
0110
0000
0000
1010
0000
0000
1000
0100
0010
0001
0010
0100
,
2000
0000
0000
3100
0010
0100
0020
0000
,
0032
0000
0000
0103
0010
0100
0001
0010
,
0100
1000
0001
0010
0100
1000
0001
0010
0100
1000
0010
0100
1000
0100
0010
0001
,
1000
0000
0000
0100
0000
0000
0001
0000
0000
1000
0000
0000
0100
0000
0000
0010
0000
0000
0001
0000
0000
1000
0000
0000
0100
0000
0000
0000
0000
0000
0110
0000
0000
0000
0000
0000
0010
0000
0001
0000
1000
0000
0100
0000
0010
0000
0001
0000
,
1000
0010
0100
0001
1000
0010
0100
0001
0010
0100
1000
0001
0010
0100
0010
0001
,
1000
0100
0010
0100
1000
0010
0001
0010
0100
1000
0001
0010
0100
0001
0010
0100
,
1000
0010
0100
1000
0100
0010
1000
0100
0010
0100
1000
0001
0010
0100
1000
0010
,
0100
0000
0000
0001
0000
0000
0010
0000
0000
0100
0000
0000
1000
0000
0000
0001
0000
0000
0010
0000
0000
0100
0000
0000
1000
0000
0000
0000
0000
0000
0000
0000
0010
0000
0000
0000
0100
0000
0000
0000
0010
0000
0000
0000
1000
0000
0000
0000
,
1100
0010
0001
0100
0010
0001
0010
0100
0001
0010
0100
1000
,
0101
0001
0010
0100
0001
0100
0220
0000
0000
0330
0000
0000
,
1001
1000
0010
0100
0001
0100
0010
1000
0100
0010
0001
0100
,
0110
0010
1000
1100
0100
0010
0110
0000
1010
0000
0011
0000
,
1000
0100
0010
0000
0100
0000
1000
0000
0010
0000
0100
0000
0101
0000
0010
0000
1000
0000
0100
0000
1000
0000
0010
0000
,
0100
0001
1000
0000
0100
0000
1000
0000
0010
0000
0100
0000
0110
0000
0001
0000
1000
0000
0100
0000
0010
0000
0100
0000
,
1000
0010
0100
0001
0100
0010
1000
0000
0100
0000
0010
0000
0001
0010
0100
1000
0100
0010
0001
0000
1000
0000
0001
0000
,
1001
0000
0100
0000
0001
0000
0110
0000
1000
0000
0010
0000
2002
0000
0000
0000
3003
0000
1000
0100
0010
0001
0010
0100
,
1000
0000
0000
0000
0001
0010
0100
1000
0001
0000
0000
0000
1000
0100
0010
0001
1000
0000
0000
0000
0001
0100
0010
1000
0001
0000
0000
0000
1000
0010
0100
0001
,
1000
0000
0000
0000
0100
1000
0001
0010
0100
0000
0000
0000
0010
0100
1000
0001
0020
0000
0000
0000
0130
1000
0100
0010
0001
0000
0000
0000
0001
0100
0010
0100
,
0002
0000
0000
0000
0000
0000
0000
0000
1003
0100
0010
0001
1000
0001
0010
0100
2000
0000
0000
0000
0000
0000
0000
0000
3001
0010
0100
1000
0001
1000
0100
0010
,
0002
0000
0000
0000
0000
0000
0000
0000
1003
0100
0010
0001
1000
0100
0010
0001
0010
0100
1000
0001
0010
0100
1000
0001
0100
0010
1000
0100
0010
0001
0010
0100
,
1000
0010
1000
0002
0000
0000
0103
0010
0100
0001
1000
0001
0010
0001
0100
0010
1000
0010
0100
0001
1000
0100
0010
0001
,
1000
0010
1000
0020
0000
0000
0130
0001
0100
0010
1000
0010
1000
0100
0010
0001
0010
0001
0100
0010
1000
0001
0010
0100
,
1000
0100
0010
0002
0000
0000
0000
0000
0000
0013
0001
0010
0100
1000
0100
0020
0000
0000
0031
0100
0010
1000
0001
0010
,
0001
0100
0010
0200
0000
0000
0000
0000
0000
0301
0010
0100
1000
0010
0100
1000
0100
0010
1000
0100
0010
0001
0100
0010
,
2000
0000
0000
0000
3010
0100
0010
0100
0001
0010
0100
1000
0010
0100
0001
0100
,
0020
0000
0000
0000
1030
0100
1000
0100
0010
0001
0100
0001
1000
0010
1000
0100
,
0020
0000
0000
0000
0031
0100
0010
1000
0001
0010
0100
1000
0010
0100
0010
0100
,
0001
0000
0010
0000
0100
0000
0010
0000
0001
0000
1000
0000
0010
0000
1000
0000
0010
0100
0010
0100
0010
0100
0010
0100
0001
1000
0001
1000
0001
1000
0001
1000
,
0002
0000
0000
0000
1003
0100
0010
0100
1000
0010
0100
0001
0110
0100
1000
0001
,
0020
0000
0000
0000
0130
1000
0010
0100
0001
0010
0001
1000
1001
0010
0100
1000
,
0002
0000
0000
0000
1003
0100
0010
0001
1000
0010
1000
0100
0010
0100
1000
0001
,
0010
0000
0000
0100
0000
0000
1000
0000
0000
0010
0000
0000
0100
0000
0010
0000
0100
0000
0001
0000
0010
0000
0100
0000
1000
0000
0000
0100
0000
0000
1000
0000
0000
0100
0000
0000
1001
0000
0000
0100
0000
0000
1000
0000
0000
0100
0000
0000
,
1010
0100
1000
0100
1100
0010
0100
0010
0101
0100
0010
0001
1100
0010
1000
0010
,
0110
1000
0110
0100
0110
0001
0110
0010
1100
0000
0110
0000
1001
0000
0011
0000
,
0101
1100
1010
0110
0011
1010
1100
0011
,
0101
0000
0000
0000
0000
0000
0110
0000
0000
0000
0000
0000
1010
0000
0000
0000
0000
0000
1100
0000
0000
0000
0000
0000
1000
0100
0010
0001
1000
0100
0010
0001
1000
0100
0010
0100
1000
0001
0010
0100
1000
0001
0010
0100
1000
0001
0010
0100
,
1000
0000
0000
0001
0000
0000
1000
0000
0000
0001
0000
0000
0100
0000
0000
0010
0000
0000
0100
0000
0000
0010
0000
0000
1000
0100
0010
0001
1000
0100
0010
0001
1000
0100
0010
0001
0010
0100
1000
0001
0010
0100
1000
0001
0010
0100
1000
0001
,
0010
0000
0000
0000
0000
0000
0100
0000
0000
0000
0000
0000
0010
0000
0000
0000
0000
0000
0100
0000
0000
0000
0000
0000
0010
0000
0000
0000
0000
0000
0100
0000
0000
0000
0000
0000
0010
0000
0000
0000
0000
0000
0100
0000
0000
0000
0000
0000
1000
0000
0000
0000
0000
0000
0001
0000
0000
0000
0000
0000
1000
0000
0000
0000
0000
0000
0001
0000
0000
0000
0000
0000
1000
0000
0000
0000
0000
0000
0001
0000
0000
0000
0000
0000
1000
0000
0000
0000
0000
0000
0001
0000
0000
0000
0000
0000
1000
0000
0000
0000
0100
0000
0000
0000
0010
0000
0000
0000
0001
0000
0000
0000
0010
0000
0000
0000
0100
0000
0000
0000
1000
0000
0000
0000
0100
0000
0000
0000
0010
0000
0000
0000
0001
0000
0000
0000
0010
0000
0000
0000
0100
0000
0000
0000
1000
0000
0000
0000
0100
0000
0000
0000
0010
0000
0000
0000
0001
0000
0000
0000
0010
0000
0000
0000
0100
0000
0000
0000
1000
0000
0000
0000
0100
0000
0000
0000
0010
0000
0000
0000
0001
0000
0000
0000
0010
0000
0000
0000
0100
0000
0000
0000
,
1000
0000
0000
0010
0000
0000
1000
0000
0000
0010
0000
0000
0100
0000
0000
0001
0000
0000
0100
0000
0000
0001
0000
0000
0010
0001
1000
0100
0010
0001
0010
0100
1000
0100
0010
0001
0010
0100
1000
0100
0010
0001
0010
0100
1000
0100
0010
0001
,
1000
0100
1000
0100
1000
0100
1000
0100
0010
0001
0010
0001
0010
0001
0010
0001
1000
0000
0000
0000
0100
0000
0000
0000
1000
0000
0000
0000
0100
0000
0000
0000
,
0110
1000
0100
0010
1001
0100
0001
0100
,
1010
0001
0010
0100
1001
0000
0011
0000
,
0110
1100
1010
0110
,
0011
0000
0000
0000
0000
0000
1010
0000
0000
0000
0000
0000
1000
0100
0010
0001
0010
0100
1000
0100
0010
0001
0010
0100
,
1000
0100
0010
0001
0010
0100
1000
0100
0010
0001
0010
0100
1000
0100
0010
0001
0010
0100
1000
0100
0010
0001
0010
0100
,
1000
0000
0000
0000
0000
0000
1001
0000
0000
0000
0000
0000
0001
0010
0100
1000
0100
0010
0001
0010
0100
1000
0100
0010
,
0001
0010
0100
1000
0100
0010
0001
0010
0100
1000
0100
0010
0001
0010
0100
1000
0100
0010
0001
0010
0100
1000
0100
0010
,
0001
0000
0000
0000
0000
0000
1001
0000
0000
0000
0000
0000
1000
0100
0010
0001
0010
0100
1000
0001
0010
0100
1000
0100
,
0010
0001
1000
0100
0010
0001
0010
0100
1000
0001
0010
0100
1000
0100
0010
0001
1000
0100
0010
0001
0010
0100
1000
0001
,
0010
0000
0000
0000
0000
0000
1001
0000
0000
0000
0000
0000
0100
0000
0000
0000
0000
0000
1001
0000
0000
0000
0000
0000
1000
0100
0010
0001
1000
0100
0010
0001
1000
0100
0010
0001
1000
0100
0010
0001
1000
0100
0010
0001
1000
0100
0010
0001
,
1000
0010
0100
0001
1000
0010
0100
0001
1000
0010
0100
0001
1000
0010
0100
0001
1000
0010
0100
0001
1000
0010
0100
0001
0010
0000
0000
0000
0000
0000
0000
0000
0000
0000
0000
0000
0220
0000
0000
0000
0000
0000
0000
0000
0000
0000
0000
0000
,
0330
0000
0000
0000
;

//---------------dance-double - ----------------
#NOTES:
     dance-double:
     :
     Edit:
     7:
     1.349260,2.304921,0.474437,0.325078,2.482011,1075.000000,1021.000000,54.000000,37.000000,0.000000,0.000000,1.349260,2.304921,0.474437,0.325078,2.482011,1075.000000,1021.000000,54.000000,37.000000,0.000000,0.000000:
// measure 0
00000000
00000000
00000000
00000000
,  // measure 1
00000000
00000000
00000000
00000000
,  // measure 2
00000000
00000000
00000000
00000000
,  // measure 3
00000000
00000000
00000000
00000000
,  // measure 4
00000000
00000000
00000000
00000000
,  // measure 5
10020000
00000000
00000000
00000000
01030000
00100000
00010000
00001000
00000100
00000000
00000000
00000001
00000010
00000100
00001000
00000100
,  // measure 6
00000020
00000000
00000000
00000000
00000031
00000100
00001000
00010000
00001000
00000000
00000000
00010000
00001000
00010000
01000000
10000000
,  // measure 7
00200000
00000000
00000000
10300000
01000000
00100000
00010000
00001000
00000200
00000000
00000000
00000310
00000001
00000100
00001000
00010000
,  // measure 8
00001000
00000000
00000000
00000000
00000000
00000000
00000100
00000000
00000000
00000001
00000000
00000000
00000010
00000000
00000000
00000000
00000000
00000000
00000100
00000000
00000000
00001000
00000000
00000000
00000010
00000000
00000000
00000000
00000000
00000000
00001000
00000000
00000100
00000000
00000010
00000000
00000001
00000000
00000000
00000000
00000000
00000000
00001000
00000000
00000010
00000000
00000100
00000000
,  // measure 9
00000001
00000010
00000100
00000010
00000001
00000100
00001000
00011000
,  // measure 10
00101000
00100000
00010000
00100000
01000000
10000000
01100000
00000000
,  // measure 11
10010000
00100000
10000000
00100000
01000000
00001000
00010000
00011000
,  // measure 12
00010010
00000010
00001000
00000100
00000010
00000001
00000110
00000000
,  // measure 13
00001002
00000000
00000000
00000000
00000103
00001000
00010000
00100000
02000000
00000000
00000000
03100000
10000000
01000000
00100000
00010000
,  // measure 14
00002000
00000000
00000000
00000000
00003100
00000010
00000001
00001000
00000200
00000000
00000000
00000310
00000001
00000100
00001000
00010000
,  // measure 15
00002000
00000000
00000000
00013000
00100000
10000000
00100000
00010000
00002000
00000000
00000000
00013000
00001000
00000010
00000001
00000010
,  // measure 16
00002000
00000000
00013000
00000100
00000020
00000000
00000130
00001000
00000010
00000000
00000110
00000000
00001001
00000000
00000000
00000000
,  // measure 17
00000001
00000100
00000001
00000100
00000010
00010000
00000010
00010000
,  // measure 18
00001000
00100000
00001000
00100000
00010000
10000000
00010000
10000000
,  // measure 19
00100000
10000000
00100000
10000000
00100000
10000000
00100000
10000000
00010000
01000000
00010000
01000000
00010000
01000000
00010000
01000000
,  // measure 20
00001000
00010000
00001000
00010000
00000100
00001000
00000100
00001000
00000010
00000100
00000010
00000100
00000001
00000010
00000001
00000010
,  // measure 21
00000200
00000000
00000000
00000310
00000001
00000100
00000020
00000000
,  // measure 22
00002030
00000000
00000000
00003100
00000010
00001000
00010000
00001000
,  // measure 23
00000100
00000001
00000010
00000100
00001000
00000010
00000100
00001000
00010000
00001000
00010000
00100000
01000000
00001000
00010000
00001000
,  // measure 24
00000100
00000000
00000000
00000001
00000000
00000000
00000010
00000000
00000000
00000100
00000000
00000000
00001000
00000000
00000000
00000010
00000000
00000000
00000100
00000000
00000000
00001000
00000000
00000000
00010000
00000000
00000000
00000000
00000000
00000000
00011000
00000000
00000000
00000000
00000000
00000000
00001000
00000000
00010000
00000000
00100000
00000000
00010000
00000000
00100000
00000000
01000000
00000000
,  // measure 25
10000000
01000000
00100000
00010000
00001000
00000100
00000010
00001000
00000001
00000010
00000100
00001000
00000010
00000100
00001000
00010000
,  // measure 26
01000000
00001000
00010000
00100000
01000000
10000000
01000000
00100000
00010000
00001000
00000100
00000010
00000001
00001000
00000010
00000100
,  // measure 27
00000001
00000010
00001000
00010000
00001000
00000010
00000001
00000010
00000100
00001000
00000010
00000100
00001000
00010000
00000100
00001000
,  // measure 28
00010000
00000000
00000000
00100000
00000000
00000000
00001000
00000000
00000000
00010000
00000000
00000000
00100000
00000000
00000000
01000000
00000000
00000000
00010000
00000000
00000000
10000000
00000000
00000000
01000000
00000000
00000000
00000000
00000000
00000000
00000000
00000000
00100000
00000000
00000000
00000000
00010000
00000000
00000000
00000000
01000000
00000000
00000000
00000000
00010000
00000000
00000000
00000000
,  // measure 29
00100000
01000000
10000000
00100000
00010000
00001000
00010000
01000000
10000000
00100000
00010000
00001000
,  // measure 30
00100000
00010000
00001000
00010000
00001000
00000100
00000220
00000000
00000000
00000330
00000000
00000000
,  // measure 31
00000001
00000010
00001000
00010000
00001000
00000100
00000001
00000010
00000100
00001000
00000010
00000100
,  // measure 32
00001000
00000100
00001000
00010000
00000100
00010000
00011000
00000000
01001000
00000000
01010000
00000000
,  // measure 33
00010000
10000000
00100000
00000000
01000000
00000000
00010000
00000000
00100000
00000000
01000000
00000000
10000000
00000000
00100000
00000000
01000000
00000000
00001000
00000000
00010000
00000000
00000010
00000000
,  // measure 34
00010000
00000100
00001000
00000000
00000010
00000000
00000100
00000000
00000001
00000000
00000010
00000000
00000100
00000000
00001000
00000000
00000010
00000000
00000100
00000000
00001000
00000000
00000100
00000000
,  // measure 35
00000001
00000010
00000100
00001000
00000100
00000010
00000001
00000000
00000100
00000000
00001000
00000000
00010000
00001000
00000100
00000010
00000100
00001000
00010000
00000000
00001000
00000000
00100000
00000000
,  // measure 36
00110000
00000000
01000000
00000000
10000000
00000000
10010000
00000000
00010000
00000000
00100000
00000000
02200000
00000000
00000000
00000000
03300000
00000000
10000000
01000000
00100000
00010000
00100000
01000000
,  // measure 37
10000000
00000000
00000000
00000000
10000000
01000000
00100000
00010000
00001000
00000000
00000000
00000000
01000000
00100000
00010000
00001000
00000100
00000000
00000000
00000000
00010000
00001000
00000100
00000010
00000001
00000000
00000000
00000000
00000001
00000010
00000100
00001000
,  // measure 38
00010000
00000000
00000000
00000000
00000010
00000100
00001000
00010000
00100000
00000000
00000000
00000000
10000000
01000000
00100000
00010000
00200000
00000000
00000000
00000000
00310000
00100000
01000000
10000000
00020000
00000000
00000000
00030000
10000000
00100000
01000000
00010000
,  // measure 39
20000000
00000000
00000000
00000000
30000000
00000000
00000000
00000000
10000000
01000000
00100000
00010000
00001000
00010000
00100000
01000000
20000000
00000000
00000000
00000000
00000000
00000000
00000000
00000000
30100000
00010000
00001000
00000100
00000010
00000100
00001000
00010000
,  // measure 40
00200000
00000000
00000000
00000000
00000000
00000000
00000000
00000000
10300000
01000000
00100000
00010000
00001000
00000100
00000010
00010000
10000000
01000000
00100000
00010000
00001000
00000100
00000010
00000001
00001000
00000001
00000010
00000100
00001000
00010000
00100000
01000000
,  // measure 41
10000000
01000000
10000000
00020000
00000000
00000000
01030000
00100000
00010000
00100000
00010000
00001000
00100000
00010000
00001000
01000000
00010000
00001000
00010000
00001000
00000100
00001000
00000100
00000010
,  // measure 42
00001000
00000100
00001000
00000002
00000000
00000000
00000013
00000100
00001000
00000010
00000100
00001000
00000100
00001000
00010000
00000100
00001000
00010000
00001000
00010000
00100000
00001000
00010000
00100000
,  // measure 43
01000000
00100000
01000000
00020000
00000000
00000000
00000000
00000000
00000000
01030000
00100000
00010000
00001000
00010000
00100000
02000000
00000000
00000000
03010000
00100000
01000000
10000000
01000000
00100000
,  // measure 44
00010000
01000000
00010000
20000000
00000000
00000000
00000000
00000000
00000000
31000000
00100000
00010000
00100000
00010000
00001000
00010000
00001000
00000100
00001000
00000100
00000010
00000100
00000010
00000001
,  // measure 45
00000200
00000000
00000000
00000000
00000310
00001000
00000001
00000010
00000100
00001000
00000010
00000100
00001000
00010000
00100000
01000000
,  // measure 46
00020000
00000000
00000000
00000000
00130000
00001000
00010000
00001000
00000100
00000010
00000100
00001000
00010000
00100000
00010000
00001000
,  // measure 47
00000200
00000000
00000000
00000000
00000310
00000100
00001000
00010000
00000100
00001000
00010000
00100000
00001000
00010000
00100000
01000000
,  // measure 48
00010000
00000000
00100000
00000000
00001000
00000000
00010000
00000000
00000100
00000000
00001000
00000000
00000010
00000000
00000100
00000000
00000001
00001000
00000001
00001000
00000001
00001000
00000001
00000000
00001000
00000001
00001000
00000001
00001000
00000001
00001000
00000000
,  // measure 49
00001002
00000000
00000000
00000000
00001003
00000001
00000010
00000100
00001000
00010000
00100000
01000000
10000000
01000000
00010000
00001000
,  // measure 50
00021000
00000000
00000000
00000000
00031000
00000100
00000001
00000010
00000100
00001000
00010000
00100000
01000000
10000000
01000000
00010000
,  // measure 51
00012000
00000000
00000000
00000000
00013000
00001000
00000100
00000010
00010000
00001000
00000100
00000010
00000100
00001000
00010000
01000000
,  // measure 52
10000000
01000000
00100000
00010000
00001000
00000100
00000010
00000001
00001000
00000010
00001000
00000010
00001000
00000010
00001000
00000010
,  // measure 53
00010000
00000100
00010000
00000100
00100000
00001000
00100000
00001000
01000000
00010000
01000000
00010000
10000000
00100000
10000000
00100000
,  // measure 54
10100000
10000000
00100000
10000000
00100000
10000000
00100000
10000000
01100000
00000000
01010000
00000000
01001000
00000000
00011000
00000000
,  // measure 55
00010100
00001010
00001001
00000110
00000011
00001100
00010010
00011000
,  // measure 56
01010000
00000000
00000000
00000000
00000000
00000000
00110000
00000000
00000000
00000000
00000000
00000000
10100000
00000000
00000000
00000000
00000000
00000000
01100000
00000000
00000000
00000000
00000000
00000000
10000000
01000000
00100000
00010000
00001000
00000100
00000010
00000001
00000010
00000100
00001000
00010000
00100000
01000000
10000000
01000000
00100000
00010000
00001000
00000100
00000010
00000001
00000010
00000100
,  // measure 57
00001000
00000000
00000000
00000100
00000000
00000000
00010000
00000000
00000000
00001000
00000000
00000000
00100000
00000000
00000000
00010000
00000000
00000000
01000000
00000000
00000000
00100000
00000000
00000000
10000000
01000000
00100000
00010000
00001000
00000100
00000010
00000001
00000010
00000100
00001000
00010000
00100000
01000000
10000000
01000000
00100000
00010000
00001000
00000100
00000010
00000001
00000010
00000100
,  // measure 58
00001000
00000000
00000000
00000000
00000000
00000000
00000100
00000000
00000000
00000000
00000000
00000000
00000010
00000000
00000000
00000000
00000000
00000000
00000001
00000000
00000000
00000000
00000000
00000000
00001000
00000000
00000000
00000000
00000000
00000000
00000100
00000000
00000000
00000000
00000000
00000000
00000010
00000000
00000000
00000000
00000000
00000000
00000001
00000000
00000000
00000000
00000000
00000000
00001000
00000000
00000000
00000000
00000000
00000000
00000100
00000000
00000000
00000000
00000000
00000000
00000010
00000000
00000000
00000000
00000000
00000000
00000001
00000000
00000000
00000000
00000000
00000000
00001000
00000000
00000000
00000000
00000000
00000000
00000100
00000000
00000000
00000000
00000000
00000000
00000010
00000000
00000000
00000000
00000000
00000000
00000001
00000000
00000000
00000000
00000000
00000000
00001000
00000000
00000000
00000000
00000001
00000000
00000000
00000000
00000010
00000000
00000000
00000000
00000100
00000000
00000000
00000000
00001000
00000000
00000000
00000000
00010000
00000000
00000000
00000000
00001000
00000000
00000000
00000000
00000100
00000000
00000000
00000000
00000010
00000000
00000000
00000000
00000001
00000000
00000000
00000000
00000010
00000000
00000000
00000000
00000100
00000000
00000000
00000000
00001000
00000000
00000000
00000000
00010000
00000000
00000000
00000000
00100000
00000000
00000000
00000000
01000000
00000000
00000000
00000000
10000000
00000000
00000000
00000000
01000000
00000000
00000000
00000000
00100000
00000000
00000000
00000000
00010000
00000000
00000000
00000000
00001000
00000000
00000000
00000000
00010000
00000000
00000000
00000000
00100000
00000000
00000000
00000000
01000000
00000000
00000000
00000000
,  // measure 59
10000000
00000000
00000000
00100000
00000000
00000000
01000000
00000000
00000000
00010000
00000000
00000000
00100000
00000000
00000000
00001000
00000000
00000000
00010000
00000000
00000000
00000100
00000000
00000000
00001000
00000100
00000010
00000001
00000010
00000100
00001000
00000010
00000100
00001000
00010000
00001000
00000100
00000010
00001000
00000100
00000010
00000001
00000010
00000100
00001000
00010000
00100000
01000000
,  // measure 60
10000000
01000000
00100000
00010000
10000000
01000000
00100000
00010000
10000000
01000000
00100000
00010000
10000000
01000000
00100000
00010000
10000000
00000000
00000000
00000000
01000000
00000000
00000000
00000000
00010000
00000000
00000000
00000000
00001000
00000000
00000000
00000000
,  // measure 61
00011000
00001000
00010000
00000100
00001100
00000010
00000001
00000100
,  // measure 62
00000110
00000001
00000100
00001000
00011000
00000000
00010010
00000000
,  // measure 63
00011000
00101000
10010000
10100000
,  // measure 64
01010000
00000000
00000000
00000000
00000000
00000000
01100000
00000000
00000000
00000000
00000000
00000000
01000000
00100000
00010000
00001000
00000100
00000010
00000001
00000010
00000100
00001000
00010000
00100000
,  // measure 65
01000000
00100000
00010000
00001000
00000100
00000010
00000001
00000010
00000100
00001000
00010000
00100000
01000000
00100000
00010000
00001000
00000100
00000010
00000001
00000010
00000100
00001000
00010000
00100000
,  // measure 66
01000000
00000000
00000000
00000000
00000000
00000000
10010000
00000000
00000000
00000000
00000000
00000000
10000000
01000000
00100000
00010000
00001000
00000100
00000010
00000100
00001000
00010000
00100000
01000000
,  // measure 67
10000000
01000000
00100000
00010000
00001000
00000100
00000010
00000100
00001000
00010000
00100000
01000000
10000000
01000000
00100000
00010000
00001000
00000100
00000010
00000100
00001000
00010000
00100000
01000000
,  // measure 68
10000000
00000000
00000000
00000000
00000000
00000000
01100000
00000000
00000000
00000000
00000000
00000000
10000000
01000000
00100000
00010000
00001000
00000100
00000010
00000001
00000010
00000100
00001000
00010000
,  // measure 69
00100000
01000000
10000000
01000000
00100000
00010000
00001000
00000100
00000010
00000001
00000010
00000100
00001000
00010000
00100000
01000000
10000000
01000000
00100000
00010000
00001000
00000100
00000010
00000001
,  // measure 70
00001000
00000000
00000000
00000000
00000000
00000000
00000000
00000000
00000000
00000000
00000000
00000000
00001001
00000000
00000000
00000000
00000000
00000000
00000000
00000000
00000000
00000000
00000000
00000000
00000001
00000010
00000100
00001000
00000001
00000010
00000100
00001000
00000001
00000010
00000100
00001000
00000010
00001000
00010000
00100000
00000010
00001000
00010000
00100000
00000010
00001000
00010000
00100000
,  // measure 71
00001000
00010000
01000000
10000000
00001000
00010000
01000000
10000000
00001000
00010000
01000000
10000000
00010000
00100000
01000000
10000000
00010000
00100000
01000000
10000000
00010000
00100000
01000000
10000000
00010000
00000000
00000000
00000000
00000000
00000000
00000000
00000000
00000000
00000000
00000000
00000000
20020000
00000000
00000000
00000000
00000000
00000000
30030000
00000000
00000000
00000000
00000000
00000000
;
