#TITLE:DEAD END;
#SUBTITLE:;
#ARTIST:N & S;
#TITLETRANSLIT:;
#SUBTITLETRANSLIT:;
#ARTISTTRANSLIT:;
#GENRE:;
#CREDIT:;
#BANNER:DEAD END.png;
#BACKGROUND:DEAD END-bg.png;
#LYRICSPATH:;
#CDTITLE:;
#MUSIC:DEAD END.ogg;
#OFFSET:0.000000;
#SAMPLESTART:54.317001;
#SAMPLELENGTH:15.000000;
#SELECTABLE:YES;
#DISPLAYBPM:190.000000;
#BPMS:0.000000=190.000000
;
#STOPS:
;
#BGCHANGES:;
#KEYSOUNDS:;
#ATTACKS:;

//---------------dance-couple - ----------------
#NOTES:
     dance-couple:
     :
     Challenge:
     9:
     0.330668,0.497442,0.150304,0.000000,0.005010,231.000000,216.000000,15.000000,0.000000,0.000000,0.000000,0.330668,0.542721,0.150304,0.000000,0.005010,231.000000,216.000000,15.000000,0.000000,0.000000,0.000000:
00000000
00000000
00000000
00000000
,
00000000
00000000
00000000
00000000
,
00000000
00000000
00000000
00000000
,
00000000
00000000
00000000
00000000
,
00000000
00000000
00000000
00000000
,
00000000
00000000
00000000
00000000
,
00000000
00000000
00000000
00000000
,
10001000
01000100
00010001
01000100
,
10001000
01000100
00010001
01000100
,
10001000
10011001
00000000
00000000
,
10000000
01000000
00100001
00000000
00100000
00010000
01000001
00000000
,
01000000
00100000
10000001
00000000
10000000
00010000
00100001
00000000
,
00100000
01000000
10000001
00000000
10000000
00100000
01000001
00000000
,
01000000
00010000
00100001
00000000
00100000
01000000
00100001
00000000
,
00001000
00000100
10000010
00000000
00000010
00000001
10000100
00000000
,
00000100
00000010
10001000
00000000
00001000
00000001
10000010
00000000
,
00000010
00000100
10001000
00000000
00001000
00000010
10000100
00000000
,
00000100
00000001
10000010
00000000
00000010
00000100
10000010
00000000
,
00100010
00011000
01000100
00000000
,
00010000
00100000
00010000
00000000
00000000
01000000
00000000
01000000
,
00010000
01000000
00100000
00000000
10000000
01000000
00100000
00000000
,
00000010
00000001
00000100
00000000
00000000
00000010
00000000
00000010
,
00001000
00000100
00000010
00000000
00000010
00000001
00000100
00000000
,
10001000
10001000
00010001
00010001
,
10001000
10001000
00010001
00010001
,
10001000
00010001
10001000
00010001
,
00001001
00000000
00000100
00000000
,
00000100
00000000
00000100
00000000
,
10010000
00000000
01000000
00000000
,
01000000
00000000
01000000
00000000
,
00010001
00010001
10001000
10001000
,
00100010
00100010
01000100
01000100
,
10000001
10000001
00011000
00011000
,
10000001
00000000
10000001
00000000
,
10000001
00000000
10000001
00000000
,
00100000
00000000
00100000
00000000
00010000
10000000
01000000
00000000
,
00100000
00000000
00100000
00000000
00010000
10000000
01000000
00000000
,
00000010
00000000
00000010
00000000
00001000
00000001
00000100
00000000
,
00000010
00000000
00000010
00000000
00001000
00000001
00000100
00000000
,
01000000
01000000
10000000
00000000
00000100
00000100
00000001
00000000
,
01000000
01000000
00010000
00000000
00000100
00000100
00001000
00000000
,
01000000
01000000
01000000
00000000
00000100
00000100
00000100
00000000
,
10011001
00000000
00000000
00000000
,
00010000
01000000
00100001
00000000
00100000
10000000
01000001
00000000
,
01000000
00100000
00010001
00000000
00010000
01000000
00100001
00000000
,
00100000
01000000
00010001
00000000
00010000
00100000
01000001
00000000
,
01000000
10000000
00100001
00000000
00100000
01000000
00010001
00000000
,
00000001
00000100
10000010
00000000
00000010
00001000
10000100
00000000
,
00000100
00000010
10000001
00000000
00000001
00000100
10000010
00000000
,
00000010
00000100
10000001
00000000
00000001
00000010
10000100
00000000
,
00000100
00001000
10000010
00000000
00000010
00000100
10000001
00000000
,
10011001
00000000
00000000
00000000
,
10000000
00100000
10000001
00000000
00000000
01000000
00000001
01000000
,
10000000
01000000
00100001
00000000
00010000
01000000
00100001
00000000
,
00100000
10000000
01000001
00000000
00000000
00100000
00000001
00100000
,
00010000
01000000
00100001
00000000
00100000
10000000
01000001
00000000
,
00001000
00000010
10001000
00000000
00000000
00000100
10000000
00000100
,
00001000
00000100
10000010
00000000
00000001
00000100
10000010
00000000
,
00000010
00001000
10000100
00000000
00000000
00000010
10000000
00000010
,
00000001
00000100
10000010
00000000
00000010
00001000
10000100
00000000
,
10010000
00000000
00000000
10010000
00000000
00000000
00000000
00000000
,
10010000
00000000
00100000
01000000
00000000
00000000
00000000
00000000
,
00001001
00000000
00000000
00001001
00000000
00000000
00000000
00000000
,
00001001
00000000
00000010
00000100
00000000
00000000
00000000
00000000
,
10010000
00000000
00000000
00001001
00000000
00000000
00000000
00000000
,
01100110
00000000
00010001
10001000
00000000
00000000
00000000
00000000
,
00001001
00000000
00000000
10010000
00000000
00000000
00000000
00000000
,
00000000
00000000
01100110
01100110
,
10000000
00000000
00100001
01000000
00000000
00010000
01000001
00000000
,
00100000
01000000
00010001
10000000
00000000
01000000
01000001
00000000
,
10000000
00000000
00100001
01000000
00000000
00010000
01000001
00000000
,
00100000
01000000
00010001
10000000
00000000
01000000
01000001
00000000
,
00001000
00000000
10000010
00000100
00000000
00000001
10000100
00000000
,
00000010
00000100
10000001
00001000
00000000
00000100
10000100
00000000
,
00001000
00000000
10000010
00000100
00000000
00000001
10000100
00000000
,
00000010
00000100
10000001
00001000
00000000
00000100
10000100
00000000
,
01100000
00000000
00000000
01100000
00000000
00000000
10010000
00000000
00000000
00000000
00000000
00000000
00000000
00000000
00000000
00000000
,
00000110
00000000
00000000
00000110
00000000
00000000
00001001
00000000
00000000
00000000
00000000
00000000
00000000
00000000
00000000
00000000
;

//---------------dance-solo - ----------------
#NOTES:
     dance-solo:
     :
     Easy:
     5:
     0.343551,0.543598,0.230466,0.000000,0.000000,240.000000,217.000000,23.000000,0.000000,0.000000,0.000000,0.343551,0.543598,0.230466,0.000000,0.000000,240.000000,217.000000,23.000000,0.000000,0.000000,0.000000:
000000
000000
000000
000000
,
000000
000000
000000
000000
,
000000
000000
000000
000000
,
000000
000000
000000
000000
,
000000
000000
000000
000000
,
000000
000000
000000
000000
,
000000
000000
000000
000000
,
000100
000000
001000
000000
,
000100
000000
001000
000000
,
100001
000010
000000
000000
,
000010
001000
000001
001000
,
100000
000000
001000
000000
000000
000010
000000
000010
,
000000
100000
000001
001000
,
000100
000000
001000
000000
000000
000001
000000
000001
,
000000
100000
000001
001000
,
000100
000000
100000
000000
000000
000010
000000
000010
,
000000
001000
000100
100000
,
000100
000000
100000
000000
000000
001000
000000
001000
,
000100
100000
100001
000000
,
000000
000000
000000
000000
,
010000
000001
010000
001000
,
100000
000000
001000
000000
000000
000010
000000
000010
,
000000
001000
000001
100000
,
000100
000000
001000
000000
000000
000001
000000
000001
,
000000
010000
001000
100000
,
000001
000000
001000
000000
000000
000100
000000
000100
,
100000
000000
000010
000000
,
010000
000000
000010
000000
,
010010
000000
001000
000000
,
001000
000000
001000
000000
,
100001
000000
000100
000000
,
000100
000000
100001
000000
,
100001
000000
000000
000000
,
001000
000000
001000
000000
,
001000
000000
001000
000000
,
001000
000010
100000
100000
,
000001
000100
001000
001000
,
010000
010000
010000
000001
,
000001
000001
001000
000100
,
100000
000000
100000
000000
,
000100
000000
001000
000000
,
000001
000000
000100
000000
,
100000
000000
000000
000000
,
000100
001000
000100
001000
,
000100
000000
010000
000000
000000
000001
000000
000001
,
000000
000100
001000
000010
,
000010
000000
001000
000000
000000
000100
000000
000100
,
000000
100000
000001
001000
,
000100
000000
010000
000000
000000
000010
000000
000010
,
000000
100000
001000
000100
,
000001
000000
001000
000000
000000
000100
000000
000100
,
001000
001000
100001
000000
,
000000
000000
000000
000000
,
001000
000010
010000
000100
,
100000
000000
001000
000000
000000
010000
000000
010000
,
000000
000001
000001
100000
,
100000
000000
100000
000000
000000
000100
000000
000100
,
000000
001000
000001
100000
,
000100
000000
001000
000000
000000
000010
000000
000000
,
001100
000000
000100
001000
000000
000000
000000
000000
,
100001
000000
000000
100001
000000
000000
000000
000000
,
100001
000000
000100
001000
000000
000000
000000
000000
,
100001
000000
000000
100001
000000
000000
000000
000000
,
100001
000000
000010
010000
000000
000000
000000
000000
,
010010
000000
000000
010010
000000
000000
000000
000000
,
001100
000000
000100
001000
000000
000000
000000
000000
,
100001
000000
000000
100000
000001
000000
000000
000000
,
000000
000000
000000
000000
,
000100
001000
000010
001000
,
000001
100000
100000
000000
000010
000000
001000
000000
,
000010
100000
100000
100000
,
000100
000000
001000
001000
000001
000000
100000
000000
,
000010
001000
000100
001000
,
000100
000000
010000
000000
000100
000100
001000
000000
,
100000
000001
001000
000100
,
000100
000000
001000
000010
000010
000000
001000
000000
,
100001
001100
001100
100001
,
010000
000010
010010
000000
;

//---------------dance-solo - ----------------
#NOTES:
     dance-solo:
     :
     Medium:
     7:
     0.490992,0.542721,0.050101,0.000000,0.025051,343.000000,338.000000,5.000000,0.000000,0.000000,0.000000,0.490992,0.542721,0.050101,0.000000,0.025051,343.000000,338.000000,5.000000,0.000000,0.000000,0.000000:
000000
000000
000000
000000
,
000000
000000
000000
000000
,
000000
000000
000000
000000
,
000000
000000
000000
000000
,
000000
000000
000000
000000
,
000000
000000
000000
000000
,
000000
000000
000000
000000
,
100000
000100
001000
000100
,
010000
000100
001000
000100
,
101000
000010
000000
000000
,
010000
001000
000100
000000
010000
001000
000100
000000
,
000100
000001
100000
000000
000000
100000
000000
100000
,
000100
001000
000001
000000
000001
000100
000010
000000
,
001000
000010
001000
000000
000000
000100
000000
000100
,
100000
000001
001000
000000
001000
000100
100000
000000
,
000010
001000
000010
000000
000000
000000
100000
001000
,
010000
001000
100000
000000
000000
000000
000001
000100
,
000001
000100
000010
000000
000000
000000
001000
000100
,
100001
001000
000010
000000
,
010000
100000
010000
000000
000000
001000
000000
001000
,
000010
001000
000100
000000
000001
001000
000010
000000
,
000010
001000
000001
000000
000000
000100
000000
000100
,
000010
000001
000010
000000
000100
001000
100000
000000
,
001000
000100
000001
000000
000000
000000
010000
001000
,
010000
000001
000100
000000
000000
000000
001000
010000
,
000000
000000
001000
000000
000000
000000
001000
010000
,
000001
000100
001000
000000
000000
100000
000000
000000
,
000000
100000
000000
000000
000000
100000
000000
000000
,
100000
000100
001000
000000
000000
001000
000000
000000
,
000000
001000
000000
000000
000000
001000
000000
000000
,
000001
000100
001000
000000
000000
001000
000000
000000
,
000000
001000
000000
000000
000000
100001
000000
100001
,
000000
100001
000000
000000
,
010000
000000
000000
010000
000000
000000
010000
000000
010000
000000
000000
010000
000000
000000
010000
000000
,
010000
000000
000000
010000
000000
000000
010000
000000
010000
000000
000000
000000
000000
000000
000000
000000
,
001000
000000
100000
000000
000001
000001
000001
000000
,
001000
000000
000010
000000
100000
100000
100000
000000
,
000100
000100
000100
000000
001000
001000
001000
000000
,
000001
000100
000010
100000
001000
001000
001000
000000
,
100000
000100
001000
000001
,
000100
001000
100000
001000
,
000100
000001
001000
000100
,
010000
000000
000000
000000
,
000001
001000
000010
000000
000010
100000
001000
000000
,
001000
010000
000001
000000
000000
100000
000000
100000
,
000100
001000
000010
000000
000010
001000
000100
000000
,
000100
100000
000001
000000
000000
000001
000000
000001
,
001000
000100
100000
000000
010000
000100
100000
000000
,
000010
000100
000001
000000
000000
000000
100000
001000
,
010000
001000
100000
000000
000000
000000
000001
001000
,
000010
001000
000001
000000
000000
000000
000100
001000
,
010000
001000
000100
000000
,
000001
001000
000001
000000
000000
000100
000000
000100
,
001000
000100
000001
000000
100000
000010
100000
000000
,
000100
001000
000010
000000
000000
010000
000001
010000
,
000001
001000
000100
000000
100000
000010
010000
000000
,
010000
000100
001000
000000
000000
000000
001000
000100
,
100000
000010
001000
000000
000000
000000
001000
000001
,
000000
000000
001000
000000
000000
000000
001000
000100
,
100000
001000
010000
000100
000000
000100
000000
000000
,
000001
001000
000100
010000
001000
100000
000000
000000
,
000010
001000
000100
100000
000000
100000
000000
000000
,
000001
001000
000100
100000
000100
001000
000000
000000
,
000001
000100
001000
100000
000000
000010
000000
000000
,
000001
001000
100000
001000
000001
000100
000000
000000
,
001000
100000
000100
010000
000000
100000
000000
000000
,
000010
001000
000100
001000
000010
100000
000000
000000
,
000001
010000
000001
000000
010000
000000
001000
000000
,
100000
000000
000010
000001
000000
000100
001000
000000
,
001000
000100
100000
000001
000000
001000
001000
000000
,
000010
000000
001000
000100
000000
100000
000001
000000
,
010000
001000
100000
000001
000000
000100
000100
000000
,
000010
000000
100000
001000
000000
000001
001000
000000
,
000100
001000
000010
100000
000000
001000
001000
000000
,
010000
000000
000100
001000
000000
000001
001000
000000
,
000100
001000
000010
100000
000000
001000
001000
000000
,
100000
000000
000000
001000
000000
000000
010000
000000
000000
000000
000000
000000
000001
000000
000000
000000
,
000000
000000
000000
001000
000000
000000
000010
000000
000000
000000
000000
000000
000000
000000
000000
000000
;

//---------------dance-solo - ----------------
#NOTES:
     dance-solo:
     :
     Hard:
     9:
     0.644158,0.697785,0.400810,0.000000,0.025051,450.000000,410.000000,40.000000,0.000000,0.000000,0.000000,0.644158,0.697785,0.400810,0.000000,0.025051,450.000000,410.000000,40.000000,0.000000,0.000000,0.000000:
000000
000000
000000
000000
,
000000
000000
000000
000000
,
000000
000000
000000
000000
,
000000
000000
000000
000000
,
000000
000000
000000
000000
,
000000
000000
000000
000000
,
000000
000000
000000
000000
,
010000
000000
010000
100000
000100
000000
001000
000010
,
000010
000000
001000
000100
100000
000000
010000
100000
,
010000
010001
000000
000000
,
100000
000100
001000
000000
001000
000010
001000
000000
,
000001
000001
100000
000000
100000
000100
001000
000000
,
001000
000001
100000
000000
100000
000001
001000
000000
,
001000
000010
000100
000000
000100
000001
000100
000000
,
001000
010000
000100
000000
001000
000010
000100
000000
,
001000
100000
000100
000000
000100
001000
000001
000000
,
000100
001000
100000
000000
000001
000100
001000
000000
,
100000
010000
001000
000000
000001
001000
000100
000000
,
001000
000000
010000
100000
010000
000000
000000
000000
,
000001
000010
000001
000100
000010
001000
000000
001000
,
000100
010000
000010
001000
000100
001000
000100
100000
,
000100
001000
000010
010000
000100
001000
000000
001000
,
000100
010000
000010
001000
000100
001000
000001
100000
,
000100
001000
000100
010000
000010
001000
000000
001000
,
000100
100000
001000
010000
000100
001000
000001
001000
,
000100
100000
001000
000100
000001
010000
000000
010000
,
001000
100000
000001
000100
,
100001
000000
001000
000100
000000
000100
010000
000000
,
010000
000001
100000
000010
,
001000
000000
001000
000100
001000
000100
001000
000000
,
000001
001000
000100
100000
,
100001
000000
000100
001000
000000
000100
000001
000000
,
001000
000100
100000
000001
,
000001
000000
001000
000000
000000
100000
000000
000000
000001
000000
001000
000000
000000
100000
000000
000000
,
000100
000000
001000
000000
000000
000001
000000
000000
001000
000000
000000
000000
000000
000000
000000
000000
,
100010
000000
010001
000000
000100
001000
000100
000000
,
010001
000000
100010
000000
001000
000100
001000
000000
,
000001
000100
000010
000000
100000
000100
010000
000000
,
001000
000100
000001
100000
000010
000010
000010
000000
,
100001
100100
010100
000110
,
000110
001100
001100
100001
,
100001
001010
011000
100001
,
001000
000000
000000
000000
,
100000
001000
000100
000001
001000
000100
001000
000100
,
100000
001000
000100
001000
100000
000010
000000
000010
,
001000
000100
001000
000001
000100
000010
100000
001000
,
010000
000001
000100
001000
100000
000100
000000
000100
,
001000
000001
100000
000001
100000
000100
001000
000010
,
001000
000001
001000
000100
100000
000100
000000
001000
,
000100
001000
000001
100000
001000
100000
000100
001000
,
000001
001000
000010
100000
000100
001000
000000
001000
,
000001
000100
000001
000000
100001
000000
000000
000000
,
001000
000100
001000
000100
100000
010000
000000
100000
,
000001
001000
000001
100000
000100
001000
000100
001000
,
000010
001000
000001
000100
001000
100000
000000
100000
,
001000
000100
000001
001000
000100
001000
000010
000010
,
010000
010000
000100
001000
000100
001000
000000
001000
,
000100
100000
001000
000100
000001
001000
000100
001000
,
000010
000001
000010
000001
000100
100000
000000
100000
,
000001
001000
000100
100000
000000
100001
000000
000000
,
001000
001000
001000
000100
000100
000100
000000
000000
,
000010
010000
000100
001000
000000
100001
000000
000000
,
001000
001000
001000
001000
000100
000100
000000
000000
,
010000
001000
100000
001000
000000
001010
000000
000000
,
100000
001000
001000
001000
001000
001000
000000
000000
,
000100
001000
000010
001000
000000
001001
000000
000000
,
100000
100000
100000
100000
100000
100000
000000
000000
,
000001
001000
100000
000000
100001
000000
100001
000000
,
000100
010000
000100
100000
000000
100001
000000
000000
,
001000
000010
001000
000001
000000
100001
000000
000000
,
000010
001000
010000
001000
000000
001010
000000
000000
,
000001
010000
100000
000010
000000
011000
000000
000000
,
000001
001000
000100
100000
000000
100001
000000
000000
,
001000
000100
001000
000010
000000
010010
000000
000000
,
100000
001000
000100
000001
000000
000011
000000
000000
,
000001
000100
001000
100000
000000
110000
000000
000000
,
001100
000000
000000
000110
000000
000000
000110
000000
000000
000000
001000
000000
100000
000000
000100
000000
,
010100
000000
000000
010100
000000
000000
100001
000000
000000
000000
000000
000000
000000
000000
000000
000000
;

//---------------dance-single - ----------------
#NOTES:
     dance-single:
     :
     Challenge:
     16:
     0.881781,1.016052,0.621255,0.250506,0.501012,616.000000,554.000000,62.000000,25.000000,0.000000,0.000000,0.881781,1.016052,0.621255,0.250506,0.501012,616.000000,554.000000,62.000000,25.000000,0.000000,0.000000:
// measure 0
0000
0000
0000
0000
,  // measure 1
0000
0000
0000
0000
,  // measure 2
0000
0000
0000
0000
,  // measure 3
0000
0000
0000
0000
,  // measure 4
0000
0000
0000
0000
,  // measure 5
2000
0000
3002
0000
,  // measure 6
2003
0000
3002
0000
,  // measure 7
2003
0100
3001
0000
0002
0100
1003
0000
,  // measure 8
2000
0100
3001
0100
0002
0100
1003
0100
,  // measure 9
2002
3003
0220
0000
0330
0000
0000
0000
,  // measure 10
1000
0000
1000
0100
1000
0000
0000
0000
0001
0000
0001
0100
0001
0000
0000
0000
,  // measure 11
0100
0000
0100
0001
0100
0000
0000
0000
0001
0000
1000
0000
0000
0000
1000
0000
,  // measure 12
0010
0000
0010
0100
0010
0000
0000
0000
1000
0000
1000
0100
1000
0000
0000
0000
,  // measure 13
0001
0000
0001
1000
0001
0000
0000
0000
0010
0000
0100
0000
0000
0000
0100
0000
,  // measure 14
1000
0000
1000
0001
0100
0000
0000
0000
0010
0000
0010
0100
0001
0000
0000
0000
,  // measure 15
0010
0000
0010
0001
0100
0000
0000
0000
0001
0000
1000
0000
0000
0000
1000
0000
,  // measure 16
0100
0000
0100
0010
0001
0000
0000
0000
1000
0000
1000
0001
0010
0000
0000
0000
,  // measure 17
0100
0000
0100
1000
0010
0000
0000
0000
0100
0000
0001
0000
0000
0000
1001
0000
,  // measure 18
0000
0000
0010
0000
0010
0100
0010
0000
1001
0000
0000
0000
0000
0000
0000
0000
,  // measure 19
0101
0000
0100
0001
1000
0000
0000
0000
1010
0000
0010
1000
0100
0000
0000
0000
,  // measure 20
0110
0000
0010
0100
1000
0000
0000
0000
1010
0000
0010
0100
0001
0000
0000
0000
,  // measure 21
0011
0000
0010
0001
0100
0000
0000
0000
0001
0000
1000
0000
0000
0000
1000
0000
,  // measure 22
1010
0000
0010
1000
0001
0000
0000
0000
1001
0000
0001
0100
0010
0000
0000
0000
,  // measure 23
1010
0000
0010
1000
0100
0000
0000
0000
1000
0000
0010
0000
0000
0000
0010
0000
,  // measure 24
0110
0000
0100
0010
1000
0000
0000
0000
1001
0000
1000
0001
0100
0000
0000
0000
,  // measure 25
0101
0000
0100
0001
0010
0000
0000
0000
0001
0000
0100
0000
0000
0000
0110
0000
,  // measure 26
1000
0000
0001
0000
1000
0000
0001
0000
0100
0010
1000
0000
0010
0000
0010
0000
,  // measure 27
0010
0000
0100
0000
0001
0000
0010
0000
0100
0010
0100
0000
1000
0000
1001
0000
,  // measure 28
1001
0000
1000
0000
0010
0000
1000
0000
0100
1000
0001
0000
0010
0000
0010
0000
,  // measure 29
0010
0000
0001
0000
1000
0000
0001
0000
0100
0001
0010
0000
0100
0000
0110
0000
,  // measure 30
0110
0000
0100
0000
1000
0000
0001
0000
0100
0001
0100
0000
0010
0000
0010
0000
,  // measure 31
0010
1000
0100
0010
0001
1001
0000
1001
,  // measure 32
0000
0000
0110
0000
0100
0000
0010
0000
0100
0010
0100
0000
0100
0000
0010
0000
,  // measure 33
0210
0000
0000
0010
0000
0000
0010
0000
0010
0000
0000
0010
0000
0000
0010
0000
,  // measure 34
0010
0000
0000
0010
0000
0000
0310
0000
0220
0000
0000
0000
0330
0000
0000
0000
,  // measure 35
1000
0100
1000
0100
1000
0000
0000
0000
0001
0100
0001
0100
0001
0000
0000
0000
,  // measure 36
0010
0100
0010
0100
0010
0000
0000
0000
0001
1000
0001
1000
0001
0000
0000
0000
,  // measure 37
1000
0010
1000
0010
1000
0000
0000
0000
0001
0010
0001
0010
0001
0000
0000
0000
,  // measure 38
0100
0001
0100
0001
0100
0000
0000
0000
0010
1000
0010
1000
0010
0000
0000
0000
,  // measure 39
2001
0000
0100
3000
0012
0000
1000
0003
,  // measure 40
2010
0000
0100
3000
0012
0000
0100
0000
,  // measure 41
2003
0100
3001
0100
0002
0100
1003
0100
,  // measure 42
2002
0000
3003
0000
,  // measure 43
1000
0000
1000
0100
1000
0000
1000
0000
0001
0000
0001
0100
0001
0000
0001
0000
,  // measure 44
0100
0000
0100
0001
0100
0000
0100
0000
0001
0000
1000
0000
0000
0000
1000
0000
,  // measure 45
0010
0000
0010
0100
0010
0000
0010
0000
1000
0000
1000
0100
1000
0000
1000
0000
,  // measure 46
0001
0000
0001
1000
0001
0000
0001
0000
0010
0000
0100
0000
0000
0000
0100
0000
,  // measure 47
1000
0000
1000
0001
0100
0000
0100
0000
0010
0000
0010
0100
0001
0000
0001
0000
,  // measure 48
0010
0000
0010
0001
0100
0000
0100
0000
0001
0000
1000
0000
0000
0000
1000
0000
,  // measure 49
0100
0000
0100
0010
0001
0000
0001
0000
1000
0000
1000
0001
0010
0000
0010
0000
,  // measure 50
0100
0000
0100
1000
0010
0000
0010
0000
1000
0000
0001
0000
0000
0000
1001
0000
,  // measure 51
0000
0000
0110
0000
0010
0100
0010
0000
1001
0000
0000
0000
0000
0000
0000
0000
,  // measure 52
0101
0000
0100
0001
1000
0000
1000
0000
1010
0000
0010
1000
0100
0000
0100
0000
,  // measure 53
0110
0000
0010
0100
1000
0000
1000
0000
1010
0000
0010
0100
0001
0000
0001
0000
,  // measure 54
0011
0000
0010
0001
0100
0000
0100
0000
0001
0000
1000
0000
0000
0000
1000
0000
,  // measure 55
1010
0000
0010
1000
0001
0000
0001
0000
1001
0000
0001
0100
0010
0000
0010
0000
,  // measure 56
1010
0000
0010
1000
0100
0000
0100
0000
1000
0000
0010
0000
0000
0000
0010
0000
,  // measure 57
0110
0000
0100
0010
1000
0000
1000
0000
1001
0000
1000
0001
0100
0000
0100
0000
,  // measure 58
0101
0000
0100
0001
0010
0000
0010
0000
0001
0000
0100
0000
0000
0000
0110
0000
,  // measure 59
1001
1000
0100
0010
0000
1001
0000
0000
,  // measure 60
0100
0010
0100
0010
0100
0000
0010
0000
0010
0000
0010
0000
0000
0000
0000
0000
,  // measure 61
1001
1000
0010
0100
0000
1001
0000
0000
,  // measure 62
0100
0010
0100
0010
0100
0000
0100
0000
0010
0000
0010
0000
0000
0000
0000
0000
,  // measure 63
1001
0100
0010
1000
0000
1100
0000
0000
,  // measure 64
0001
1000
0100
1000
0100
0000
0100
0000
0100
0000
0100
0000
0000
0000
0000
0000
,  // measure 65
0110
0001
0100
0010
0000
0101
0000
0000
,  // measure 66
0100
0010
0100
0010
0100
0000
0100
0000
0100
0000
0100
0000
0000
0000
0000
0000
,  // measure 67
0001
0010
0100
0000
1001
0000
1001
0000
,  // measure 68
0010
0000
1000
0000
0010
0000
0100
0000
0001
1000
0001
0000
0010
0000
0001
0000
,  // measure 69
0100
0000
0010
0000
0100
0000
0001
0000
1000
0001
1000
0000
0010
0000
0100
0000
,  // measure 70
0001
0000
0010
0000
0100
0000
1000
0000
0100
1000
0100
0000
0010
0000
0001
0000
,  // measure 71
1000
0000
0100
0000
1000
0000
0010
0000
0100
0010
0100
0000
0001
0000
1000
0000
,  // measure 72
0001
0100
0001
0000
0100
0000
0010
0000
1000
0001
1000
0000
0100
0000
0010
0000
,  // measure 73
0100
1000
0100
0000
0001
0000
0100
0000
0010
0001
0010
0000
0001
0000
0100
0000
,  // measure 74
0010
1000
0010
0000
0100
0000
0001
0000
0010
0100
0010
0000
1000
0000
0010
0000
,  // measure 75
0001
0010
0001
0000
1000
0010
1000
0000
0001
0010
0100
0010
0001
0010
0100
0000
,  // measure 76
1001
0000
0000
0101
0000
0000
0101
0000
0000
0000
0010
0001
1000
0001
0100
0000
,  // measure 77
1001
0000
0000
1001
0000
0000
0110
0000
2002
0000
0000
0000
0000
0000
0000
0000
,  // measure 78
3003
0000
0000
0000
;
