#VERSION:0.83;
#TITLE:DDR TAGMIX -LAST DanceR-;
#SUBTITLE:;
#ARTIST:BEMANI Sound Team "TAG underground overlay UNLEASHED";
#TITLETRANSLIT:;
#SUBTITLETRANSLIT:;
#ARTISTTRANSLIT:;
#GENRE:;
#ORIGIN:;
#CREDIT:;
#BANNER:;
#BACKGROUND:DDR TAGMIX -LAST DanceR--bg.png;
#PREVIEWVID:;
#JACKET:DDR TAGMIX -LAST DanceR--jacket.png;
#CDIMAGE:;
#DISCIMAGE:;
#LYRICSPATH:;
#CDTITLE:;
#MUSIC:DDR TAGMIX -LAST DanceR-.ogg;
#OFFSET:0.000000;
#SAMPLESTART:1.765000;
#SAMPLELENGTH:15.000000;
#SELECTABLE:YES;
#DISPLAYBPM:50.000000:800.000000;
#BPMS:0.000=100.000,
9.000=200.000,
71.000=400.000,
257.000=200.000,
265.000=400.000,
326.000=100.000,
358.000=200.000,
390.000=800.000,
398.000=400.000,
400.000=200.000,
433.000=400.000,
479.000=50.000,
481.000=100.000,
483.000=200.000,
487.000=400.000,
491.000=800.000,
499.000=400.000;
#STOPS:0.000=6.600,
69.000=0.150,
69.500=0.150,
70.000=0.300,
135.000=0.300,
136.000=0.300,
138.000=0.150,
140.000=0.150,
314.000=0.150,
316.000=0.150,
318.000=0.150,
473.000=0.150,
473.500=0.150,
500.000=0.150,
502.000=0.150,
504.000=0.150,
506.000=0.150,
510.500=0.150,
515.000=0.150,
516.000=0.150,
519.000=0.150,
522.000=0.150;
#DELAYS:;
#WARPS:;
#TIMESIGNATURES:0.000=4=4;
#TICKCOUNTS:0.000=4;
#COMBOS:0.000=1;
#SPEEDS:0.000=1.000=0.000=0;
#SCROLLS:0.000=1.000;
#FAKES:;
#LABELS:0.000=Song Start;
#BGCHANGES:;
#KEYSOUNDS:;
#ATTACKS:
;

//---------------dance-single - ----------------
#NOTEDATA:;
#CHARTNAME:;
#STEPSTYPE:dance-single;
#DESCRIPTION:;
#CHARTSTYLE:;
#DIFFICULTY:Challenge;
#METER:18;
#RADARVALUES:0.957553,2.113744,0.643242,0.518979,0.624968,917.000000,829.000000,88.000000,71.000000,9.000000,0.000000,0.000000,0.000000,27.000000,0.957553,2.113744,0.643242,0.518979,0.624968,917.000000,829.000000,88.000000,71.000000,9.000000,0.000000,0.000000,0.000000,27.000000;
#CREDIT:yuisin;
#DISPLAYBPM:50.000000:800.000000;
#NOTES:
// measure 0
0000
0000
0000
0000
MMMM
0000
0100
0010
0000
1000
0010
0000
1000
0100
0000
0010
,  // measure 1
0001
1000
0100
0010
MMMM
0000
1000
0010
0000
0010
0100
0000
0100
0001
0000
0001
,  // measure 2
0010
0100
0010
0100
1000
0000
0001
0000
0010
0001
0010
0001
0010
0000
0100
0000
,  // measure 3
0010
0001
0010
0001
1000
0000
0010
0000
0100
0010
0100
0010
0100
0000
0001
0000
,  // measure 4
1000
0000
0100
0000
0010
0000
0100
0000
1000
0010
1000
0010
1000
0000
0001
0000
,  // measure 5
0010
0100
0010
0100
0010
0000
0001
0000
1000
0010
1000
0010
0100
0001
0100
0001
,  // measure 6
1000
0100
1000
0100
0010
0000
0100
0000
1000
0001
1000
0001
0100
0000
0010
0000
,  // measure 7
0100
0001
0100
0001
0010
0000
0100
0000
1000
0100
1000
0100
0010
0000
0001
0000
,  // measure 8
1000
0000
0010
0000
0100
0000
0001
0000
1000
0010
1000
0010
0100
0000
0001
0000
,  // measure 9
1000
0100
1000
0100
2000
0000
0000
0000
0000
0000
0002
0000
3003
0000
0000
0000
,  // measure 10
0110
0000
0000
1001
1001
0010
0100
1000
,  // measure 11
0001
0000
0100
0001
1000
0000
0001
0000
0010
0000
0100
0000
1000
0010
1000
0010
,  // measure 12
0100
0010
0100
0010
1000
0000
0001
0000
0010
0000
1000
0000
0100
0000
0010
0000
,  // measure 13
2002
0000
3003
0000
0001
0000
0000
0010
0100
0000
0000
0100
1000
0000
0000
1000
,  // measure 14
0001
0000
0000
0000
0100
0000
0010
0000
0100
0001
0100
0010
0000
0100
1000
0000
,  // measure 15
0001
0000
1000
0000
0010
0000
1000
0000
0010
0100
0010
0001
0000
0010
0100
0000
,  // measure 16
0010
0000
1000
0000
0100
0000
0100
0000
0010
0100
0000
1100
0000
0001
0100
0001
,  // measure 17
0100
0000
0000
0000
0010
0000
0000
0000
0202
0303
0000
0000
2200
3300
0000
0000
0220
0330
0000
0000
0000
0000
0000
0000
1000
0000
0000
0000
0000
0000
0000
0000
,  // measure 18
0001
0010
0001
0000
1000
0000
0001
0000
,  // measure 19
0100
0001
0100
0000
0010
0000
1000
0000
,  // measure 20
0100
1000
0100
0000
0010
0000
0001
1000
,  // measure 21
0001
0000
1000
0100
1000
0000
0001
0000
,  // measure 22
0100
0010
0100
0001
,  // measure 23
1000
0100
1000
0000
1100
0000
0000
0000
,  // measure 24
0011
0000
0101
1001
,  // measure 25
0100
0000
0100
0001
0100
0000
0010
0000
,  // measure 26
0100
0001
0010
0000
0100
0000
1000
0000
,  // measure 27
0010
1000
0100
0000
0010
0000
0001
0000
,  // measure 28
0100
0010
1000
0000
0001
0000
0100
0010
,  // measure 29
0001
0000
0010
0100
1000
0000
0100
0000
,  // measure 30
0000
0001
0000
0010
,  // measure 31
0000
1000
0100
0011
,  // measure 32
0101
1000
1001
0000
,  // measure 33
1100
0000
0000
0000
0000
0000
0000
0000
0000
0000
0000
0000
0000
0000
0000
0000
0101
0000
0000
0000
0000
0000
0000
0000
0220
0330
0000
0000
0000
0000
0000
0000
,  // measure 34
2002
3003
0000
0000
0000
0000
0000
0000
1100
0000
0000
0000
0000
0000
0000
0000
2002
3003
0000
0000
0000
0000
0000
0000
0101
0000
0000
0000
0000
0000
0000
0000
,  // measure 35
2002
3003
0000
0000
0000
0000
0000
0000
0010
0000
0000
0000
0000
0000
0000
0000
0100
0000
0000
0000
0000
0000
0000
0000
0220
0000
0000
0000
0000
0000
0000
0000
,  // measure 36
0330
0000
0010
1000
0000
1000
0100
0000
,  // measure 37
0100
0010
0000
0010
0001
0000
MMMM
0000
,  // measure 38
0100
0000
0010
0001
0000
0001
0010
0000
,  // measure 39
0010
0100
0000
0100
1000
0000
MMMM
0000
,  // measure 40
0100
0000
0010
1000
0000
1000
0100
0000
,  // measure 41
0100
0010
0000
0010
0001
0000
MMMM
0000
,  // measure 42
0001
0100
0000
0100
,  // measure 43
0000
0010
1000
0000
0001
0000
0100
0010
,  // measure 44
0100
0010
1000
0100
0000
0100
0001
0000
,  // measure 45
0001
0100
0000
0100
1000
0000
MMMM
0000
,  // measure 46
0100
0000
0010
1000
0000
1000
0010
0000
,  // measure 47
0010
0001
0000
0001
0010
0000
MMMM
0000
,  // measure 48
0010
0000
1000
0001
0000
0001
0100
0000
,  // measure 49
0100
0010
0000
0010
1000
0000
MMMM
0000
,  // measure 50
1000
0000
0100
0000
0000
0010
0000
0000
,  // measure 51
0001
2002
0000
3003
,  // measure 52
0000
1000
0010
0001
,  // measure 53
0012
0000
0013
1000
,  // measure 54
2010
0000
3001
0100
,  // measure 55
0000
2200
0000
3300
,  // measure 56
0000
0001
0010
1000
,  // measure 57
2010
0000
3010
0001
,  // measure 58
0012
0000
1003
0100
,  // measure 59
0000
0202
0000
0303
,  // measure 60
0000
1000
0100
0001
,  // measure 61
0102
0000
0103
1000
,  // measure 62
1100
0000
0001
0010
,  // measure 63
0001
2002
0000
3003
,  // measure 64
0000
0000
0010
0000
0000
0001
1000
0000
,  // measure 65
0000
0000
0010
0000
0100
0000
0000
0010
0000
0000
1000
0000
0001
0000
0000
0000
,  // measure 66
0110
0100
0100
0010
,  // measure 67
0001
0000
1000
0010
1000
0000
0001
0010
,  // measure 68
0001
0010
0001
0100
,  // measure 69
0010
0000
1000
0100
0010
0001
0010
0100
,  // measure 70
1000
0001
1000
0000
0010
0000
0100
0000
,  // measure 71
0001
0000
1100
0010
,  // measure 72
0001
0000
0101
0010
,  // measure 73
1000
0000
0001
0010
0100
1000
0100
0010
,  // measure 74
0001
1000
0001
0000
0001
0000
0100
0000
,  // measure 75
0100
0010
0010
1000
,  // measure 76
1000
0000
0001
0010
0001
0010
0100
1000
,  // measure 77
0100
1000
0001
0100
0010
1000
0100
0010
,  // measure 78
0001
0000
0000
0000
0100
0000
0000
0000
0010
0000
0000
0000
0000
0000
0000
0000
2020
3030
0000
0000
0000
0000
0000
0000
1000
0000
0000
0000
0000
0000
0000
0000
,  // measure 79
2002
3003
0000
0000
0000
0000
0000
0000
0100
0000
0000
0000
0000
0000
0000
0000
0220
0330
0000
0000
0000
0000
0000
0000
0010
0000
0000
0000
0000
0000
0000
0000
,  // measure 80
0100
1000
1001
0000
,  // measure 81
0001
0000
0100
0000
0001
0000
0100
0000
0010
0000
0001
0000
0100
0001
1000
0000
,  // measure 82
0010
0000
0100
1000
0001
0100
1000
0000
0101
0000
1000
0000
0100
1000
0001
0000
,  // measure 83
0010
0000
0100
0001
1000
0100
0001
0000
0010
0000
0010
0000
1001
0000
0001
0100
,  // measure 84
0010
0000
1010
0000
0101
0000
0000
0000
0010
0001
0001
0001
0010
0001
0001
0000
,  // measure 85
0010
1000
1000
1000
0010
1000
1000
0000
0100
0000
0010
0100
0000
0010
0001
0100
,  // measure 86
0010
0000
1000
0010
0000
0100
0001
0100
1000
0000
0100
0010
0000
1000
0010
0001
,  // measure 87
0010
0000
0100
0010
0000
1000
0001
0100
1000
0100
0001
1000
0001
1000
0010
0001
,  // measure 88
0010
1000
0001
1000
0001
0100
1000
0001
0100
1000
0001
1000
0001
0010
1000
0010
,  // measure 89
0001
1000
0001
1000
0100
0001
1000
0000
0010
1000
0000
0010
0100
0001
0200
0000
,  // measure 90
0010
0000
0000
0010
0000
0000
0310
0000
0000
0000
0000
0000
0000
0000
0000
0000
,  // measure 91
0000
0000
0000
0000
0000
0000
0000
0000
0010
1000
0000
0010
0100
0001
0200
0000
,  // measure 92
0010
0000
0000
0010
0000
0000
0310
0000
1000
0100
0000
1000
0001
0010
0002
0000
,  // measure 93
1000
0000
0000
1000
0000
0000
1003
0000
0100
1000
0000
0100
1000
0100
1000
0000
,  // measure 94
0100
0010
0000
0001
0100
0010
1000
0000
0001
0100
0000
0001
0100
0001
0100
0000
,  // measure 95
0010
1000
0000
0100
0010
0001
0100
0000
0100
0000
0000
1001
0000
0000
0001
0010
,  // measure 96
0100
0010
0000
0001
0000
0000
1000
0000
0010
0000
0000
1001
0000
0000
1000
0020
,  // measure 97
0200
0330
MMMM
0000
,  // measure 98
0000
0000
0000
0000
,  // measure 99
0000
0000
0000
0000
,  // measure 100
0000
0000
0000
0000
0010
0000
0000
0000
0001
0000
0101
0000
0000
1000
0100
1000
,  // measure 101
0001
0100
0010
1000
0001
0000
0000
0010
0000
0000
1100
0000
0001
0100
0001
0100
,  // measure 102
0001
0000
0000
0000
1010
0000
0000
0110
0000
0000
0101
0000
1000
0100
0010
0001
,  // measure 103
1000
0000
0000
0000
0010
0000
0000
1001
0000
0000
2200
0000
0000
0000
3300
0000
,  // measure 104
0001
1000
0010
1000
0001
0000
0000
0000
0100
0000
0010
0000
1000
0010
0100
0010
,  // measure 105
1000
0000
0001
0000
0010
0000
0000
0000
0100
0000
0010
0000
0001
0100
0010
1000
,  // measure 106
0001
1000
0001
0000
0010
0110
0000
0100
,  // measure 107
1001
0000
1010
0000
0000
0000
0100
0000
0010
0000
0100
0010
1000
0000
0001
0000
,  // measure 108
1000
0001
1000
0000
0001
0100
0001
0010
,  // measure 109
0100
0000
1000
0010
0100
0010
0001
0000
,  // measure 110
0010
1000
0001
0000
0010
0001
0100
0010
,  // measure 111
1000
0000
0001
0010
1000
0010
0001
0000
,  // measure 112
0100
0010
1000
0000
0100
0010
0100
0001
,  // measure 113
0100
0000
1000
0001
0100
0010
1000
0000
,  // measure 114
0001
1000
0010
0000
1010
0000
0101
0000
,  // measure 115
0001
1000
0100
0000
0010
0000
0100
0000
,  // measure 116
1000
0000
0001
0010
1000
0001
0100
1000
,  // measure 117
0010
0001
1000
0100
0001
1000
0100
0001
,  // measure 118
1000
0000
0000
0000
0010
0000
0000
0000
0022
0033
0000
0000
2020
3030
0000
0000
0202
0000
0000
0000
0000
0000
0000
0000
0000
0000
0000
0000
0000
0000
0000
0000
,  // measure 119
0000
0000
0303
0000
,  // measure 120
1000
0010
0100
0010
1000
0100
1000
0010
0100
0010
1000
0100
0010
0000
0001
0000
1000
0000
0100
0000
1000
0000
0001
0000
0100
0000
0001
0000
1000
0000
0010
0000
1000
0000
0001
0000
1000
0000
0000
0100
0000
0000
0010
0000
0000
0001
0000
0000
,  // measure 121
1000
0100
0010
0001
1000
0100
0010
0001
1000
0100
0010
0001
0010
0000
0001
0000
,  // measure 122
0100
1000
0001
0010
1000
0100
0010
0000
,  // measure 123
0001
0100
1000
0001
,  // measure 124
0010
1000
0100
0011
,  // measure 125
2200
3300
0000
0000
0000
0000
0000
0000
1010
0000
0000
0000
0000
0000
0000
0000
0202
0303
0000
0000
0000
0000
0000
0000
1001
0000
0000
0000
0000
0000
0000
0000
,  // measure 126
2200
3300
0000
0000
0000
0000
0000
0000
1001
0000
0000
0000
0000
0000
0000
0000
0202
0303
0000
0000
0000
0000
0000
0000
1001
0000
0000
0000
0000
0000
0000
0000
,  // measure 127
0110
0000
0000
0000
0000
0000
0000
0000
1000
0000
0000
0000
0010
0000
0000
0000
0001
0000
0000
0000
0200
0300
0000
0000
0110
0000
0000
0000
0000
0000
0000
0000
,  // measure 128
0001
0000
0000
0000
0100
0000
0000
0000
1000
0000
0000
0000
0010
0000
0000
0000
0001
0000
0000
0000
0000
0000
0000
0000
0022
0033
0000
0000
0000
0000
0000
0000
,  // measure 129
0220
0330
0000
0000
0000
0000
0000
0000
1000
0000
0000
0000
0100
0000
0000
0000
0001
0000
0000
0000
0000
0000
0000
0000
2002
3003
0000
0000
0000
0000
0000
0000
,  // measure 130
0001
0000
0000
0000
0100
0000
0000
0000
1000
0000
0000
0000
0000
0000
0000
0000
2002
3003
0000
0000
0000
0000
0000
0000
0110
0000
0000
0000
0000
0000
0000
0000
,  // measure 131
0110
1100
1100
0011
,  // measure 132
0011
0101
0101
1010
,  // measure 133
1001
0000
2200
0000
,  // measure 134
0000
0000
3300
0000
;

//---------------dance-double - ----------------
#NOTEDATA:;
#CHARTNAME:;
#STEPSTYPE:dance-double;
#DESCRIPTION:;
#CHARTSTYLE:;
#DIFFICULTY:Challenge;
#METER:18;
#RADARVALUES:0.906386,1.573019,0.431264,0.467812,0.533598,868.000000,809.000000,59.000000,64.000000,0.000000,0.000000,0.000000,0.000000,0.000000,0.906386,1.573019,0.431264,0.467812,0.533598,868.000000,809.000000,59.000000,64.000000,0.000000,0.000000,0.000000,0.000000,0.000000;
#CREDIT:yuisin;
#DISPLAYBPM:50.000000:800.000000;
#NOTES:
00000000
00000000
00000000
00000000
00001000
00000000
00000010
00000100
00000000
00000001
00000100
00000000
00000001
00000010
00000000
00000100
,
00001000
00000000
00000010
00010000
00001000
00000000
00100000
00010000
00000000
10000000
00100000
00000000
01000000
00010000
00000000
10000000
,
01000000
00000000
00100000
00000000
00100000
00000000
10000000
00000000
00010000
10000000
00010000
10000000
00010000
00000000
01000000
00000000
,
00100000
10000000
00100000
10000000
01000000
00000000
00010000
00000000
00001000
00010000
00001000
00010000
00001000
00000000
00000010
00000000
,
00000001
00000000
00001000
00000000
00000010
00000000
00000100
00000000
00000001
00000010
00000001
00000010
00000001
00000000
00001000
00000000
,
00000010
00000100
00000010
00000100
00000010
00000000
00010000
00000000
00001000
00100000
00001000
00100000
00001000
00000000
00010000
00000000
,
01000000
00000000
10000000
00000000
00100000
00000000
01000000
00000000
00010000
10000000
00010000
10000000
01000000
00000000
00010000
00000000
,
00000010
00010000
00000010
00010000
00001000
00000000
00000100
00000000
00000010
00001000
00000010
00001000
00000001
00000000
00001000
00000000
,
00000001
00000000
00000010
00000000
00000100
00000000
00010000
00000000
00001000
00100000
00001000
00100000
01000000
00000000
10000000
00000000
,
00010000
01000000
00010000
01000000
00020000
00000000
00000000
00000000
00000000
00000000
20000000
00000000
30030000
00000000
00000000
00000000
,
01100000
00000000
00000000
01001000
00010010
00000100
00000010
00000001
,
00001000
00000000
00000010
00000100
00001000
00000000
00010000
00000000
01000000
00000000
00100000
00000000
00010000
10000000
01000000
00100000
,
00010000
00001000
00000100
00000010
00000001
00000000
00000100
00000000
00000010
00000000
00010000
00000000
00001000
00000000
01000000
00000000
,
20020000
00000000
30030000
00000000
10000000
00000000
00000000
10000000
00010000
00000000
00000000
00010000
00001000
00000000
00000000
00001000
,
00000001
00000000
00000000
00000000
00000010
00000000
00001000
00000000
00000100
00000010
00000000
00000001
00000000
00000000
00000100
00000000
,
00001000
00000000
00010000
00000000
00100000
00000000
10000000
00000000
00100000
01000000
00000000
00010000
00000000
00000000
10000000
00000000
,
01000000
00000000
00100000
00000000
00001000
00000000
00001000
00000000
00100000
00010000
00000000
00100000
00000000
01000000
10000000
01000000
,
10000000
00000000
00000000
00000000
00010000
00000000
00000000
00000000
02000000
03000000
00000000
00000000
00002000
00003000
00000000
00000000
00022000
00033000
00000000
00000000
00000000
00000000
00000000
00000000
00000100
00000000
00000000
00000000
00000000
00000000
00000000
00000000
,
00000001
00000100
00000010
00000000
00001000
00000000
00000001
00000000
,
00001000
00000010
00000100
00000000
00000010
00000000
00001000
00000000
,
00000100
00010000
00001000
00000000
00010000
00000000
00001000
00010000
,
00000010
00001000
00010000
01000000
,
00100000
10000000
00010000
00100000
,
01000000
00100000
01000000
00000000
11000000
00000000
00000000
00000000
,
00110000
00000000
00101000
00011000
,
00010000
00001000
00000100
00001001
,
00000000
00000010
00000000
00010000
00001000
00000000
00010000
00000000
,
00000000
00000100
00000000
00010000
00001000
00000000
00100000
00000000
,
00000000
00001000
00000000
01000000
00001000
00000000
00010000
00000000
,
00001000
00010000
00001000
00000000
00000000
00000000
01000000
00000000
,
00000000
10000000
00000000
00100000
,
00000000
00010000
00001000
01010000
,
00100000
10000000
11000000
00000000
,
11000000
00000000
00000000
00000000
00000000
00000000
00000000
00000000
00000000
00000000
00000000
00000000
00000000
00000000
00000000
00000000
10100000
00000000
00000000
00000000
00000000
00000000
00000000
00000000
02200000
03300000
00000000
00000000
00000000
00000000
00000000
00000000
,
00202000
00303000
00000000
00000000
00000000
00000000
00000000
00000000
00010100
00000000
00000000
00000000
00000000
00000000
00000000
00000000
00002200
00003300
00000000
00000000
00000000
00000000
00000000
00000000
00001010
00000000
00000000
00000000
00000000
00000000
00000000
00000000
,
00000022
00000033
00000000
00000000
00000000
00000000
00000000
00000000
00001000
00000000
00000000
00000000
00000000
00000000
00000000
00000000
00010000
00000000
00000000
00000000
00000000
00000000
00000000
00000000
00100000
00000000
00000000
00000000
00000000
00000000
00000000
00000000
,
00000000
00000000
10010000
00000000
10000000
01000000
00000000
10000000
,
00010000
00000000
00100000
00010000
00000000
00100000
01000000
00000000
,
00010000
00000000
00001000
00000000
00000100
00000010
00000000
00000100
,
00000002
00000000
00000010
00000013
,
00000001
00000000
00001000
00000000
00000001
00000010
00000000
00000001
,
00000100
00000000
00000010
00001000
00000000
00000010
00000100
00000000
,
00001000
00000000
00010000
00000000
00001000
00100000
00000000
00010000
,
02000000
00000000
00100000
03100000
,
10000000
00000000
10000000
00000000
00010000
10000000
00000000
01000000
,
10000000
00000000
00100000
01000000
00000000
00010000
01000000
00000000
,
00100000
00000000
10000000
00000000
01000000
00100000
00000000
00001000
,
00020000
00000000
00031000
00001000
,
00010000
00000000
00000100
00000000
00010000
00000100
00000000
00001000
,
00000100
00000000
00000010
00000001
00000000
00001000
00000001
00000000
,
00000100
00000000
00000010
00000000
00010000
00000100
00000000
00001000
,
00000200
00010000
00020300
00001000
,
01030000
00000000
10000000
00000000
01000000
10000000
01000000
00000000
,
00010000
00000000
00001000
00000000
00010000
00001000
00010000
00000000
,
00001000
00000000
00000100
00000000
00000001
00000100
00000001
00000000
,
00001000
00000020
00000000
00000030
,
00000000
00000000
00000001
00000000
00000100
00000001
00000100
00000000
,
00001000
00000000
00010000
00000000
00001000
00010000
00001000
00000000
,
00010000
00000000
01000000
00000000
10000000
01000000
10000000
00000000
,
00010000
00200000
00000000
00300000
,
00000000
00000000
00001000
00000000
00100000
01000000
00100000
00000000
,
00001000
00000000
00010000
00000000
00000010
00000100
00000010
00000000
,
00010000
00000000
00001000
00000000
00100000
01000000
00100000
00000000
,
00001000
00020000
00000000
00030000
,
00000000
00000000
00002000
00000000
00003010
00000001
00002000
00000000
,
00003010
00000000
00000100
00000000
00000001
00000000
00001000
00000100
00001000
00000000
00000010
00000000
00002000
00000000
00000000
00000000
,
00003000
00010000
10000000
01000000
,
00010000
00000000
10000000
00100000
,
00010000
00001000
00000100
00000010
,
00000000
00000000
00000001
00000010
00000001
00000010
00000100
00010000
,
00001000
00100000
00010000
00000000
01000000
00000000
00100000
00000000
,
10000000
00000000
00100000
01000000
,
00010000
00000000
00010000
00100000
,
00000000
00000000
00010000
00100000
00010000
00100000
00010000
00001000
,
00000100
00000010
00000001
00000000
00000000
00000001
00000100
00000000
,
00000000
00000100
00000010
00000000
00000000
00000010
00001000
00000000
,
00000000
00001000
00000100
00010000
00000100
00010000
00001000
00100000
,
00001000
00100000
01000000
00100000
00010000
01000000
00100000
10000000
,
01000000
00000000
00000000
00000000
00100000
00000000
00000000
00000000
00010000
00000000
00000000
00000000
00000000
00000000
00000000
00000000
20000000
30000000
00000000
00000000
00000000
00000000
00000000
00000000
00001000
00000000
00000000
00000000
00000000
00000000
00000000
00000000
,
00020000
00030000
00000000
00000000
00000000
00000000
00000000
00000000
00000001
00000000
00000000
00000000
00000000
00000000
00000000
00000000
00002000
00003000
00000000
00000000
00000000
00000000
00000000
00000000
00000010
00000000
00000000
00000000
00000000
00000000
00000000
00000000
,
00000100
00000001
00002002
00000000
,
00003003
00000000
00011000
01000000
,
10010000
00000000
00000000
00000000
01000000
01000000
01000000
00000000
00011000
00000000
00100000
00000000
00010000
00010000
00010000
00000000
,
00010000
00000000
01000000
00000000
00010000
00010000
00010000
00000000
00010000
00000000
00001000
00000000
00000100
00000100
00000100
00000000
,
00000100
00000000
00001000
00000000
00001000
00001000
00001000
00000000
00011000
00000000
10010000
00000000
00100000
00100000
00100000
00000000
,
10010000
00000000
00000000
00100000
00100000
00000000
11000000
00000000
01100000
00000000
10000000
01000000
00000000
00100000
00010000
10000000
,
01000000
00000000
01000000
00100000
00000000
00100000
00001000
00010000
00001000
00000000
00010000
00000100
00000000
00001000
00000001
00000100
,
00000010
00000000
00000010
00000100
00000000
00000001
00001000
00000000
00000001
00000100
00000001
00000010
00001000
00000100
00010000
00000100
,
00010000
00001000
00100000
00010000
01000000
10000000
01000000
00100000
10000000
01000000
00010000
00001000
00010000
00000100
00001000
00000001
,
00000010
00000100
00001000
00000010
00000100
00000001
00001000
00000000
00000001
00001000
00000000
00000100
00010000
00001000
01000000
00000000
,
00010000
00000000
00000000
00010000
00000000
00000000
00010000
00000000
00000000
00000000
00000000
00000000
00000000
00000000
00000000
00000000
,
00000000
00000000
00000000
00000000
00000000
00000000
00000000
00000000
00000001
00001000
00000000
00000010
00010000
00001000
00100000
00000000
,
00010000
00000000
00000000
00010000
00000000
00000000
00010000
00000000
10000000
00010000
00000000
00100000
00001000
00010000
00000010
00000000
,
00001000
00000000
00000000
00001000
00000000
00000000
00001000
00000000
00000001
00000100
00000000
00000001
00000100
00000010
00001000
00000000
,
00000100
00010000
00000000
00000100
00010000
00001000
00100000
00000000
00010000
10000000
00000000
00010000
10000000
00100000
01000000
00000000
,
00010000
01000000
00000000
00010000
01000000
00010000
10000000
00000000
01000000
00100000
00000000
00010000
01000000
00001000
00010000
00000000
,
00000010
00001000
00000000
00000100
00000010
00000001
00000100
00000000
00000010
00000000
00000000
00001000
00000000
00000000
00000001
00000000
,
00002002
00003003
00000220
00000000
,
00000000
00000000
00000330
00000000
,
00000000
00000000
00000000
00000000
,
00000000
00000000
00000000
00000000
00000010
00000000
00000000
00000000
00000100
00000000
00000101
00000000
00000000
00000001
00000010
00000001
,
00001000
00000100
00010000
00001000
00010000
00000000
00000000
00001000
00000000
00000000
01010000
00000000
00100000
01000000
00100000
01000000
,
00100000
00000000
00000000
00000000
10100000
00000000
00000000
10010000
00000000
00000000
00110000
00000000
10000000
01000000
00100000
00010000
,
10000000
00000000
00000000
00000000
01010000
00000000
00000000
00011000
00000000
00000000
00002200
00000000
00000000
00000000
00003300
00000000
,
00001000
00000010
00000100
00000001
00001000
00000000
00000000
00000000
00000100
00000000
00001000
00000000
00000010
00010000
00001000
00010000
,
00000010
00000000
00010000
00000000
00001000
00000000
00000000
00000000
01000000
00000000
00010000
00000000
00100000
00001000
00010000
00001000
,
00100000
00010000
00100000
00000000
01000000
11000000
00000000
10000000
,
00100000
00000000
01100000
00000000
00000000
00000000
01000000
00000000
00001000
00000000
00010000
00001000
00010000
00000000
01000000
00000000
,
10000000
00000000
00010000
00000000
10000000
01000000
00100000
01000000
,
10000000
00000000
00010000
01000000
00001000
00010000
00000010
00000000
,
00000100
00000001
00001000
00000000
00000100
00000010
00000001
00000010
,
00000100
00000000
00001000
00000010
00000100
00000001
00001000
00000000
,
00000100
00010000
00001000
00000000
00100000
00010000
00000000
10000000
,
00100000
00000000
01000000
00010000
00000000
10000000
01000000
00100000
,
01000000
00010000
01000000
00000000
00100000
00000000
00010000
00000000
,
00001000
00000100
00000010
00000000
00000001
00000000
00000100
00000010
,
00000100
00000010
00001000
00000100
00000010
00000100
00010000
00001000
,
00100000
00010000
01000000
00100000
10000000
01000000
00100000
00001000
,
00010000
00000000
00000000
00000000
00001000
00000000
00000000
00000000
00022000
00033000
00000000
00000000
00002020
00003030
00000000
00000000
00000202
00000000
00000000
00000000
00000000
00000000
00000000
00000000
00000000
00000000
00000000
00000000
00000000
00000000
00000000
00000000
,
00000000
00000000
00000303
00000000
,
00002020
00000000
00000000
00003030
00000000
00000000
00000010
00000100
00000010
00000100
00000010
00000100
00000010
00000100
00000010
00000100
00000010
00000100
00001000
00000000
00010000
00000000
00001000
00000000
,
00010000
00000000
00001000
00000000
00010000
00000000
00001000
00000000
00010000
00000000
00001000
00000000
00010000
00000000
00001000
00000000
00010000
00000000
00100000
00000000
00000000
01000000
00000000
00000000
,
00100000
01000000
00100000
01000000
00100000
01000000
00010000
00000000
,
10000000
00010000
10000000
00010000
,
10000000
00010000
10000000
10100000
,
20020000
30030000
00000000
00000000
00000000
00000000
00000000
00000000
01010000
00000000
00000000
00000000
00000000
00000000
00000000
00000000
00022000
00033000
00000000
00000000
00000000
00000000
00000000
00000000
00001010
00000000
00000000
00000000
00000000
00000000
00000000
00000000
,
00002002
00003003
00000000
00000000
00000000
00000000
00000000
00000000
00000101
00000000
00000000
00000000
00000000
00000000
00000000
00000000
00002200
00003300
00000000
00000000
00000000
00000000
00000000
00000000
00000010
00000000
00000000
00000000
00000000
00000000
00000000
00000000
,
00000100
00000000
00000000
00000000
00000000
00000000
00000000
00000000
00010000
00000000
00000000
00000000
00001000
00000000
00000000
00000000
00100000
00000000
00000000
00000000
00020000
00030000
00000000
00000000
10000000
00000000
00000000
00000000
00000000
00000000
00000000
00000000
,
01000000
00000000
00000000
00000000
00100000
00000000
00000000
00000000
00001000
00000000
00000000
00000000
00010000
00000000
00000000
00000000
00000010
00000000
00000000
00000000
00000000
00000000
00000000
00000000
00002000
00003000
00000000
00000000
00000000
00000000
00000000
00000000
,
00002002
00003003
00000000
00000000
00000000
00000000
00000000
00000000
00000010
00000000
00000000
00000000
00000001
00000000
00000000
00000000
00000100
00000000
00000000
00000000
00000000
00000000
00000000
00000000
00000220
00000330
00000000
00000000
00000000
00000000
00000000
00000000
,
00000010
00000000
00000000
00000000
00001000
00000000
00000000
00000000
00000100
00000000
00000000
00000000
00000000
00000000
00000000
00000000
00000220
00000330
00000000
00000000
00000000
00000000
00000000
00000000
00000010
00000000
00000000
00000000
00000000
00000000
00000000
00000000
,
00001000
00010000
01000000
00010000
,
00001000
00000100
00001000
00010000
,
00011000
00000000
02200000
00000000
,
00000000
00000000
03300000
00000000
;
