#TITLE:Broken;
#SUBTITLE:;
#ARTIST:dj TAKA feat.AiMEE;
#TITLETRANSLIT:;
#SUBTITLETRANSLIT:;
#ARTISTTRANSLIT:;
#GENRE:;
#CREDIT:;
#BANNER:;
#BACKGROUND:Broken-bg.png;
#LYRICSPATH:;
#CDTITLE:;
#MUSIC:Broken.ogg;
#OFFSET:0.640000;
#SAMPLESTART:40.623634;
#SAMPLELENGTH:12.000000;
#SELECTABLE:YES;
#BPMS:0.000000=148.000000
,68.000000=74.000000
,92.000000=148.000000
,172.000000=74.000000
,180.000000=148.000000
,244.000000=74.000000
,264.000000=148.000000
;
#STOPS:
;
#BGCHANGES:;
#KEYSOUNDS:;
#ATTACKS:;

//---------------dance-single - ----------------
#NOTES:
     dance-single:
     :
     Beginner:
     1:
     0.004199,0.002572,0.000000,0.000000,0.000000,4.000000,4.000000,0.000000,0.000000,0.000000,0.000000,0.004199,0.002572,0.000000,0.000000,0.000000,4.000000,4.000000,0.000000,0.000000,0.000000,0.000000:
0000
0000
0000
0000
,
1000
1000
1000
1000
;

//---------------dance-single - ----------------
#NOTES:
     dance-single:
     :
     Hard:
     17:
     0.680312,0.782123,0.227821,1.028867,0.764301,648.000000,617.000000,31.000000,140.000000,0.000000,0.000000,0.680312,0.782123,0.227821,1.028867,0.764301,648.000000,617.000000,31.000000,140.000000,0.000000,0.000000:
// measure 0
0000
0000
0000
0000
,  // measure 1
0000
0000
0000
0000
,  // measure 2
0000
0000
0000
0000
,  // measure 3
0000
0000
0000
0000
,  // measure 4
0000
0000
0000
0000
,  // measure 5
1000
0100
1000
0100
0010
0001
0010
0001
,  // measure 6
0100
0010
0100
0010
1000
0100
1000
0100
,  // measure 7
0010
0001
1000
0001
0100
0010
1000
0010
,  // measure 8
0110
0000
0000
0101
0000
0000
1100
0000
0010
0000
0001
1000
0001
1000
0100
0000
,  // measure 9
0010
0001
1000
0000
0010
0100
0010
1000
0000
1000
0100
0000
0010
0000
0010
0001
,  // measure 10
0000
1000
0001
0000
0100
0000
0100
0001
0000
0001
0010
0100
0000
0100
0010
0000
,  // measure 11
0100
1000
0001
0000
0100
0010
0100
0001
0000
0001
1000
0000
0100
0000
0010
0001
,  // measure 12
0000
0001
0100
0000
0010
0000
1000
0100
0010
0001
0010
0001
1000
0010
0100
0010
,  // measure 13
1000
0100
0020
0000
0130
0001
0100
1000
0000
0010
0100
0000
0201
0000
0301
0010
,  // measure 14
0100
0020
1000
0030
0010
0001
0100
0001
0000
1000
0001
1000
0000
0001
0100
0000
,  // measure 15
0110
0010
2000
0000
3010
1000
0100
0000
1001
0100
0002
0000
0013
0001
1000
0000
,  // measure 16
1010
0000
0001
0000
0011
0000
1000
0000
0110
0000
0001
1000
0010
1000
0001
1000
,  // measure 17
0200
0000
0000
0000
,  // measure 18
0000
0000
0000
0000
0000
0000
0000
0000
0000
0000
0300
0000
0010
0001
1000
0010
,  // measure 19
0110
0100
0001
2000
0000
3100
0010
0001
1001
1000
0001
0020
0000
0130
1000
0010
,  // measure 20
0110
0100
0001
2000
0000
0000
3100
0010
0100
1000
0001
1000
0010
0100
0001
0010
,  // measure 21
0120
0000
0130
1000
0002
0000
0000
0000
2003
0000
3002
0000
0023
0000
0230
0000
,  // measure 22
2300
0000
0000
0000
0000
0000
3001
0200
0000
0000
0000
0000
0000
0000
0300
0000
,  // measure 23
0002
0010
1000
2003
0001
3020
0230
0320
,  // measure 24
2030
0001
0100
3200
0010
1000
2300
3020
,  // measure 25
0230
0001
0010
0320
1000
2030
0001
3002
,  // measure 26
0010
0203
0010
0302
1000
0023
0031
0100
,  // measure 27
0001
0010
0001
1000
0001
0010
0001
1000
0001
0000
0010
0001
0000
0100
0001
0000
,  // measure 28
1000
0010
1000
0001
1000
0010
1000
0001
1000
0000
0010
1000
0000
0001
0010
0000
,  // measure 29
0100
1000
0100
0010
0100
1000
0100
0010
0100
0000
0010
0001
0000
0100
0010
0000
,  // measure 30
1000
0010
0002
0000
1000
0103
0002
0000
0013
0001
0100
0001
1000
0010
0100
0001
,  // measure 31
2000
0010
0100
3000
2000
0100
0002
3003
0020
0001
0230
0000
1000
0301
0020
0000
,  // measure 32
2030
0100
0010
3000
0001
0200
1000
0300
0200
0010
2000
3300
0200
0010
2000
3300
,  // measure 33
0002
0100
0020
0033
0002
0100
0020
0033
0002
0010
0200
0303
0002
0010
0200
0303
,  // measure 34
0020
0001
0100
0030
0020
0100
2030
0000
0001
3010
0002
0000
1000
0203
0010
1300
,  // measure 35
0100
0010
2000
0000
0010
3001
0200
0000
0320
1000
0032
0000
0013
2000
0002
0003
,  // measure 36
3200
1000
0320
0000
0100
0032
0020
0030
0103
0000
0100
0000
0010
0000
0010
0000
,  // measure 37
0011
1100
0000
1010
0101
0000
0110
2002
,  // measure 38
0000
0000
3003
0000
0000
0000
1000
0000
0001
0000
0100
0010
1000
0100
1000
0000
,  // measure 39
0002
0000
0013
0001
0100
0000
0120
0000
2030
0000
3100
0010
1000
0000
2010
0000
,  // measure 40
3020
0000
1030
0010
0001
0000
0102
0000
0203
0000
1300
0100
0002
0000
0013
0000
,  // measure 41
0110
0000
0001
0100
0010
0000
0210
0000
1300
0000
2100
0000
3001
0000
0120
0000
,  // measure 42
1000
0000
1030
0000
0100
0000
1000
0000
0110
0000
0001
1000
0001
0010
0001
0100
,  // measure 43
0020
0000
0000
2030
,  // measure 44
3002
0000
0000
0000
0000
0000
0000
0000
0000
0000
0000
0000
0000
0000
0000
0000
1003
0100
1000
0000
0001
0100
0001
0000
1000
0100
0010
0001
0100
0010
1000
0001
,  // measure 45
0100
0000
0010
1000
0200
0000
0320
0000
1030
0000
0010
0001
0200
0000
0320
0000
,  // measure 46
0031
0000
0010
0100
0001
0000
0010
0001
1000
0010
1000
0100
0010
0001
0100
0010
,  // measure 47
1000
0000
0001
0100
2000
0000
3002
0000
0013
0000
1000
0100
0020
0000
2030
0000
,  // measure 48
3010
0000
0100
0010
0001
0000
0100
0010
1000
0010
0001
0010
0100
0000
0001
0000
,  // measure 49
0100
0010
1000
0010
0100
0010
1000
0000
0001
0010
0100
0010
0001
0010
0100
0000
,  // measure 50
0010
0001
0010
0000
0100
1000
0010
0100
0001
0010
0100
1000
0010
1000
0001
0000
,  // measure 51
0100
0010
1000
0010
1000
0100
0010
0001
0100
0010
0001
0010
0100
0001
1000
0001
,  // measure 52
0101
0000
0010
0000
1100
0000
0010
0000
1001
0000
0001
1000
0010
0100
0001
0010
,  // measure 53
0200
0000
0000
0000
1000
0000
0010
0300
0200
0000
0000
0000
1000
0300
0200
0000
0010
0000
0000
0000
1000
0300
0200
0000
0010
0000
0000
0000
0302
0000
1000
0000
,  // measure 54
0023
0000
0000
0000
1000
0000
0100
0030
0020
0000
0000
0000
0001
0000
0100
0030
0020
0000
0000
0000
0230
0000
0001
0000
0310
0000
0001
0000
0100
0000
0010
0000
,  // measure 55
0002
0000
0000
0000
0020
0033
0100
0000
0002
0000
0000
0000
0020
0033
0100
0000
0002
0000
0000
0000
0200
0303
0010
0000
0002
0000
0000
0000
0020
0033
0100
0000
,  // measure 56
2000
0000
0000
0000
0020
3030
0100
0000
2000
0000
0000
0000
0002
3003
0010
0000
2000
0000
0000
0000
0200
3300
0010
0000
2000
0000
0000
0000
0020
3030
0100
0000
,  // measure 57
2000
0000
3100
0001
0200
0010
0301
0100
0020
0000
0031
0010
2000
0010
3100
0001
,  // measure 58
0020
0000
0130
1000
0020
1000
0130
0010
0200
0000
1300
0001
0020
0100
2030
0010
,  // measure 59
3200
0000
0310
0001
0020
0100
0032
0010
0203
0000
0301
0100
1000
0100
0010
0001
,  // measure 60
0100
0001
0100
0001
1000
0100
1000
0001
0100
1000
0100
0010
1000
0001
0010
0100
,  // measure 61
0020
0032
0203
0320
,  // measure 62
2030
3200
0320
0032
,  // measure 63
1003
0000
0100
0000
,  // measure 64
0010
0000
1001
0000
;
