#VERSION:0.83;
#TITLE:2020;
#SUBTITLE:;
#ARTIST:Ω;
#TITLETRANSLIT:;
#SUBTITLETRANSLIT:;
#ARTISTTRANSLIT:;
#GENRE:;
#ORIGIN:;
#CREDIT:;
#BANNER:;
#BACKGROUND:2020-bg.png;
#PREVIEWVID:;
#JACKET:2020-jacket.png;
#CDIMAGE:;
#DISCIMAGE:;
#LYRICSPATH:;
#CDTITLE:;
#MUSIC:2020.ogg;
#OFFSET:-0.226000;
#SAMPLESTART:40.549999;
#SAMPLELENGTH:12.000000;
#SELECTABLE:YES;
#BPMS:0.000=148.000,
36.000=296.000,
100.000=148.000,
116.000=296.000,
211.000=148.000,
243.000=296.000,
371.000=148.000,
403.000=296.000;
#STOPS:178.000=0.101,
178.500=0.101;
#DELAYS:;
#WARPS:;
#TIMESIGNATURES:0.000=4=4;
#TICKCOUNTS:0.000=4;
#COMBOS:0.000=1;
#SPEEDS:0.000=1.000=0.000=0;
#SCROLLS:0.000=1.000;
#FAKES:;
#LABELS:0.000=Song Start;
#BGCHANGES:;
#KEYSOUNDS:;
#ATTACKS:
;

//---------------dance-single - ----------------
#NOTEDATA:;
#CHARTNAME:;
#STEPSTYPE:dance-single;
#DESCRIPTION:;
#CHARTSTYLE:;
#DIFFICULTY:Hard;
#METER:16;
#RADARVALUES:0.802219,0.990921,0.528321,0.110777,0.051128,659.000000,597.000000,62.000000,13.000000,0.000000,0.000000,0.000000,0.000000,0.000000,0.802219,0.990921,0.528321,0.110777,0.051128,659.000000,597.000000,62.000000,13.000000,0.000000,0.000000,0.000000,0.000000,0.000000;
#CREDIT:yuisin;
#NOTES:
0000
0000
0000
0000
,
0000
0000
0000
0000
,
0000
0000
0000
0000
,
0000
0000
0000
0000
,
0000
0000
0000
0000
,
2000
0010
0000
0001
0000
0100
0000
0010
,
0000
0100
0000
0001
0000
3010
0000
1000
,
0002
0100
0000
0010
0000
0100
0000
1000
,
0000
0010
0000
0100
0000
1003
0000
0100
,
1001
0000
0001
1000
0001
0000
1000
0010
,
1000
0000
0100
0010
0100
0000
0010
0001
,
0010
0000
0100
1000
0100
0000
1000
0001
,
1000
0000
0010
0100
0010
1000
0001
1000
,
0001
0000
1000
0001
1000
0000
0001
0100
,
0001
0000
0010
0100
0010
0000
0100
1000
,
0100
0000
0010
0001
0010
0000
0001
1000
,
0001
0000
0010
0100
1000
0001
1000
0001
,
1000
0000
0001
1000
0100
0000
0010
0001
,
0100
0000
0001
1000
0010
0000
0100
0001
,
1000
0000
0100
1000
0001
0000
0010
0001
,
1000
0000
0010
0100
0001
0000
1000
0100
,
0010
0000
0001
1000
0001
0000
0100
0001
,
0010
0000
0100
1000
0001
0000
1000
0010
,
0100
0001
1000
0010
,
1000
0001
1000
0100
0010
0001
0100
0010
,
0100
0000
0000
0000
0000
0000
0000
0000
0101
0000
0000
0110
0000
0000
1100
0000
,
1010
0000
0101
0000
,
1001
0000
0000
0000
0000
0000
0000
0000
0101
0000
0000
1010
0000
0000
1100
0000
,
1001
0001
0110
1000
,
0100
1000
0100
0000
0010
0001
0010
0000
,
0001
1000
0001
0000
1000
0000
0110
0000
,
0100
0001
0100
0000
0010
1000
0010
0000
,
1000
0001
1000
0000
0001
0000
0110
0000
,
0010
0100
0001
0000
0010
0100
1000
0000
,
0010
1000
0100
0000
0010
0001
0100
0000
,
0010
1000
0100
0000
0010
0100
1000
0010
,
0100
0001
0010
0001
0100
0001
1000
0100
,
0010
0001
0000
0100
0001
0000
1000
0010
,
0000
0100
0001
0000
1000
0010
0000
0010
,
1000
0100
0000
1000
0001
0000
0100
0001
,
0000
0010
0001
1000
0100
0000
0110
0000
,
0100
0001
0000
0010
0001
0000
1000
0100
,
0000
0010
0001
0000
1000
0100
0000
0100
,
1000
0010
0000
1000
0001
0000
0010
0001
,
0000
0000
0100
0000
0001
0000
1000
0000
0020
0030
0200
0300
0001
0000
0010
0000
,
0000
0010
0001
0000
0001
0100
0000
0100
,
0010
0000
1000
0100
0000
0010
0001
0100
,
0000
0100
0010
0000
0010
1000
0000
1000
,
0100
0010
0001
0000
0110
0000
0100
0001
,
0000
0001
1000
0000
1000
0010
0000
0010
,
0100
0000
0001
0010
0000
0100
1000
0010
,
0000
0010
0100
0000
0100
0001
0000
0001
,
1000
0100
1000
0010
0100
0001
0020
0100
,
0000
1000
0000
0001
0000
0130
2000
0001
,
0000
0010
0000
0100
0000
3010
0200
0001
,
0000
1000
0000
0010
0000
0301
2000
0010
,
0000
0100
0000
0001
0000
3010
1100
1000
,
0010
0000
0100
0000
0010
0000
1000
0000
0001
0010
0000
0010
0001
0000
0100
0000
,
0010
0000
1000
0000
0100
0000
1000
0000
0001
0100
0010
0100
0001
0000
0010
0000
,
0100
0000
1000
0000
0100
0000
0001
0000
0010
0100
0000
0100
0010
0000
0001
0000
,
1000
0000
0001
0000
0100
0000
1000
0000
0010
1000
0001
1000
0001
0000
0010
0000
,
0100
1000
0001
0010
0100
1000
0001
0000
,
0101
0000
1000
0000
1100
0000
0010
0100
,
0000
0100
0001
0000
1001
0000
0010
0100
,
0000
0100
1000
0010
0100
0001
1000
0100
,
0010
0001
1000
0100
0010
0001
1000
0000
,
1010
0000
0001
0000
0101
0000
0100
0001
,
0000
0001
0010
0000
0110
0000
0100
1000
,
0000
1000
0010
0100
0001
0010
0100
1000
,
0100
1000
0001
1000
0001
1000
0001
0010
,
0001
0010
0001
0100
0001
0100
0001
1000
,
0000
0001
0100
0000
0011
0000
1000
0100
,
0000
1000
0010
0100
0010
1000
0001
0100
,
0001
0100
0010
1000
0010
1000
0100
1000
,
0100
1000
0001
0100
0001
0100
0001
0010
,
0000
0100
0010
0000
1100
0000
0100
0001
,
0000
0010
0100
1000
0010
1000
0100
0000
,
0010
0011
0100
1100
,
1000
0001
1000
0000
1010
0000
0101
0000
,
0001
0100
0100
1010
,
0010
0000
0001
0010
0001
0000
1001
0000
,
1000
0010
0010
0110
,
1000
0010
1000
0000
1001
0000
0110
0000
,
0001
0010
0010
1100
,
0100
0000
0001
0100
0001
0000
1001
0000
,
1000
1010
0010
0110
,
0100
0001
1000
0000
1010
0000
0001
0000
,
0000
1000
0000
0100
,
1001
0000
0000
0100
0010
0000
1010
0000
,
1000
1100
0100
0110
,
0010
0001
1000
0000
1100
0000
0101
0000
,
0010
0100
0010
0000
0010
0000
0100
0000
,
0100
0100
0100
2001
,
0001
0001
3001
1020
,
1000
1000
1030
0210
,
0010
0010
0310
1002
,
1000
1000
1003
1001
,
0010
0000
0000
0000
1010
0000
0000
1001
0000
0000
0011
0000
0101
0000
0000
0000
,
0100
1010
0010
0110
,
1000
0000
0000
0000
1010
0000
0000
0101
0000
0000
0011
0000
0110
0000
0000
0000
,
0000
0000
1001
0000
1001
0000
0001
0010
,
0100
1000
0001
0010
0100
1000
0001
0010
,
0100
1000
0001
0100
0010
1000
0001
0100
,
0001
1000
0001
0100
0001
0010
0100
1000
,
0001
1000
0010
1000
0100
0000
1000
0100
,
0010
0001
1000
0100
0010
0001
1000
0100
,
0010
0001
1000
0010
0100
0001
1000
0010
,
1000
0100
1000
0001
1000
0100
0010
0001
,
1000
0001
0100
0001
0010
0100
2000
0000
,
0000
0000
0000
0000
,
0000
0000
0000
3000
;

//---------------dance-single - ----------------
#NOTEDATA:;
#CHARTNAME:;
#STEPSTYPE:dance-single;
#DESCRIPTION:;
#CHARTSTYLE:;
#DIFFICULTY:Challenge;
#METER:18;
#RADARVALUES:0.894736,1.085294,0.639097,0.460150,0.238596,735.000000,660.000000,75.000000,54.000000,0.000000,0.000000,0.000000,0.000000,0.000000,0.894736,1.085294,0.639097,0.460150,0.238596,735.000000,660.000000,75.000000,54.000000,0.000000,0.000000,0.000000,0.000000,0.000000;
#CREDIT:yuisin;
#NOTES:
// measure 0
0000
0000
0000
0000
,  // measure 1
0000
0000
0000
0000
,  // measure 2
0000
0000
0000
0000
,  // measure 3
0000
0000
0000
0000
,  // measure 4
0000
0000
0000
0000
,  // measure 5
1020
0000
0100
0000
0000
0000
0001
0000
0000
0000
0100
0000
0000
1030
0000
0100
,  // measure 6
2000
0000
0010
0000
0000
0000
0001
0000
0000
0000
0100
0000
0000
3001
0000
0010
,  // measure 7
0200
0000
1000
0000
0000
0000
0001
0000
0000
0000
0010
0000
0000
1300
0000
0010
,  // measure 8
2000
0000
0001
0000
0000
0000
0100
0000
0000
0000
0010
0000
0000
3100
0000
0010
,  // measure 9
0001
0000
0100
0010
1000
0000
0001
1000
,  // measure 10
0010
0000
0100
0001
0010
0000
0100
1000
,  // measure 11
0100
0000
0010
0100
0001
0000
1000
0010
,  // measure 12
1000
0000
0001
0100
1000
0000
0100
0010
,  // measure 13
1000
0000
0001
0010
0001
0000
0010
0100
,  // measure 14
1000
0000
0010
0100
0001
0000
0010
0100
,  // measure 15
0001
0000
1000
0010
1000
0000
0010
1000
,  // measure 16
0100
0000
1000
0001
1000
1000
0001
0010
,  // measure 17
0100
0000
1000
0001
0010
0000
0001
0010
,  // measure 18
0100
0000
0001
0100
0010
0000
0100
0001
,  // measure 19
0010
0000
0001
0010
1000
0000
0010
0100
,  // measure 20
0010
0000
0001
0010
0100
0000
1000
0001
,  // measure 21
0010
0000
0100
0001
1000
0000
0001
0100
,  // measure 22
0001
0000
0100
0001
0010
0000
0001
1000
,  // measure 23
0001
0100
0001
0010
0100
1000
0100
0010
,  // measure 24
0001
1000
0010
1000
0100
1000
0001
1000
,  // measure 25
1001
0000
0000
0000
0010
0000
0000
0000
0101
0000
0000
1010
0000
0000
1100
0000
,  // measure 26
0120
0000
0000
0000
0130
0000
0000
0000
0010
0000
0000
0110
0000
0000
0100
1000
,  // measure 27
0002
0000
0000
0000
1003
0000
0000
0000
1010
0000
0000
0011
0000
0000
0101
0000
,  // measure 28
2001
0000
0000
0000
3010
0000
0000
0000
0100
0010
1000
0010
1000
0000
0010
0100
,  // measure 29
0001
0010
0100
1000
0001
0010
0100
1000
,  // measure 30
0001
0100
0010
1000
0001
0100
0001
1000
,  // measure 31
0001
0100
0001
0010
0100
1000
0001
1000
,  // measure 32
0010
1000
0100
1000
0010
1000
0010
1000
,  // measure 33
0001
0010
0100
1000
0001
0010
0100
1000
,  // measure 34
0001
0100
0010
1000
0001
0100
0001
0010
,  // measure 35
0001
1000
0001
0010
0100
1000
0001
1000
,  // measure 36
0010
1000
0100
0010
0001
0100
0010
1000
,  // measure 37
0001
0010
0000
0010
0001
0000
0001
0100
,  // measure 38
0000
0200
0010
0300
0020
1000
0030
2000
,  // measure 39
3200
0001
0300
0200
0010
0300
0200
1000
,  // measure 40
0300
1000
0200
0310
0001
0000
0110
0000
,  // measure 41
0200
0001
0300
0001
1000
0000
1000
0100
,  // measure 42
0000
0200
0010
0300
0010
0001
0000
0002
,  // measure 43
0203
2300
0000
3200
0010
0300
0200
0001
,  // measure 44
0300
0000
0001
0000
1000
0001
1000
0000
0010
0000
0100
0000
0102
0000
0100
0000
,  // measure 45
0000
1000
1000
0000
0100
0100
0000
0010
,  // measure 46
0023
0000
0100
0100
0000
0031
2000
0010
,  // measure 47
0000
0001
0001
0000
0010
0010
0000
3100
,  // measure 48
0200
0000
0010
0300
0001
0000
0200
0001
,  // measure 49
0000
0001
0010
0000
0000
1000
0300
1000
,  // measure 50
0010
0000
0010
0100
0000
0100
0020
1000
,  // measure 51
0000
1000
0100
0000
0000
0001
0030
0001
,  // measure 52
0100
0010
0100
0001
1000
0001
0020
0100
,  // measure 53
0000
0000
1000
0000
0000
0000
0100
0000
0000
0001
0000
0130
2000
0000
0010
0000
,  // measure 54
0000
0000
0001
0000
0000
0000
0100
0000
0000
0001
0000
3010
0200
0000
0001
0000
,  // measure 55
0000
0000
1000
0000
0000
0000
0010
0000
0000
0301
0000
0010
0002
0000
1000
0000
,  // measure 56
0000
0000
0100
0000
0000
0000
0010
0000
0000
0100
0000
1003
0010
0000
0100
0000
,  // measure 57
0001
0000
0001
0000
1000
0000
0010
0000
0001
0100
0000
0100
0001
0000
0010
0000
,  // measure 58
0100
0000
0100
0000
0010
0000
1000
0000
0100
0010
0000
0010
0001
0000
0100
0000
,  // measure 59
1000
0000
0010
0000
0110
0000
0100
0000
0001
0010
0000
0010
0100
0000
1000
0000
,  // measure 60
0010
0000
0001
0000
1010
0000
0100
0010
0100
0010
0100
0001
1000
0000
0010
0000
,  // measure 61
0000
0010
0200
0001
0300
0002
0023
0000
,  // measure 62
0230
1300
0000
0100
0020
0000
0032
0013
,  // measure 63
0000
0010
0200
0000
2300
0000
3002
0103
,  // measure 64
0000
0200
0320
1000
0030
1000
0002
0010
,  // measure 65
0003
0020
0230
1300
0000
2000
3010
0000
,  // measure 66
0200
0302
0000
0203
1000
0300
1000
0100
,  // measure 67
0000
0010
0100
0000
0001
0000
1000
0100
,  // measure 68
0000
0100
0010
0001
0100
0001
1000
0100
,  // measure 69
1000
0100
1000
0010
0100
0010
1000
0010
,  // measure 70
0100
0001
0010
0100
0010
0001
0010
0100
,  // measure 71
0000
0100
1100
0000
0101
0000
0011
0001
,  // measure 72
0000
1000
0100
0010
0001
0100
0001
0010
,  // measure 73
0001
0010
0001
0100
0010
0100
0001
0100
,  // measure 74
0010
1000
0010
0100
0010
1000
0100
0010
,  // measure 75
0000
0010
0011
0000
1100
0000
0001
0100
,  // measure 76
0110
0000
1000
0010
1000
0001
1001
0000
,  // measure 77
1001
1100
1100
0110
,  // measure 78
0001
1000
1100
0000
1100
0000
1010
0000
,  // measure 79
1010
0011
1001
0110
,  // measure 80
0001
0101
0000
1000
0100
0010
0100
0000
,  // measure 81
0110
1100
1001
0110
,  // measure 82
1000
0001
0011
0000
1001
0000
0011
0000
,  // measure 83
1010
0000
0110
0000
0001
0000
0010
1000
,  // measure 84
0010
0001
0010
0000
0100
0010
1001
0000
,  // measure 85
0110
0101
0101
1100
,  // measure 86
1000
0001
0101
0000
1001
0000
0210
0000
,  // measure 87
0000
1000
0000
0001
,  // measure 88
0000
0010
0300
0000
1000
0100
0001
0000
,  // measure 89
0101
0110
1001
1010
,  // measure 90
0100
1000
1001
0000
0101
0000
0011
0000
,  // measure 91
1001
0000
1100
0000
0010
0000
0001
0100
,  // measure 92
0010
0100
0001
0000
1000
0001
0120
0000
,  // measure 93
0100
0000
0000
0000
1000
0000
0000
0100
0000
0000
0031
0000
0110
0000
0000
0000
,  // measure 94
0100
0000
0000
0000
0011
0000
0000
1001
0000
0000
0010
1000
0200
0000
0000
0000
,  // measure 95
0010
0000
0000
0000
0001
0000
0000
0010
0000
0000
1300
0000
0110
0000
0000
0000
,  // measure 96
0001
0000
0000
0000
1000
0010
0100
0010
0100
0000
0001
0010
0001
0000
1000
0000
,  // measure 97
0100
0000
1000
0000
1010
0000
0000
0101
0000
0000
0011
0000
1001
0000
0100
0000
,  // measure 98
0010
0000
0001
0000
0100
0000
0000
1001
0000
0000
0010
0001
1000
0000
0100
0000
,  // measure 99
0001
0000
0010
0000
0101
0000
0000
1100
0000
0000
1010
0000
0110
0000
0000
0000
,  // measure 100
0000
0000
0001
0000
1000
0000
0001
0010
,  // measure 101
0100
1000
0010
0100
0001
0010
0100
0010
,  // measure 102
0100
0000
0000
1000
0000
0000
0100
0000
0010
0000
0100
0000
0010
0000
0001
0000
0010
0000
0001
0000
0000
1000
0000
0000
,  // measure 103
0010
0100
0001
1000
0001
0010
0100
1000
,  // measure 104
0010
0000
0000
0100
0000
0000
0001
0000
0100
0000
0001
0000
1000
0000
0010
0000
1000
0000
0001
0000
0000
0100
0000
0000
,  // measure 105
0001
0010
0100
1000
0001
0100
0010
1000
,  // measure 106
0001
0000
0000
1000
0000
0000
0100
0000
0010
0000
0100
0000
1000
0000
0010
0000
0100
0000
0001
0000
0000
0100
0000
0000
,  // measure 107
0010
1000
0010
0100
0001
0010
0100
1000
,  // measure 108
0010
0100
0001
0100
0010
0100
2002
0000
,  // measure 109
0000
0000
0000
0000
,  // measure 110
0000
0000
0000
3003
;
