#TITLE:Won(*3*)Chu KissMe!;
#SUBTITLE:IIDX EDITION;
#ARTIST:Remixed by BEMANI Sound Team "L.E.D." & IOSYS;
#TITLETRANSLIT:;
#SUBTITLETRANSLIT:;
#ARTISTTRANSLIT:;
#GENRE:Eurobeat;
#CREDIT:yindesu;
#MUSIC:Won( 3 )Chu KissMe! (IIDX EDITION).ogg;
#BANNER:;
#BACKGROUND:;
#CDTITLE:;
#SAMPLESTART:69.459;
#SAMPLELENGTH:15.023;
#SELECTABLE:YES;
#OFFSET:-0.482;
#BPMS:0.000=160.000;
#STOPS:;
#BGCHANGES:;
#FGCHANGES:;

//--------------- dance-double - yindesu ----------------
#NOTES:
     dance-double:
     yindesu:
     Challenge:
     12:
     0,0,0,0,0:
00000000
00000000
00000000
00000000
,
00000000
00000000
00000000
00000000
,
00020000
00000000
00001000
00032000
00000000
00100000
00000000
00203000
,
00000000
00001000
00000000
00000000
00302000
00000000
00010000
00000000
,
00023000
00000100
00000000
00030200
00000000
00001000
00000000
00002300
,
00000000
00000010
00003020
00000130
,
00000200
00000001
00000000
00000302
00000000
00000010
00000000
00000023
,
00000000
00000100
00000200
00000330
,
00010000
00001000
00010000
00001000
00010000
01000000
10000000
00100000
,
01000000
00001000
00010000
00001000
00010000
00000100
00000010
00000000
,
00000110
00000100
00010000
00011000
00001000
01000000
01100000
00000000
,
01001000
00000000
00000000
00000000
00000000
00000000
00000000
00000000
00000000
00000000
00000000
00000000
00001000
00000000
00010000
00000000
00001000
00000000
00010000
00000000
00000000
00001000
00000000
00000000
01000000
00000000
00000000
00100000
00000000
00000000
10000000
00000000
00000000
00010000
00000000
00000000
00100000
00000000
00000000
00000000
00000000
00000000
00000000
00000000
00000000
00000000
00000000
00000000
,
00010000
00000000
10000000
01000000
00100000
00000000
01000000
00100000
00010000
00000000
00100000
00000000
00001000
00000000
00020000
00000000
,
00000000
00000000
00030100
00000000
00000010
00000100
00000010
00000000
00000001
00000100
00000010
00001000
00000100
00000010
00000001
00000100
,
00000010
00000000
00001000
00000100
00010000
00000000
00000100
00010000
00001000
00000000
00010000
00000000
00001000
00000000
01000000
00000000
,
00100000
10000000
00010000
00000000
01000000
00010000
00100000
00000000
00002000
00000000
00013000
00001000
01000000
00010000
00100000
01000000
,
00100000
00000000
00010000
00100000
00001000
00000000
00010000
00000100
00001000
00000000
00000100
00000000
00000010
00000000
00000002
00000000
,
00000000
00000000
00000103
00000000
00000010
00001000
00000010
00000000
00000100
00000010
00010000
00001000
00010000
00000100
00000010
00000100
,
00001000
00000000
00000100
00010000
00001000
00000000
00010000
00000010
00000100
00000000
00000001
00000000
00000010
00000000
00000100
00001000
,
00000000
00011000
00000000
00101000
00000000
00220000
00000000
00330000
,
01100000
00000000
01000000
00000000
00000000
00000000
01000000
11000000
,
00000000
11000000
10000000
00000000
00000000
00000000
10000000
00000000
,
01010000
00000000
00010000
00000000
00000000
00000000
00010000
00011000
,
00000000
00011000
00001000
00000000
00000000
00000000
00001000
00000000
,
00001100
00000000
00000100
00000000
00000000
00000000
00000100
00000110
,
00000000
00000110
00000001
00000000
00000000
00000000
00000001
00000000
,
00000101
00000000
00001000
00000000
00000000
00001100
00000000
00000110
,
00000000
00000000
00000000
00000000
00000000
00000000
00010100
00000000
00000000
00000000
00000000
00000000
00000000
00000000
00000000
00000000
00000000
00000000
00010000
00000000
00001000
00000000
00010000
00000000
00001000
00000000
00000000
00010000
00000000
00000000
00000100
00000000
00000000
00001000
00000000
00000000
00000010
00000000
00000000
00000100
00000000
00000000
00000001
00000000
00000000
00000000
00000000
00000000
,
00000010
00000100
00010000
00001000
00010000
00100000
00010000
00001000
,
00000100
00000001
00000010
00000100
00010000
00001000
00010000
01000000
,
10000000
00100000
00010000
00001000
01000000
00010000
00100000
01000000
,
10000000
00100000
01000000
00010000
00100000
00001000
00010000
00011000
,
00010000
00000100
00000010
00000001
00000100
00000010
00010000
00001000
,
00010000
01000000
10000000
00100000
01000000
00010000
00100000
01000000
,
00100000
00001000
00010000
00000100
00000010
00000100
00010000
00011000
,
00001000
00000000
00000100
00000000
00001000
00000000
00100000
00000000
01000000
00100000
00001000
00010000
00000100
00000010
00000100
00010000
,
00001000
00000000
01000000
00010000
01000000
00000000
00100000
00000000
10000000
00000000
01000000
00000000
00010000
00001000
00010000
00000000
,
01000000
00000000
00100000
00000000
00001000
00010000
00001000
00000000
00010000
00000000
00000100
00000000
00010000
00000000
00011000
00000000
,
00010000
00000000
00000100
00000010
00000100
00000000
00001000
00000000
00010000
00100000
00010000
00000000
01000000
00000000
00100000
00000000
,
10000000
01000000
00100000
00000000
00001000
00010000
00001000
00000000
00000100
00000000
00000010
00000000
00001000
00000100
00010000
00001000
,
00010000
00000000
00000100
00000010
00000100
00000000
00001000
00000000
00000001
00000000
00000100
00000000
00000010
00001000
00000010
00000000
,
00000100
00000000
00001000
00000000
00010000
00001000
00010000
00000000
00001000
00000000
00010000
00001000
00010000
00000000
00011000
00000000
,
00100000
01100000
10000000
10010000
,
00110000
00000000
00100000
00001000
00100000
00000000
00010000
01000000
00010000
00000000
00100000
00010000
00100000
00000000
00001000
00000000
,
00011000
00000000
00010000
00000000
00000100
00000000
00000110
00000000
00000100
00000000
00001000
00000000
00001010
00000000
00000010
00001000
,
00000100
00000000
00000000
00000000
00000000
00000000
00000000
00000000
00000000
00000110
00000000
00000000
00000000
00000000
00000000
00000000
00000000
00000000
00001100
00000000
00000000
00000000
00000000
00000000
00001000
00000000
00000100
00000000
00000010
00000000
00000001
00000000
00000000
00000100
00000000
00000000
00000010
00000000
00000000
00001000
00000000
00000000
00000100
00000000
00000000
00000000
00000000
00000000
,
00010000
00001000
00010000
00001000
00010000
00000000
00000100
00000000
00000010
00000001
00000100
00000010
00001000
00000100
00000010
00000100
,
00001000
00000000
00000010
00000100
00000001
00000010
00000001
00001000
00000100
00000000
00010000
00001000
01000000
00000000
01100000
00000000
,
00100000
00000000
10000000
00100000
01000000
00100000
10000000
00000000
01000000
00100000
00001000
00010000
00001000
00010000
00000010
00000100
,
00000001
00000000
00000010
00000100
00001000
00000100
00000010
00000000
00000100
00010000
00001000
00010000
00100000
10000000
00100000
10000000
,
01000000
00000000
00100000
00001000
00010000
00001000
01000000
00000000
00100000
10000000
00100000
01000000
00001000
00010000
00000100
00000010
,
00000001
00000000
00000100
00000010
00001000
00000100
00010000
00000100
00000010
00000100
00010000
00001000
00100000
00010000
00100000
01000000
,
10000000
00000000
00100000
10000000
01000000
00000000
00100000
00000000
00001000
00010000
00000100
00010000
00001000
00010000
00000100
00001000
,
00000100
00000000
00000010
00000100
00001000
00000000
00000010
00000000
00000100
00000001
00000100
00000001
00000010
00000100
00010000
00000000
,
00011000
00000000
00001000
01000000
00001000
00000000
00100000
00000000
01000000
00000000
00100000
00001000
00010000
00000100
00001000
00000000
,
00001100
00000000
00000000
00000000
00000000
00000000
00000000
00000000
00000000
00000110
00000000
00000000
00000000
00000000
00000000
00000000
00000000
00000000
00000011
00000000
00000000
00000000
00000000
00000000
00000001
00000000
00000010
00000000
00000100
00000000
00001000
00000000
00000000
00000100
00000000
00000000
00010000
00000000
00000000
00001000
00000000
00000000
00010000
00000000
00000000
00000000
00000000
00000000
,
00001000
00010000
00001000
00010000
00001000
00000000
01000000
00000000
00100000
10000000
01000000
00100000
00010000
01000000
00100000
01000000
,
00010000
00000000
00100000
01000000
10000000
00100000
10000000
00010000
01000000
00000000
00001000
00010000
00000100
00000000
00000110
00000000
,
00000010
00000000
00000001
00000010
00000100
00000010
00000001
00000000
00000100
00000010
00010000
00001000
00010000
00001000
00100000
01000000
,
10000000
00000000
00100000
01000000
00010000
01000000
00100000
00000000
01000000
00001000
00010000
00001000
00000010
00000001
00000010
00000001
,
00000100
00000000
00000010
00010000
00001000
00010000
00000100
00000000
00000010
00000001
00000010
00000100
00010000
00001000
01000000
00100000
,
10000000
00000000
01000000
00100000
00010000
01000000
00001000
01000000
00100000
01000000
00001000
00010000
00000010
00001000
00000010
00000100
,
00000001
00000000
00000010
00000001
00000100
00000000
00000010
00000000
00010000
00001000
01000000
00001000
00010000
00001000
01000000
00010000
,
01000000
00000000
00100000
01000000
00010000
00000000
00100000
00000000
01000000
10000000
01000000
10000000
00100000
01000000
00001000
00000000
,
00011000
00000000
00010000
00000000
00100000
00000000
10100000
00000000
10000000
00000000
01000000
00000000
01100000
00000000
01000000
00010000
,
00001000
00000000
00000000
00000000
00000000
00000000
00000000
00000000
00000000
00000000
00000000
00000000
00010000
00000000
00001000
00000000
00010000
00000000
00001000
00000000
00000000
00010000
00000000
00000000
00001000
00000000
00010000
00000000
00001000
00000000
00010000
00000000
00000000
00001000
00000000
00000000
00010000
00000000
00000000
00001000
00000000
00000000
00010000
00000000
00000000
00000000
00000000
00000000
,
00001000
00000000
01000000
00010000
00100000
00000000
01000000
10000000
00100000
00000000
01000000
00000000
00001000
00000000
00020000
00000000
,
00000000
00000000
00030010
00000000
00000100
00000010
00000100
00000000
00000001
00000010
00000100
00001000
00000010
00000100
00000001
00000010
,
00000100
00000000
00001000
00000010
00010000
00000000
00000010
00010000
00001000
00000000
00010000
00000000
00001000
00000000
00100000
00000000
,
01000000
10000000
00010000
00000000
00100000
00010000
01000000
00000000
00002000
00000000
00013000
00001000
00100000
00010000
01000000
00100000
,
01000000
00000000
00010000
01000000
00001000
00000000
00010000
00000010
00001000
00000000
00000010
00000000
00000100
00000000
00000002
00000000
,
00000000
00000000
00000013
00000000
00000100
00001000
00000100
00000000
00000010
00000100
00001000
00000100
00000010
00000100
00001000
00000001
,
00000010
00000000
00000100
00010000
00001000
00000000
00010000
01000000
10000000
00100000
10000000
00100000
01000000
00000000
00010000
00100000
,
00000000
01100000
01000000
00010000
00011000
00001000
00000100
00000101
,
00000001
00000010
00000110
00000100
00010000
00011000
00000000
00011000
;
