#TITLE:Tidal Wave;
#SUBTITLE:;
#ARTIST:D-Cee;
#TITLETRANSLIT:;
#SUBTITLETRANSLIT:;
#ARTISTTRANSLIT:;
#GENRE:;
#CREDIT:yindesu;
#MUSIC:Tidal Wave.ogg;
#BANNER:;
#BACKGROUND:;
#CDTITLE:;
#SAMPLESTART:32.440;
#SAMPLELENGTH:13.729;
#SELECTABLE:YES;
#OFFSET:-0.903;
#BPMS:0.000=175.000;
#STOPS:;
#BGCHANGES:;
#FGCHANGES:;

//--------------- dance-double - yindesu ----------------
#NOTES:
     dance-double:
     yindesu:
     Hard:
     9:
     0.582899,0.666338,0.255018,0.460678,0.069924,496,465,31,56,0,0,0.582899,0.666338,0.255018,0.460678,0.069924,496,465,31,56,0,0:
00000000
00000000
00000000
00000000
,
00000000
00000000
00000000
00000000
,
00000000
00000000
00000000
00000000
,
00000000
00000000
00000000
00000000
,
00000000
00000000
00000000
00000000
,
00010000
00100000
00010000
00100000
01000000
10000000
01000000
10000000
,
00100000
00000000
00010000
00000000
00100000
00000000
00010000
00000000
00001000
00000000
00000010
00000000
00000001
00000010
00000100
00000000
,
00001000
00000010
00000100
00001000
00010000
01000000
10000000
00010000
,
01000000
00100000
00000000
01000000
00010000
00000000
00100000
00001000
00000000
00000000
00000000
00000000
00001100
00000000
00000000
00000000
,
00002000
00000000
00000000
00000000
00000000
00000000
00003100
00020000
,
00000000
00000000
00000000
00000000
00000000
00000000
00130000
20000000
,
00000000
00000000
00000000
00000000
00000000
00000000
31000000
00020000
,
00000000
00000000
00000000
00032000
00000000
00000000
00003200
00000000
,
00000320
00000000
00000000
00000000
00000000
00000000
00010030
00002000
,
00000000
00000000
00000000
00000000
00000000
00000000
01003000
00200000
,
00000000
00000000
00000000
00000000
00000000
00000000
10300000
00020000
,
00000000
00000000
00000000
00032000
00000000
00000000
00003100
00000000
,
00000210
00000000
00001000
00000000
00000010
00000000
00010300
00002000
,
01000000
00000000
00100000
00000000
00010000
00000000
01003000
00200000
,
00010000
00000000
01000000
00000000
10000000
00000000
01300000
00002000
,
00010000
00100000
00010000
00003100
,
00000110
00000010
00010000
00011000
00000000
00001000
00100000
00010000
,
01000000
00100000
01000000
00000000
00100000
01000000
00100000
00000000
01000000
00100000
01000000
00000000
00010000
00000000
00000000
00000000
,
00100000
00001000
00010000
00010000
00010000
00001000
00001000
00001000
,
01000000
01000000
01000000
00100000
00100000
00100000
10000000
00010000
,
00110000
00000000
01100000
00000000
10000000
00100000
00000000
00100000
,
01000000
00000000
00001000
00020000
00000000
02030000
00000000
03100000
,
00010000
00000000
00000000
00000000
00001000
00000000
00000100
00000000
00000000
00000010
00000000
00000000
00000001
00000000
00001000
00000000
,
00000000
00000100
00000100
00000100
00001000
00001000
00001000
00000000
,
00011000
00000000
00110000
00000000
00100000
01000000
00000000
01000000
,
10000000
00020000
00230000
00302000
00023000
00030200
00000310
00000000
,
00001001
00000000
00000000
00000000
00001000
00000000
00000000
00000010
00000000
00000000
00001000
00000000
00000100
00000000
00010000
00000000
,
00002000
00000000
00000000
02003000
00000000
00000000
00000000
03100000
,
01100000
00000000
01010000
00000000
00010000
00100000
00000000
00100000
,
00001000
00000000
00010000
00000200
00000000
00000320
00000000
00000130
,
00010000
00000000
00000000
00000000
00001000
00000000
00000000
01000000
00000000
00000000
00100000
00000000
10000000
00000000
00010000
00000000
,
00000000
00100000
00100000
00100000
00010000
00010000
00010000
00000000
,
00011000
00000000
00001100
00000000
00000100
00000010
00000000
00000010
,
00000100
00002000
00003200
00000302
00000203
00002300
00003010
00000000
,
00001010
00001000
00000100
00010000
01000000
10000000
00010000
00000000
,
01100000
01000000
00001000
00020000
00000000
00030100
00000000
00000000
,
00000010
00000001
00000010
00000001
00000010
00000001
00000010
00000001
,
00000100
00000010
00000100
00000010
00000100
00000010
00000100
00000010
,
00010000
00001000
00010000
00001000
00010000
00001000
00010000
00001000
,
00100000
01000000
00100000
01000000
00100000
01000000
00100000
01000000
,
00010000
00001000
00010000
00001000
00010000
00001000
00010000
00001000
,
00000100
00000001
00000100
00000001
00000100
00000001
00000100
00000001
,
00000010
00001000
00000010
00001000
00000010
00001000
00000010
00001000
,
00010000
00000100
00010000
00000100
00010000
00000100
00010000
00000100
,
00001000
00010000
00100000
00010000
01000000
00010000
10000000
00100000
,
00010000
00000100
00001000
00000100
00010000
00000100
00001000
00000010
,
00000100
00000001
00000010
00000001
00000100
00000001
00000010
00001000
,
00010000
00000100
00001000
00000100
00010000
00000100
00001000
00000000
,
00011000
00001000
01000000
01100000
00000000
00100000
10000000
01000000
,
00100000
00010000
00100000
00000000
00010000
00100000
00010000
00000000
00100000
00010000
00100000
00000000
01000000
00000000
00000000
00000000
,
00100000
00001000
00010000
00010000
00010000
00001000
00001000
00001000
,
01000000
01000000
01000000
00100000
00100000
00100000
10000000
00010000
,
00110000
00000000
00011000
00000000
00010000
00000100
00000000
00000100
,
00001000
00000000
00000010
00002000
00000000
00003020
00000000
00000130
,
00001000
00000000
00000000
00000000
00010000
00000000
01000000
00000000
00000000
10000000
00000000
00000000
00100000
00000000
01000000
00000000
,
00000000
00001000
00001000
00001000
00010000
00010000
00010000
00000000
,
00011000
00000000
00001100
00000000
00000100
00000010
00000000
00000010
,
00000001
00002000
00003200
00020300
00032000
02003000
03100000
00000000
,
10010000
00000000
00000000
00000000
00010000
00000000
00000000
01000000
00000000
00000000
00010000
00000000
00100000
00000000
00001000
00000000
,
00020000
00000000
00000000
00030020
00000000
00000000
00000000
00000130
,
00000110
00000000
00001010
00000000
00001000
00000100
00000000
00000100
,
00010000
00000000
00001000
00200000
00000000
02300000
00000000
03100000
,
00001000
00000000
00000000
00000000
00010000
00000000
00000000
00000010
00000000
00000000
00000100
00000000
00000001
00000000
00001000
00000000
,
00000000
00000100
00000100
00000100
00001000
00001000
00001000
00000000
,
00011000
00000000
00110000
00000000
00100000
01000000
00000000
01000000
,
00100000
00020000
00230000
20300000
30200000
00320000
01030000
00000000
,
01010000
00010000
00100000
00001000
00000010
00000001
00001000
00000000
,
00001001
00000001
00001000
00000200
00000000
00010300
00000000
00000000
,
01100000
00000000
10010000
00000000
00010000
00100000
00001000
00010000
,
00000100
00000010
00000001
00000200
00000010
00000320
00001000
00001030
,
00000100
00000010
00000001
00001000
00000100
00010000
01000000
00100000
,
00001000
00010000
00001000
00000100
00001000
00000100
00000001
00000010
,
00000001
00000100
00000010
00001000
00010000
00100000
01000000
00010000
,
00001000
00000100
00000010
00001000
00010000
02000000
03010000
00200000
,
00000000
00000000
00302000
00000000
00000000
00000000
00013000
00000100
00010000
00000000
00001000
00000000
00010000
00000000
00000100
00000000
,
00000020
00000000
00000000
00000032
00000000
00000000
00000103
00000000
,
00000110
00000000
00000000
00000000
;
