#TITLE:THE VILLAIN'S NIGHT;
#SUBTITLE:;
#ARTIST:Caper Parade;
#TITLETRANSLIT:;
#SUBTITLETRANSLIT:;
#ARTISTTRANSLIT:;
#GENRE:;
#CREDIT:yindesu;
#MUSIC:THE VILLAIN'S NIGHT.ogg;
#BANNER:;
#BACKGROUND:;
#CDTITLE:;
#SAMPLESTART:65.460;
#SAMPLELENGTH:13.711;
#SELECTABLE:YES;
#OFFSET:1.178;
#BPMS:0.000=140.000;
#STOPS:;
#BGCHANGES:3.188=THE VILLAIN'S NIGHT.mp4=1.000=0=0=0=StretchNoLoop====,
99999.000=-nosongbg-=1.000=0=0=0=StretchNoLoop====
;
#FGCHANGES:;

//--------------- dance-double - yindesu ----------------
#NOTES:
     dance-double:
     yindesu:
     Hard:
     9:
     0,0,0,0,0:
00000000
00000000
00000000
00000000
,
00000000
00000000
00000000
00000000
,
00000000
00000000
00000000
00000000
,
00000000
00000000
00000000
00000000
,
00000000
00000000
00000000
00000000
,
00000000
00000000
00000000
00000000
,
00000000
00000000
00000000
00000000
,
00000000
00000000
00000000
00000000
,
10010000
00000000
00000000
00000000
00010000
00000000
00000000
00000000
00100000
00000000
00001000
00000000
00010000
00001000
00010000
00001000
,
00010000
00000000
01000000
00000000
00100000
00001000
00010000
00000000
,
00000100
00000000
00000000
00000000
00000010
00000000
00000000
00000000
00000001
00000000
00000100
00000000
00000010
00001000
00000010
00001000
,
00000010
00000000
00000000
00000000
00000100
00000000
00000000
00000000
00001000
00010000
00001000
00000000
00010000
00001000
00010000
00000000
,
00000100
00000000
00000000
00000000
00000010
00000000
00000000
00000000
00000100
00000000
00010000
00000000
00001000
00100000
00001000
00100000
,
00001000
00000000
00010000
00000000
00100000
10000000
00010000
00000000
,
00100000
00000000
00000000
00000000
01000000
00000000
00000000
00000000
10000000
00000000
00100000
00000000
01000000
00010000
01000000
00010000
,
01000000
00000000
00100000
00000000
00010000
00001000
00010000
00000000
,
00000100
00000000
00000000
00000000
00000010
00000000
00000000
00000000
00000001
00000000
00000100
00000000
00000010
00000100
00000010
00000100
,
00000010
00000000
00001000
00000000
00000100
00010000
00001000
00000000
,
00011000
00000000
00001000
00000000
00010000
01000000
10000000
00000000
,
00100000
00000000
00000000
00000000
10000000
00000000
00000000
00000000
01000000
00000000
00100000
00000000
00001000
00010000
00001000
00010000
,
00001000
00000000
00000000
00000000
00000100
00000000
00000000
00000000
00000001
00000000
00000010
00000000
00000100
00001000
00000100
00001000
,
00000100
00000000
00010000
00000000
00001000
01000000
00100000
00000000
,
00010000
00000000
00000000
00000000
00001000
00000000
00000000
00000000
00010000
00000000
00000100
00000000
00000010
00000100
00000010
00000100
,
00000010
00000000
00000001
00000000
00000100
00001000
00010000
00000000
,
01000000
00000000
00000000
00000000
10000000
00000000
00000000
00000000
00010000
00000000
00100000
00000000
00001000
00010000
00001000
00010000
,
00001000
00000000
00000100
00000000
00000010
00010000
00001000
00000000
,
00000100
00000000
00000000
00000000
00000001
00000000
00000000
00000000
00000010
00000000
00000100
00000000
00001000
00000001
00001000
00000001
,
00001000
00000000
00000000
00000000
00000100
00000000
00000000
00000000
00010000
00001000
00010000
00000000
00000100
00001000
00000100
00000000
,
00001100
00000000
00000000
00001000
00000000
00000000
00000100
00000000
00010100
00000000
00000000
00000000
00000000
00000000
00000000
00000000
,
00011000
00000000
00000000
00001000
00000000
00000000
00100000
00000000
01000000
10000000
00000000
10000000
00010000
00000000
00100000
00000000
,
00101000
00000000
00000000
00001000
00000000
00000000
00010000
00000000
00010100
00000000
00000000
00000000
00000000
00000000
00000000
00000000
,
00000011
00000000
00000000
00000010
00000000
00000000
00000001
00000000
00000100
00000010
00000000
00000010
00001000
00000000
00000100
00000000
,
00000110
00000000
00000000
00000100
00000000
00000000
00010000
00000000
00011000
00000000
00000000
00001000
00000000
00000000
00010000
00001000
,
00010000
00000000
00000000
00000100
00000000
00000000
00010000
00000000
00001000
01000000
00000000
01000000
00010000
00000000
00100000
00000000
,
01000000
00000000
00000000
00000000
11000000
00000000
00000000
00000000
01000000
00000000
00010000
00001000
00010000
00000010
00001000
00000010
,
00001000
00000000
00000000
00000000
00001100
00000000
00000000
00000000
00000100
00000000
00000010
00000001
00001000
00000000
00000100
00000000
,
00010000
00000000
00100000
01000000
00100000
00000000
00010000
00000000
00001000
00000000
00000100
00000010
00000100
00000000
00001000
00010000
,
00001000
00000000
00011000
00000000
00001000
00100000
01000000
00000000
,
00010000
00000000
00001000
00010000
00001000
00000000
00000100
00000000
00000001
00000000
00000010
00000000
00000100
00000000
00010000
00001000
,
00020000
00000000
00000000
00032000
00000000
00000000
00003100
00000000
00002000
00000000
00000000
00203000
00000000
00000000
01300000
00000000
,
20000000
00000000
00000000
30200000
00000000
00000000
01300000
00000000
00010000
00000000
00100000
00000000
00001000
00000000
00010000
00000100
,
00000020
00000000
00000000
00000230
00000000
00000000
00010300
00000000
00002000
00000000
00000000
00003200
00000000
00000000
00000301
00000000
,
00000020
00000000
00000000
00002030
00000000
00000000
00013000
00000000
00001000
00000000
01000000
00000000
00100000
00000000
10000000
01000000
,
00200000
00000000
00000000
00302000
00000000
00000000
00013000
00000000
02000000
00000000
00000000
23000000
00000000
00000000
30100000
00000000
,
00020000
00000000
00000000
00032000
00000000
00000000
00013000
00000000
00000100
00000000
00000010
00000000
00000001
00000000
00000100
00000010
,
00002000
00000000
00000000
00003200
00000000
00000000
00000310
00000000
00000200
00000000
00000000
00020300
00000000
00000000
00031000
00000000
,
02000000
00000000
00000000
03200000
00000000
00000000
10300000
00000000
00010000
00000000
00100000
00000000
01000000
00000000
00100000
00001000
,
00020000
00000000
00000000
00032000
00000000
00000000
00003100
00000000
00000001
00000000
00000010
00000000
00000100
00001000
00000100
00001000
,
00000100
00000000
00000010
00000000
00000001
00000100
00001000
00010000
,
00001000
00000000
00000000
00000000
00000100
00000000
00000000
00000000
00000001
00000000
00000010
00000000
00000100
00000010
00000100
00000010
,
00000100
00000000
00000000
00000000
00010000
00000000
00001000
00000000
01000000
00000000
00100000
00000000
10000000
00000000
01000000
00100000
,
00020000
00000000
00000000
02030000
00000000
00000000
03001000
00000000
00020000
00000000
00000000
00030200
00000000
00000000
00000310
00000000
,
00000002
00000000
00000000
00000203
00000000
00000000
00001300
00000000
00010000
00000000
00001000
00000000
01000000
00000000
00100000
10000000
,
00020000
00000000
00000000
00230000
00000000
00000000
01300000
00000000
00020000
00000000
00000000
00032000
00000000
00000000
00013000
00000000
,
00000200
00000000
00000000
00000320
00000000
00000000
00000031
00000000
00000100
00000000
00001000
00000000
00010000
00000000
00001000
00010000
,
00002000
00000000
00000000
00003200
00000000
00000000
00000310
00000000
00002000
00000000
00000000
00003200
00000000
00000000
00010300
00000000
,
02000000
00000000
00000000
03200000
00000000
00000000
00301000
00000000
00010000
00001000
00010000
00000000
00001000
00000000
00000100
00000000
,
00000110
00000000
00000000
00001010
00000000
00000000
00001010
00000000
00010100
00000000
00000000
00011000
00000000
00000000
00011000
00000000
,
01001000
00000000
00000000
00000000
00000000
01010000
01100000
00000000
,
10010000
00000000
00000000
00000000
00010000
00000000
00000000
00000000
00200000
00000000
00001000
00000000
00301000
00010000
00001000
00010000
,
00002000
00000000
01003000
00000000
00020000
00100000
00130000
00000000
,
02000000
00000000
00000000
00000000
10000000
00000000
00000000
00000000
10000000
00000000
13000000
00000000
00010000
10000000
00010000
10000000
,
00010000
00000000
00000000
00000000
00100000
00000000
00001000
00000000
00010000
00001000
00010000
00000000
00000010
00001000
00000010
00000000
,
00000100
00000000
00000000
00000000
00001000
00000000
00000000
00000000
00200000
00000000
01000000
00000000
01300000
10000000
01000000
10000000
,
02000000
00000000
03100000
00000000
00002000
00010000
00013000
00000000
,
00000200
00000000
00000000
00000000
00000010
00000000
00000000
00000000
00001000
00000000
00001300
00000000
00001000
00000100
00001000
00000100
,
00002000
00000000
00003010
00000100
00001000
00010000
00001000
01000000
,
00000000
00000000
00000000
00000000
00100000
01000000
00010000
00000000
00100000
00001000
00010000
00000000
00000010
00000000
00000200
00000000
,
00001000
00000000
00010000
00000000
,
00001000
00000000
00010000
00000000
,
00001000
00000000
00010000
00000000
,
00000300
00000000
00000000
00000000
;
