#TITLE:Surveiller et punir;
#SUBTITLE:;
#ARTIST:cybermiso;
#TITLETRANSLIT:;
#SUBTITLETRANSLIT:;
#ARTISTTRANSLIT:;
#GENRE:;
#CREDIT:yindesu;
#MUSIC:Surveiller et punir.ogg;
#BANNER:;
#BACKGROUND:;
#CDTITLE:;
#SAMPLESTART:116.200;
#SAMPLELENGTH:13.241;
#SELECTABLE:YES;
#OFFSET:1.305;
#BPMS:0.000=145.000;
#STOPS:232.000=0.414;
#DISPLAYBPM:145.000;
#LASTBEATHINT:0.601310;
#BGCHANGES:;
#FGCHANGES:;

//--------------- dance-double - yindesu ----------------
#NOTES:
     dance-double:
     yindesu:
     Hard:
     11:
     0.855889,0.881718,0.603236,0.212503,0.853441,874,786,88,31,3,0,0.855889,0.881718,0.603236,0.212503,0.853441,874,786,88,31,3,0:
00000000
00000000
00000000
00000000
,
00000000
00000000
00000000
00000000
,
00000000
00000000
00000000
00000000
,
00000000
00000000
00000000
00000000
,
00000000
00000000
00000000
00000000
,
00001000
00010000
00001000
00010000
00000000
00000000
00001000
00100000
00001000
00100000
00000000
00000000
01000000
10000000
00100000
00000000
,
01100000
00000000
00000000
00011000
00000000
00000000
00001010
00000000
00002000
00000000
00000000
00000000
00000000
00000000
00003000
00000000
,
00000010
00001000
00000000
00001000
00000010
00000000
00000100
00000000
00000001
00000010
00000000
00000010
00000100
00000000
00010000
00000000
,
00001000
00000000
01000000
00000000
00100000
00000000
10000000
00010000
00100000
00000000
00001000
00010000
00000100
00000000
00001100
00000000
,
00000100
00000010
00000100
00000000
00010000
00000000
00001000
00100000
00010000
00000000
01000000
00100000
20000000
00000000
30100000
00000000
,
01000000
00001000
00010000
00000000
00000100
00000010
00000001
00000100
00000020
00000000
00001030
00000100
00010000
00000000
00001000
00000000
,
01001000
00000000
01000000
00000000
00100000
10000000
00000000
10000000
00010000
00000000
00200000
00000000
02300000
00000000
23000000
00000000
,
31000000
00100000
00010000
00000000
10000000
01000000
00100000
00010000
00100000
00001000
00020000
00000000
00030200
00000000
00000320
00000000
,
00000031
00000010
00000100
00001000
00000001
00000010
00000100
00001000
00010000
01000000
00100000
10000000
00010000
00100000
01000000
00000000
,
10000000
01000000
00010000
00001000
00000000
00000000
00011000
00000000
00001000
00000000
00000000
00001001
00000000
00000000
00000001
00000100
,
00001000
00000000
00010000
00001000
01000000
00000000
00100000
00000000
10000000
00000000
01000000
00000000
00010000
00000000
00001000
00000000
,
00000100
00000000
00000001
00000010
00000100
00000000
00010000
00001000
01000000
00100000
01000000
00100000
02000000
00000000
03010000
10000000
,
00020000
00000000
00030000
00110000
00000000
00000000
00011000
00000000
00010000
00001000
00010000
00001000
00010000
00000000
00000100
00000000
,
00000020
00000000
00000031
00000100
00000010
00000000
00001000
00000000
00020000
00000000
00030000
00000000
00100000
01000000
10000000
00000000
,
10010000
00000000
00010000
00000000
00100000
01000000
10000000
00000000
00100000
00000000
01000000
00000000
00001000
00000000
00010000
00000000
,
00011000
00000000
00000000
00001100
00000000
00000000
00001001
00000000
00000001
00000100
00000010
00001000
00000100
00010000
00001000
00000010
,
00000002
00000000
00000003
00000000
00001001
00000000
00000000
00000000
00001100
00000000
00000000
00011000
00000000
00000000
01010000
00000000
,
01000000
00100000
10000000
00000000
00010000
00000000
01000000
00000000
00001000
00010000
00001000
00010000
00001000
00000000
00000010
00000000
,
00000001
00000000
00000100
00000000
00000010
00001000
00000010
00000000
00000100
00000000
00001000
00000000
01000000
00010000
01000000
00000000
,
00100000
00000000
10000000
00000000
00010000
00100000
00010000
00000000
00011000
00000000
00000000
00001100
00000000
00000000
00000110
00000000
,
00000010
00000000
00000001
00000000
00000100
00000010
00001000
00000000
00000100
00000000
00000010
00000001
00001000
00000000
00001100
00000000
,
00000000
00000000
00000100
00000000
00010000
00001000
01000000
00000000
01100000
00000000
00000000
10010000
00000000
00000000
00110000
00000000
,
00100000
00000000
00001000
00000000
00010000
00000100
00000010
00000000
00000001
00000000
00000100
00000010
00001000
00000000
00000100
00000000
,
00010000
00000000
00000100
00000000
00000010
00000001
00001000
00000000
00001100
00000000
00000000
00011000
00000000
00000000
01010000
00000000
,
01000000
00000000
00100000
00000000
10000000
00010000
00100000
00000000
00001000
00000000
00100000
01000000
10000000
00000000
00100000
00000000
,
00010000
00000000
00001000
00000000
00010000
00001000
00000100
00000000
00000001
00001000
00000001
00001000
00000010
00010000
00000010
00000000
,
00001000
00000000
00010000
00000000
01000000
00000000
00100000
00000000
00010000
00001000
00010000
00001000
00020000
00000000
00000000
00000000
,
00030100
00000010
00000100
00000010
00000001
00000000
00001000
00000000
00000100
00010000
00000000
00010000
01000000
00000000
10000000
00100000
,
01000000
00000000
00010000
00000000
00110000
00000000
00100000
00001000
00010000
00000000
00001000
00010000
00000100
00000000
00000010
00000001
,
00000100
00000000
00001000
00000000
00010000
01000000
10000000
00000000
00100000
01000000
00010000
00100000
01000000
10000000
00100000
00000000
,
01000000
00000000
00001000
00000000
00010000
00001000
00000100
00000000
00000001
00000000
00000010
00000100
00010000
00000000
00001000
01000000
,
00100000
00000000
00010000
00000000
00001000
00000100
00000010
00000000
00001010
00000000
00000000
00001001
00000000
00000000
00000011
00000000
,
00000110
00000000
00001100
00000000
00000100
00000010
00000001
00000000
00000101
00000000
00000000
00000000
00000110
00000000
00000000
00000000
,
00011000
00000000
00000000
00000000
,
20000000
00000000
00000000
01000000
32000000
00000000
00000000
00010000
,
03020000
00000000
00031000
00010000
00000020
00000000
00001030
00000001
,
00000010
00000100
00001000
00000100
00000010
00000100
00001000
00000000
00010000
01000000
00100000
10000000
00010000
00000000
00100000
00000000
,
00001000
00010000
00001000
00100000
00001000
00010000
00001000
00000000
00100000
00001000
00010000
00000100
00001000
00000000
00000100
00000000
,
00000020
00000000
00000031
000000M0
00000000
00000200
00000000
00010300
,
00000M00
02000000
00000000
03100000
0M000000
00020000
00000000
10030000
,
00100000
00000000
01000000
00010000
00100000
00000000
00001000
00000000
00010000
00000000
00000100
00000010
00000100
00001000
00000001
00000000
,
00000200
00000000
00000000
00000000
00000310
00010000
00001000
00000000
00010000
00001000
01000000
00100000
00010000
00000000
00001000
00000000
,
00010000
00001000
00010000
00001000
00010000
00001000
00010000
00001000
00010000
00000000
00000000
00001010
00000000
00000000
00000010
00000000
,
00000100
00000001
00000000
00000001
00000010
00000000
00000010
00001000
00000000
00001000
01000000
00000000
00100000
10000000
00010000
00000000
,
00100000
01000000
00100000
01000000
00100000
01000000
00100000
01000000
00100000
00000000
00000000
11000000
00000000
00000000
10000000
00000000
,
10100000
00000000
00000000
00110000
00000000
00000000
00001010
00000000
00011000
00000000
00000000
00001100
00000000
00000000
00000101
00000000
,
00000100
00000000
00000010
00001000
00000100
00000000
00000010
00000000
00000001
00000000
00001000
00000010
00020000
00000000
00000000
00000000
,
00030100
00000000
00000010
00000001
00000100
00000010
00001000
00000000
00001100
00000000
00001001
00000000
00001010
00000000
00001001
00000000
,
00001000
00000000
00000100
00010000
00001000
00010000
00000100
00000000
00000010
00000000
00000100
00010000
00002000
00003000
00000000
00000000
,
00100000
01000000
00100000
01000000
00000000
00000000
00000000
00000000
00010000
00001000
00000000
00000100
00000010
00000000
00001000
00000000
,
00000001
00000000
00000010
00000100
00001000
00000010
00000100
00000000
00000001
00000000
00000100
00000010
00000000
00000000
00001000
00000000
,
00000100
00010000
00001000
01000000
00000000
00000000
00000000
00000000
00101000
00000000
00110000
00000000
01100000
00000000
00110000
00000000
,
00010000
00000000
01000000
00100000
10000000
00010000
00100000
00000000
00001000
00000000
00010000
00000100
00000010
00000000
00000001
00000000
,
00000020
00000030
00000000
00000000
00000000
00000000
00000000
00000000
00000000
00000000
00000000
00000000
00000000
00000000
00000000
00000000
00001000
00000000
00000000
00000000
00010000
00000000
00000000
00000000
00001000
00000000
00000000
00000000
00010000
00000000
00000000
00000000
00100000
00000000
00000000
00000000
10000000
00000000
00000000
00000000
00100000
00000000
00000000
00000000
10000000
00000000
00000000
00000000
01000000
00000000
00000000
00000000
00000000
00000000
00000000
00000000
00100000
00000000
00000000
00000000
00010000
00000000
00000000
00000000
,
01000000
00100000
10000000
00000000
10010000
00000000
00010000
00000000
00110000
00000000
00100000
00000000
00001000
00000000
00010000
00000100
,
00000010
00000001
00000100
00000000
00000110
00000000
00001000
00000000
00001001
00000000
00000001
00000000
00000101
00000000
00000000
00000000
,
00000010
00010000
00011000
00001000
01001000
00000000
01100000
00000000
,
10000000
01000000
00100000
00000000
00101000
00000000
00110000
00000000
01100000
00000000
00000000
00000000
10000000
01000000
00100000
00010000
,
00100000
00001000
00010000
00000000
00010010
00000000
00000000
00001010
00000000
00000000
00000110
00000000
00000100
00000001
00000010
00000100
,
00010000
00001000
00010000
00000000
00001000
01000000
00100000
01000000
00000000
00000000
00001000
00000000
00100000
00010000
00100000
00010000
,
00000000
00000000
00001000
00000010
00001000
00000010
00000000
00000000
00000100
00000001
00001000
00000000
00001100
00000000
00000000
00011000
,
00000000
00000000
00110000
00000000
10010000
00000000
10000000
00100000
01000000
00001000
00010000
00000000
00011000
00000000
00001000
00000000
,
00000010
00000001
00000100
00000000
00000010
00000000
00010000
00000000
00001000
00010000
01000000
00000000
10000000
00000000
00100000
00000000
,
01000000
00010000
00100000
00000000
01000000
00000000
00010000
00000000
00011000
00000000
00000000
00000000
00001000
00000000
00000010
00000000
,
00000001
00000100
00000010
00000000
00001000
00000000
00010000
00000000
00100000
01000000
10000000
00000000
10010000
00000000
00000000
00000000
,
00100000
00000000
00001000
00000000
00011000
00000000
00000000
00000000
00001010
00000000
00000000
00000000
00000010
00001000
00000100
00000010
,
00000001
00000100
00000010
00000000
00010000
00001000
00000100
00000010
00001000
00000100
00010000
00000000
01000000
10000000
01000000
00000000
,
00100000
00010000
00100000
00000000
00000000
00100000
00001000
00010000
00000100
00000000
00001000
00000000
00000100
00000010
00000001
00000100
,
00001000
00010000
00001000
00000000
00100000
01000000
10000000
00100000
01000000
00010000
00100000
00000000
01100000
00000000
00000000
00110000
,
00000000
00011000
00002000
00023000
00030020
00002030
00003200
00000000
,
00000310
00000100
00010000
00000000
00001000
00100000
00010000
00000000
01000000
00100000
10000000
00000000
00010000
00100000
01000000
00000000
,
10000000
00100000
01000000
00000000
00000000
01010000
00000000
00010000
00100000
00000000
00001000
00000000
00000100
00000010
00001000
00000001
,
00001000
00000100
00010000
00000000
00001000
00100000
00001000
00010000
00000100
00000010
00000100
00000000
00010000
00001000
00010000
00000000
,
00000010
00001000
00000010
00000000
00000100
00000000
00000110
00000000
00000010
00000000
00010010
00000000
00010000
00001000
01000000
00100000
,
10000000
01000000
00100000
00000000
00010000
01000000
00100000
00010000
00001000
00000010
00000001
00000000
00001000
00000100
00001000
00000000
,
00000010
00000100
00000010
00000000
00000200
00000000
00000000
00000000
00002300
00000000
00000000
00000000
00013000
01000000
00100000
00000000
,
00010000
00100000
01000000
00000000
00010000
00000100
00000010
00000000
00000100
00010000
00000010
00000000
00001000
00000100
00001000
00000100
,
00000010
00000001
00000010
00000001
00000100
00000010
00000100
00000010
00010000
00001000
00010000
00000000
00000100
00000010
00000000
00000110
,
00000000
00010100
00000000
00000100
01000000
00100000
00000000
01100000
00000000
10100000
00000000
10000000
00100000
01000000
00000000
01010000
,
00000000
01001000
00000000
00001000
00010000
00000100
00000000
00000110
00000000
00000011
00000000
00000000
00000001
00000100
00000010
00001000
,
00000100
00010000
00001000
00100000
00010000
01000000
00100000
10000000
01000000
00010000
00001000
00000000
00000110
00000000
00000000
00000000
;
