#TITLE:水曜日のサンデー;
#SUBTITLE:TVアニメ「ハヤテのごとく! Cuties」第11話エンディングテーマ;
#ARTIST:剣野カユラ starring 日笠陽子;
#TITLETRANSLIT:Suiyoubi no Sunday;
#SUBTITLETRANSLIT:TV Animation "Hayate no Gotoku! Cuties" Episode 11 Ending Theme;
#ARTISTTRANSLIT:Kayura Tsurugino starring Yoko Hikasa;
#GENRE:アニソン;
#CREDIT:yindesu;
#MUSIC:Suiyoubi no Sunday.ogg;
#BANNER:;
#BACKGROUND:;
#CDTITLE:;
#SAMPLESTART:48.805;
#SAMPLELENGTH:12.468;
#SELECTABLE:YES;
#OFFSET:1.053;
#BPMS:0.000=154.000;
#STOPS:;
#BGCHANGES:3.000=Suiyoubi no Sunday.mp4=1.000=0=0=0=StretchNoLoop====,
99999.000=-nosongbg-=1.000=0=0=0=StretchNoLoop====
;
#FGCHANGES:;

//--------------- dance-double - yindesu (v2) ----------------
#NOTES:
     dance-double:
     yindesu (v2):
     Hard:
     9:
     0.615901,0.799622,0.795073,0.335946,0.347144,385,314,71,30,0,0,0.615901,0.799622,0.795073,0.335946,0.347144,385,314,71,30,0,0:
00000000
00000000
00000000
00000000
,
00000000
00000000
00000000
00000000
,
00001000
00010000
00000000
00010000
00000000
00010000
00001000
00000000
00100000
00010000
00000000
01000000
00000000
00000000
00100000
00000000
,
00010000
00000000
00000000
00000100
00000000
00000000
00000010
00000000
00000110
00000000
00000000
00000010
00000000
00000000
00000001
00000000
,
00001000
00000010
00001000
00000010
00010000
00001000
00010000
00001000
01000000
00010000
01000000
00010000
00100000
01000000
10000000
00000000
,
11000000
00000000
00000000
01100000
11000000
00000000
10010000
00000000
,
10100000
00000000
00000000
00000000
,
00000000
00000000
00000000
00000000
00000000
00000000
00000000
00000000
00000000
00000000
11000000
00000000
00000000
01100000
00000000
00000000
,
00110000
00000000
00000000
00000000
,
00000000
00000000
00000000
00000000
00000000
00000000
00000000
00000000
00000000
00000000
00011000
00000000
00000000
00001100
00000000
00000000
,
00001001
00000000
00000000
00000000
,
00000000
00000000
00000000
00000000
00000000
00000000
00000000
00000000
00000000
00000000
00001010
00000000
00000000
00000110
00000000
00000000
,
00001100
00000000
00000000
00000000
,
00000110
00000000
00000000
00000000
00001100
00000000
00000000
00000000
00011000
00000000
00010000
00000000
01000000
10000000
00100000
00000000
,
01000000
00001000
00010000
00001000
00100000
00001000
00001000
00010000
,
00000100
00000010
00000001
00000001
00001000
00000010
00000010
00000100
,
00001000
00010000
00001000
00011000
00010000
01000000
10000000
00100000
,
01100000
01010000
00011000
00001100
,
00000010
00000001
00001000
00000100
00010000
00001000
00001000
01000000
,
00100000
00010000
00000100
00000100
00001000
00000010
00000010
00000100
,
00001000
00100000
00010000
00110000
00100000
01000000
10000000
00010000
,
00110000
00000000
01100000
00000000
00011000
00000000
00001010
00000010
,
00000100
00000000
00000000
00000001
00000000
00000000
00001001
00000000
00000000
00000000
00001001
00000000
00000000
00000000
00000000
00000000
,
00000100
00000000
00000000
00010000
00000000
00000000
00011000
00000000
00000000
00000000
00011000
00000000
00000000
00000000
00000000
00000000
,
00001000
00000000
00000000
00100000
00000000
00000000
01100000
00000000
00000000
00000000
01100000
00000000
00000000
00000000
00000000
00000000
,
10000000
00000000
00000000
00100000
00000000
00000000
01100000
00000000
00000000
00000000
01100000
00000000
00000000
00000000
00000000
00000000
,
10100000
00000000
00000000
00000000
00000000
00000000
00000000
00110000
,
00110000
00000000
00000000
00000000
00000000
00000000
00000000
00011000
,
00010010
00010010
00000000
00000000
00001100
00001100
00000000
00000000
,
00011000
00011000
00000000
00000000
01010000
01010000
00000000
00000000
,
00110000
00011000
00001010
00011000
,
00100000
00000000
00000000
00001000
00000000
00000000
00010000
00000000
00000100
00000000
00000000
00000000
00000110
00000000
00000000
00000000
,
00001000
00000000
00000100
00000000
00000010
00000000
00000100
00000000
00010000
00000000
00001000
00000000
00010000
00000000
00100000
10000000
,
00200000
02300000
03002000
00013000
,
01000000
00000000
10000000
00000000
00100000
00000000
00010000
00000000
00001000
00000000
00010000
00000000
00000100
00000000
00000010
00000001
,
00000020
00000000
00000000
00000230
00000000
00000000
00020300
00000000
00032000
00000000
00000000
00000000
00003100
00000000
00000000
00000000
,
00000001
00000000
00000010
00000000
00000001
00000000
00000100
00000000
00001000
00000000
00010000
00000000
00001000
00000000
00100000
00010000
,
00200000
00000000
00000000
02300000
00000000
00000000
03020000
00000000
00032000
00000000
00000000
00000000
02003000
00000000
00000000
00000000
,
03200000
20300000
32000000
03010000
,
00011000
00000000
00000000
00110000
00000000
00000000
00011000
00000000
00010100
00000000
00000000
00000000
00000100
00000010
00000001
00000000
,
00001000
00000000
00000010
00000000
00000100
00000000
00000001
00000000
00000010
00000000
00001000
00000000
00010000
00000000
01000000
10000000
,
02000000
03020000
00032000
00003100
,
00000001
00000000
00000010
00000000
00000100
00000000
00010000
00000000
00001000
00000000
00010000
00000000
01000000
00000000
00100000
00001000
,
00200000
00000000
00000000
00320000
00000000
00000000
02030000
00000000
03200000
00000000
00000000
00000000
00310000
00000000
00000000
00000000
,
00001000
00000000
00000100
00000000
00001000
00000000
00100000
00000000
00010000
00000000
01000000
00000000
00100000
00000000
10000000
00010000
,
20000000
00000000
00000000
30200000
00000000
00000000
02300000
00000000
03002000
00000000
00000000
00000000
00023000
00000000
00000000
00000000
,
00030200
00000000
00000000
00000000
00000320
00000000
00000000
00000000
00000032
00000000
00000000
00001003
00000000
00000000
00000100
00000000
,
00000110
00000110
00000000
00000000
00011000
00011000
00000000
00000000
,
01100000
01100000
00000000
00000000
01001000
00000000
00011000
00000000
,
00110000
00000000
00010000
00000000
01000000
00100000
01000000
00000000
00001000
00010000
00000000
00010000
00000100
00000000
00000010
00000000
,
00000001
00000000
00000000
00000100
00000000
00000000
00000010
00000000
00001010
00000000
00000000
00000000
00011000
00000000
00000000
00000000
,
00100000
00001000
00000000
00001000
00000000
00001000
00010000
00000000
01000000
00100000
00000000
00001000
00000000
00000000
00010000
00000000
,
00000100
00000000
00000000
00010000
00000000
00000000
00001000
00000000
01001000
00000000
00000000
00000000
01100000
00000000
00000000
00000000
,
10000000
01000000
00000000
01000000
00000000
01000000
00100000
00000000
00001000
00010000
00000000
00001000
00000000
00000000
01000000
00000000
,
00100000
00000000
00000000
00010000
00000000
00000000
00001000
00000000
00010000
00000000
00000000
00000100
00000000
00000000
00000010
00000000
,
00000100
00010000
00000100
00010000
00001000
01000000
00001000
01000000
00100000
10000000
00100000
10000000
01000000
00100000
01000000
00100000
,
00000000
00000000
00000000
00000000
,
00001100
00001100
00000000
00000000
00000000
00000000
00000000
00000000
;
