#TITLE:JIMO-AI Dash!;
#SUBTITLE:;
#ARTIST:Aqours;
#TITLETRANSLIT:;
#SUBTITLETRANSLIT:;
#ARTISTTRANSLIT:;
#GENRE:Eurobeat;
#CREDIT:yindesu;
#MUSIC:JIMO-AI Dash!.ogg;
#BANNER:;
#BACKGROUND:;
#CDTITLE:;
#SAMPLESTART:65.130;
#SAMPLELENGTH:26.000;
#SELECTABLE:YES;
#OFFSET:1.316;
#BPMS:0.000=143.000;
#STOPS:;
#LASTBEATHINT:0.619233;
#BGCHANGES:3.938=1.mp4=1.000=0=0=0=StretchNoLoop====,
158.000=2.mp4=1.000=0=0=0=StretchNoLoop====,
99999.000=-nosongbg-=1.000=0=0=0=StretchNoLoop====
;
#FGCHANGES:;

//--------------- dance-double - yindesu ----------------
#NOTES:
     dance-double:
     yindesu:
     Medium:
     8:
     0.502888,0.513332,0.109762,0.219523,0.141122,449,435,14,28,0,0,0.502888,0.513332,0.109762,0.219523,0.141122,449,435,14,28,0,0:
00000000
00000000
00000000
00000000
,
00000000
00000000
00000000
00000000
,
00000000
00000000
00000000
00000000
,
00000000
00000000
00000000
00000000
,
10000000
01000000
00100000
00001000
,
00021000
00000000
00000000
00000000
,
00000000
00000000
00000000
00000000
00031000
00010000
00000100
00000000
,
00000010
00000000
00000001
00000010
00000000
00000010
00000100
00000000
00000000
00000000
00010000
00000000
01000000
00000000
10000000
00000000
,
00100000
00000000
01000000
00010000
00000000
00010000
00100000
00000000
00000000
00000000
01000000
00000000
10000000
00000000
01000000
00000000
,
00100000
00000000
00001000
00000000
00010000
00000000
00000000
00000000
00001000
00010000
00000000
00001000
00000000
00010000
00001000
00000000
,
00000100
00000001
00000010
00000100
00010000
00001000
01000000
00100000
,
10000000
00000000
00010000
10000000
00000000
10000000
00100000
00000000
00000000
00000000
01000000
00000000
00010000
00000000
00100000
00000000
,
00001000
00000000
00010000
00000100
00000000
00000100
00000010
00000000
00000000
00000000
00000100
00000000
00010000
00000000
00000100
00000000
,
00001000
00000000
00010000
00000000
00100000
00000000
01000000
00000000
10000000
00010000
00000000
00100000
00000000
00010000
01000000
00000000
,
00100000
10000000
00010000
01000000
00001000
00010000
00000010
00000000
,
00001000
00000001
00000000
00000001
00001000
00000000
00000100
00000000
,
00010000
00001000
01000000
00100000
10000000
00000000
01000000
00000000
,
00100000
00010000
00000000
00010000
00100000
00000000
01000000
00000000
,
10000000
01000000
00010000
00001000
00000100
00000001
00000010
00000100
,
00001000
00000000
00000010
00000100
00000010
00000000
00010000
00001000
,
00010000
00001000
00010000
00001000
00010000
00000000
01000000
00000000
,
10000000
00000000
00100000
01000000
00001000
00010000
00000000
00011000
,
00000000
00000000
00000000
00001000
00100000
00000000
01100000
00000000
,
01000000
10000000
00000000
10000000
01000000
00000000
00010000
00000000
,
00001000
00010000
00001000
00000100
00000010
00000000
00000100
00000000
,
00000001
00000010
00000000
00000010
00000001
00000000
00000100
00000000
,
00001000
00010000
00001000
00010000
01000000
10000000
01000000
10000000
,
00010000
00000000
01000000
00100000
10000000
00000000
00010000
00100000
,
00001000
00010000
00000100
00001000
00000010
00000000
00000100
00000000
,
00000001
00000010
00000100
00001000
00000001
00000010
00000100
00001000
,
00020000
02030000
03200000
20300000
,
30010000
00000000
01000000
00100000
10000000
00000000
01000000
00100000
,
00001000
00010000
00001000
00000000
00000100
00000001
00000010
00000100
,
00020000
00000000
00031000
01000000
00100000
00000000
10000000
00100000
,
02000000
00000000
03002000
00000000
00013000
00000100
00001000
00000000
,
00000010
00000010
00000000
00000000
00000100
00000100
00000000
00000000
,
00001000
00001000
00000000
00000000
00022000
00000000
00033000
00000000
,
00001000
00001000
00010000
00000000
01000000
01000000
10000000
00000000
,
00010000
00010000
00200000
00000000
00302000
00000000
00023000
00000000
,
00030200
00000000
00000000
00000000
00000000
00000310
00000110
00000000
,
00000001
00000100
00000010
00001000
00000100
00000000
00000110
00000000
,
00000100
00010000
00001000
01000000
00100000
00000000
01100000
00000000
,
00100000
10000000
01000000
00100000
00010000
00100000
00001000
00010000
,
00000100
00000010
00000001
00001000
00000001
00000000
00000100
00000000
,
00000010
00010000
00001000
01000000
00100000
00000000
01100000
00000000
,
01000000
00001000
00010000
00000100
00001000
00000000
00001100
00000000
,
00000100
00000010
00000001
00000100
00000000
00001000
00000000
00010000
,
00000200
00000320
00000032
00002003
,
00003001
00000000
00000200
00000000
00000301
00000000
00000010
00000100
,
00000000
00001000
00000010
00001000
00000100
00010000
00001000
00010000
,
01000000
00000000
20000000
00000000
30100000
00000000
01000000
00010000
,
00000000
00100000
01000000
10000000
00010000
00100000
00001000
00010000
,
00001000
00000000
00000200
00000000
00000301
00000000
00000010
00000100
,
00000000
00001000
00000001
00000100
00000010
00001000
00000100
00010000
,
00001000
00000000
00011000
00001000
00100000
00000000
00110000
00010000
,
10000000
01000000
00100000
00001000
00020000
00002000
00033000
00000000
,
00011000
00000000
00001000
00010000
00000000
00010000
00000100
00000000
00000000
00000000
00000010
00000000
00000001
00000000
00000100
00000000
,
00000010
00000000
00001000
00000100
00000000
00000100
00000010
00000000
00000000
00000000
00000001
00000000
00000100
00000000
00000010
00000000
,
00010000
00000000
00001000
00000000
00100000
00000000
00000000
00000000
01000000
00100000
00000000
00010000
00000000
01000000
00100000
00000000
,
10000000
00010000
00100000
00001000
00010000
00000010
00000100
00000001
,
00000010
00000000
00000001
00000100
00000000
00000100
00000010
00000000
00000000
00000000
00001000
00000000
00000100
00000000
00010000
00000000
,
00001000
00000000
00100000
01000000
00000000
01000000
10000000
00000000
00000000
00000000
00100000
00000000
01000000
00000000
00001000
00000000
,
00010000
00000100
00000010
00000001
00000100
00001000
00010000
00000100
,
00000010
00000001
00001000
00000010
00010000
00001000
01000000
00100000
,
00000000
00000000
10020000
00000000
10030000
01000000
00100000
00010000
,
00001000
00000100
00000010
00000001
00000100
00000010
00001000
00000100
,
00000020
00000000
00000031
00000000
00001000
00000000
00000000
00000000
00000100
00000010
00000000
00000001
00000000
00000100
00000010
00000000
,
00001000
00000100
00001000
00010000
00100000
01000000
10000000
00100000
,
01000000
00000000
00010000
00100000
00000000
00100000
01000000
00000000
00000000
00000000
10000000
00000000
00100000
00000000
01000000
00000000
,
00010000
00000000
00100000
00001000
00000000
00001000
00010000
00000000
00000000
00000000
00000100
00000000
00000010
00000000
00000001
00000000
,
00000100
00000000
00000010
00000000
00010000
00000000
00000000
00000000
00001000
00010000
00000000
00000100
00000000
00010000
00001000
00000000
,
01000000
00100000
10000000
00010000
00100000
00001000
00010000
00000100
,
00000020
00000000
00000000
00000032
00000000
00000000
00002003
00000000
00000000
00003000
00000000
00000000
00001001
00000000
00000000
00000000
;

//--------------- dance-double - yindesu ----------------
#NOTES:
     dance-double:
     yindesu:
     Hard:
     10:
     0.756012,0.867314,0.462567,0.164643,0.595849,675,616,59,21,0,0,0.756012,0.867314,0.462567,0.164643,0.595849,675,616,59,21,0,0:
00000000
00000000
00000000
00000000
,
00000000
00000000
00000000
00000000
,
00000000
00000000
00000000
00000000
,
00101000
00000000
00000000
00110000
00000000
00000000
00011000
00000000
00001100
00000000
00000000
00010100
00000000
00000000
00011000
00000000
,
00001000
01000000
00100000
00000000
01000000
00010000
00100000
00000000
01000000
10000000
00010000
00000000
00110000
00000000
00000000
00000000
,
00002000
00000000
00000000
00000000
,
00000000
00000000
00000000
00000000
00013000
00000100
00000110
00000000
,
00000001
00000000
00001000
00000100
00000000
00010000
00001000
00000000
00000000
01000000
00100000
10000000
01000000
00100000
00010000
00100000
,
00010000
00000000
01000000
00010000
00000000
00100000
00001000
00000000
00000000
00000100
00000010
00001000
00000001
00000010
00000001
00000010
,
00000100
00001000
00000001
00001000
00000010
00000000
00001000
00000010
00000100
00000001
00000000
00001001
00000000
00001000
00000010
00000100
,
00000001
00000010
00000001
00000000
00000100
00000010
00000100
00000000
00001000
00010000
00001000
00000000
00000100
00000001
00000100
00000000
,
00000010
00000000
00010000
00001000
00000000
01000000
00100000
00000000
00000000
10000000
01000000
00100000
00010000
00100000
00010000
01000000
,
00100000
00000000
10000000
01000000
00000000
00010000
00001000
00000000
00000000
00010000
01000000
10000000
00100000
01000000
00100000
01000000
,
00010000
00100000
01000000
10000000
01000000
00000000
00100000
00001000
00010000
00001000
00000000
00011000
00000000
00010000
00000100
00000010
,
00000001
00000010
00000001
00000000
00001000
00000010
00001000
00000000
00001100
00000000
00000110
00000000
00001001
00000000
00000000
00000000
,
00000001
00001000
00000100
01000000
00100000
10000000
00010000
10000000
,
00100000
00010000
00001000
00000010
00000001
00000100
00000010
00010000
,
00001000
01000000
00100000
01000000
00001000
00010000
00000100
00000010
,
00000001
00000000
00000100
00000000
00000010
00000000
00010000
00000000
00001000
00000000
01000000
00010000
00100000
00000000
00010000
00000000
,
10000000
00000000
10010000
00010000
10010000
00000000
00110000
00100000
,
00101000
00001000
00011000
00010000
00010010
00000000
00000010
00001000
,
00000100
00000010
00000001
00000100
00001000
00010000
00100000
01100000
,
00000000
00000000
00000000
00000000
00000000
00000000
00100000
10000000
00100000
10000000
00100000
00000000
01000000
00000000
00000000
00000000
,
01010000
00010000
00100000
01000000
10000000
00100000
00010000
00001000
,
00000010
00000000
00000001
00000000
00000100
00000000
00000010
00000000
00001000
00000000
00000100
00000010
00000001
00000000
00000100
00000000
,
00000010
00010000
00001000
01000000
00100000
10000000
00010000
00100000
,
01000000
00000000
00010000
00000000
00001000
00000000
00000100
00000000
00000001
00000000
00000010
00000001
00001000
00000000
00000001
00000000
,
00000100
00001000
00100000
01000000
10000000
00100000
00010000
00001000
,
00000010
00000000
00000001
00000000
00000100
00000000
00000010
00000000
00010000
00000000
00001000
00100000
00010000
00000000
10000000
00000000
,
00100000
01000000
00001000
00010000
00000100
00000010
00000001
00000100
,
00000110
00001010
00101000
10010000
,
11000000
00000000
00000000
00000000
01000000
00000000
00010000
00000000
00001000
00010000
00001000
00000000
00000100
00000000
00000001
00000000
,
00000010
00000100
00001000
00000000
00000010
00000100
00001000
00000000
01000000
00000000
00100000
00000000
10000000
00000000
00010000
00000000
,
00001000
00000000
00000100
00000000
00000010
00000000
00000001
00000000
00001000
00000001
00001000
00000000
00000100
00000000
00000010
00000000
,
00000001
00000010
00000100
00000000
00000010
00000100
00001000
00000000
00010000
00100000
01000000
00000000
00100000
01000000
10000000
00000000
,
10100000
10100000
00000000
00000000
01010000
01010000
00000000
00000000
,
00011000
00000000
00000000
00011000
00000000
00000000
00000000
00000000
00000000
00000000
00000000
00000000
00000100
00000000
00010000
00000000
00001000
00000000
00100000
00000000
00000000
00000000
00000000
00000000
,
00110000
00101000
00002000
00003000
00011000
00010100
00000100
00000000
,
00010100
00000000
00010100
00000000
00000100
00000000
00000010
00000000
00001000
00000000
00010000
00000000
00100000
10000000
01000000
00100000
,
00010000
00000000
00010000
00000000
00010000
01000000
10010000
00000000
,
10000000
01000000
00100000
00000000
00010000
00000000
01000000
00000000
00001000
00000000
00010000
00000000
00010100
00000000
00000100
00000000
,
00000010
00000001
00000100
00000000
00001000
00000000
00010000
00000000
00000100
00000000
00010000
00000100
00001000
00000000
00010000
00000000
,
01000000
00100000
10000000
00000000
01000000
00000000
00010000
00000000
00001000
00000000
00000100
00000000
00000001
00000000
00000010
00000000
,
00000100
00010000
00001000
00100000
01000000
10000000
00100000
01000000
,
00001000
00010000
01000000
00000000
00100000
00000000
00001000
00000000
00010000
00000000
00000100
00000000
00000110
00000000
00000010
00000000
,
00000001
00000100
00000010
00000000
00010000
00000000
00001000
00000000
01000000
00000000
00100000
10000000
00010000
00000000
01000000
00000000
,
00010000
00100000
00001000
00000100
00000001
00000010
00000100
00010000
,
00200000
20300000
32000000
03020000
,
00030100
00000010
00000001
00001000
00000100
00010000
00001000
01000000
,
00100000
00010000
00000100
00000010
00000110
00000100
00010000
00011000
,
00001000
01000000
00100000
00001000
00000100
00000010
00000001
00000100
,
00000010
00010000
01000000
10000000
10100000
00100000
00010000
00010100
,
00000100
00000010
00000001
00001000
01000000
10000000
01000000
00010000
,
00001000
00100000
00001000
00010000
00000100
00001000
00000010
00000100
,
00001000
00010000
00011000
00000000
01000000
00001000
00011000
00000000
,
00001010
00000000
00000000
00000000
00000010
00000000
00010000
00000000
00001000
00010000
00001000
00010000
00001000
00000000
00000000
00000000
,
00011000
00000000
00010000
00000010
00000000
00000010
00001000
00000000
00000000
00000010
00000100
00000001
00000010
00000100
00000010
00000100
,
00001000
00000000
00000010
00001000
00000000
00000100
00010000
00000000
00000000
00100000
01000000
00010000
00100000
01000000
00100000
01000000
,
10000000
01000000
00100000
00010000
10000000
00000000
00010000
01000000
00100000
10000000
00000000
10010000
00000000
00010000
01000000
00100000
,
10000000
01000000
10000000
00000000
00100000
01000000
00100000
00000000
00010000
00001000
00010000
00000000
00100000
10000000
00100000
00000000
,
01000000
00000000
00001000
00010000
00000000
00000010
00000100
00000000
00000000
00000001
00000010
00000100
00001000
00000100
00001000
00000010
,
00000100
00000000
00000001
00000010
00000000
00001000
00010000
00000000
00000000
00001000
00000010
00000001
00000100
00000010
00000100
00000010
,
00001000
00000100
00000010
00000001
00001000
00000000
00000100
00010000
00001000
00010000
00001000
00000000
01000000
00100000
10000000
00000000
,
01000000
00010000
00001000
00000000
01000000
00100000
00010000
00000000
00100000
00010000
00001000
00000000
00010000
00001000
00000010
00000000
,
00000000
00000000
00000000
00000000
00001001
00000000
00000000
00000000
00000001
00000100
00000020
00000000
00010030
00001000
00200000
00000000
,
01300000
10000000
00010000
00100000
01000000
00100000
00020000
00000000
01030000
00100000
10000000
00010000
00100000
01000000
20000000
00000000
,
30100000
00000000
00010000
00000000
00011000
00000000
00000000
00010000
00000100
00000000
00000000
00000110
00000000
00000100
00010000
00001000
,
01000000
00100000
01000000
00010000
00100000
00001000
00010000
00000100
00001000
00000010
00000100
00000001
00000010
00000001
00000100
00000010
,
00001000
00000000
00000100
00000010
00000000
00000001
00002000
00000000
00000000
00000000
00000000
00000000
00003100
00000010
00000001
00000000
,
00000200
00000000
00000000
00020300
00000000
00000000
00030000
00000000
,
00100000
00000000
01000000
00000000
11000000
00000000
00000000
00000000
10000000
00100000
00000000
01100000
00000000
01000000
00001000
00010000
,
00000100
00001000
00000100
00000000
01000000
00010000
00100000
00000000
00001000
00100000
00010000
00000000
00001000
00000010
00000100
00000000
,
00000220
00000000
00000330
00020020
00000000
00030030
00002200
00000000
00000000
00000000
00003300
00000000
00022000
00000000
00000000
00000000
,
00000000
00000000
00000000
00033000
;
