#TITLE:花ハ踊レヤいろはにほ;
#SUBTITLE:TVアニメ「ハナヤマタ」オープニングテーマ;
#ARTIST:チーム"ハナヤマタ";
#TITLETRANSLIT:Hana wa Odore ya Iroha ni Ho;
#SUBTITLETRANSLIT:TV Animation "Hanayamata" Opening Theme;
#ARTISTTRANSLIT:Team "Hanayamata";
#GENRE:アニソン;
#CREDIT:yindesu;
#MUSIC:Hana wa Odore ya Iroha ni Ho.ogg;
#BANNER:;
#BACKGROUND:;
#CDTITLE:;
#SAMPLESTART:52.131;
#SAMPLELENGTH:12.000;
#SELECTABLE:YES;
#OFFSET:0.350;
#BPMS:0.000=160.000;
#STOPS:;
#BGCHANGES:0.688=Hana wa Odore ya Iroha ni Ho.mkv=1.000=0=0=0=StretchNoLoop====,
99999.000=-nosongbg-=1.000=0=0=0=StretchNoLoop====
;
#FGCHANGES:;

//--------------- dance-double - yindesu ----------------
#NOTES:
     dance-double:
     yindesu:
     Hard:
     8:
     0.572608,0.585352,0.456224,0.032587,0.038019,369,327,42,3,0,0,0.572608,0.585352,0.456224,0.032587,0.038019,369,327,42,3,0,0:
00000000
00000000
00000000
00000000
,
00000000
00000000
00000000
00000000
,
00000000
00000000
00000000
00000000
,
00000000
00000000
00000000
00000000
,
00000000
00000000
00000000
00000000
,
10010000
00000000
00010000
01000000
00100000
00010000
00001000
00000010
,
00000001
00000100
00000010
00001000
00000010
00001000
00000001
00001000
,
00001100
00000000
00000100
00000010
00000001
00001000
00000001
00000100
,
00001000
00000000
00010000
00000000
00011000
00000000
00000000
00000000
00110000
00000000
00000000
00000000
00010000
00100000
00010000
00000000
,
10000000
00000000
01000000
10000000
00010000
00000000
01000000
00001000
,
00010000
00000000
00000000
00000000
00000100
00000000
00000010
00000000
00000001
00000000
00000000
00000000
00001000
00000000
00000100
00000010
,
00000100
00000000
00000010
00000001
00000100
00000000
00000010
00010000
,
00001000
00000000
01000000
00010000
00100000
00000000
01000000
10000000
,
00010000
00000000
01000000
00100000
00010000
00000000
00001000
00000100
,
00000010
00000000
00000000
00000000
00001000
00000000
00000001
00000000
00000010
00000000
00000000
00000000
00000100
00000000
00010000
00001000
,
00010000
00000000
01000000
10000000
00100000
00000000
01000000
00010000
,
00100000
00001000
00010000
00010100
,
00001100
00000000
00000001
00000000
00000100
00000010
00001000
00000000
,
00000100
00000000
00010000
00000000
00001000
00100000
01000000
00000000
,
10000000
00000000
00100000
00000000
01000000
00001000
00010000
00000000
,
00001000
00000000
00000100
00000000
00000001
00000010
00000100
00000000
,
00001100
00000000
00001000
00000100
00010000
00001000
00010000
00000000
,
00100000
00000000
01000000
00010000
00100000
00010000
10000000
00000000
,
01000000
00000000
00100000
00001000
00010000
00001000
00010000
00000000
,
00000100
00000000
00000010
00000100
00001000
00000000
00011000
00000000
,
00110000
00000000
00000000
00010000
00000000
00000000
01000000
00000000
01010000
00000000
00000000
00000000
00100000
00000000
00000000
00000000
,
01100000
00001000
00011000
00000100
,
00001100
00000000
00000000
00001000
00000000
00000000
00000010
00000000
00000110
00000000
00000000
00000000
00000001
00000000
00000000
00000000
,
00001001
00000000
00001010
00011000
,
01100000
00000000
01000000
10000000
00010000
00100000
00001000
00010000
,
00000010
00000000
00000100
00000010
00001000
00000001
00001000
00000010
,
00000100
00000000
00001000
00100000
00010000
01000000
00010000
01000000
,
00100000
00000000
10000000
01000000
00100000
00010000
10000000
00000000
,
10010000
00110000
00011000
00001010
,
00001001
00000002
00000000
00000013
,
00000110
00000000
00000010
00001000
00010000
00000000
00100000
00010000
,
00001000
00000010
00001000
00010000
00001000
00000000
00110000
00000000
,
01000000
10000000
01000000
00010000
00001000
00000000
00010000
00001000
,
00000100
00000001
00000010
00000100
00010000
00001000
00001000
00000000
,
00001100
00000000
00000100
00000000
00000010
00000001
00000100
00000000
,
00001000
00000000
00010000
00000000
01000000
10000000
00100000
00000000
,
01000000
00000000
00010000
00100000
02000000
00000000
10000000
00000000
,
03200000
00000000
00000000
00000000
00010000
00000000
00000000
00000000
00301000
00000000
00010000
00000000
00000100
00001000
00000100
00000000
,
00000010
00000000
00000001
00000100
00001000
00000000
00010000
00000100
,
00000010
00001000
00010000
00001000
00000100
00000000
00000110
00000000
,
00000001
00000010
00000100
00010000
00001000
00000100
00000010
00001000
,
00000100
00001000
00000100
00000010
00000001
00000010
00000010
00000000
,
00001010
00001010
00011000
00011000
,
00110000
00000000
00000000
00000000
00110000
00000000
00000000
00000000
01010000
00000000
00000000
00000000
00010000
00000000
01000000
00100000
,
01000000
01100000
10100000
10100000
,
10010000
00110000
00001100
00000110
,
00001001
00000000
00000000
00000000
,
00000010
00001000
00000100
00000010
00000100
00010000
00001000
00000100
,
00010000
00100000
00001000
00010000
00000100
00000010
00000001
00000000
,
00001000
00000100
00000010
00000001
00001000
00000001
00000010
00000100
,
00001000
00000100
00000001
00000100
00001000
00000010
00000100
00001000
,
00010000
01000000
00100000
00010000
01000000
00100000
10000000
00010000
,
00100000
01000000
10000000
00100000
01000000
00001000
00010000
00000000
,
00000100
00000010
00000001
00000100
00000010
00000100
00001000
00010000
,
00001000
00010000
00100000
01000000
00100000
10000000
00100000
00100000
;
