#TITLE:義勇忍侠花吹雪;
#SUBTITLE:;
#ARTIST:可惜夜月;
#TITLETRANSLIT:Giyuu Ninkyou Hanafubuki;
#SUBTITLETRANSLIT:;
#ARTISTTRANSLIT:ATARAYODUKI;
#GENRE:;
#CREDIT:yindesu;
#MUSIC:Giyuu Ninkyou Hanafubuki.ogg;
#BANNER:;
#BACKGROUND:;
#CDTITLE:;
#SAMPLESTART:52.561;
#SAMPLELENGTH:17.344;
#SELECTABLE:YES;
#OFFSET:2.230;
#BPMS:0.000=256.000;
#STOPS:;
#LASTBEATHINT:5.032930;
#BGCHANGES:3.376=Giyuu Ninkyou Hanafubuki.mp4=1.000=0=0=0=StretchNoLoop====,
99999.000=-nosongbg-=1.000=0=0=0=StretchNoLoop====
;
#FGCHANGES:;

//--------------- dance-double - yindesu ----------------
#NOTES:
     dance-double:
     yindesu:
     Hard:
     10:
     0.725456,0.896348,0.37037,0.320988,0.00823,617,572,45,39,0,0,0.725456,0.896348,0.37037,0.320988,0.00823,617,572,45,39,0,0:
00000000
00000000
00000000
00000000
,
00000000
00000000
00000000
00000000
,
00000000
00000000
00000000
00000000
,
00000000
00000000
00000000
00000000
,
00000000
00000000
00000000
00000000
,
00000000
00000000
00000000
00000000
,
00000000
00000000
00000000
00000000
,
00000000
00000000
00000000
00000000
,
00000000
00000000
00000000
00000000
,
00000000
00000000
00000000
00000000
,
00000000
00000000
00000000
00000000
,
01010000
00000000
00010000
00100000
00000000
00100000
01000000
10000000
,
00100000
00010000
00001000
00000010
00000001
00000100
00000010
00000000
,
00001000
00000000
00000100
00000010
00000000
00000010
00000001
00000100
,
00001000
00010000
01000000
10000000
00100000
01000000
00010000
00000000
,
00100000
00000000
01000000
10000000
00000000
10000000
00100000
01000000
,
00010000
00100000
00001000
00010000
00000100
00000010
00000001
00000000
,
00000100
00000000
00000010
00001000
00000000
00001000
00000001
00000010
,
00000100
00010000
00001000
00100000
00010000
01000000
00100000
00000000
,
01100000
00000000
00100000
10000000
00000000
10000000
01000000
00010000
,
00001000
00000100
00000001
00000010
00000100
00001000
00000010
00000000
,
00000100
00000000
00000001
00000010
00000000
00000010
00000100
00010000
,
00001000
00010000
00100000
10000000
00010000
00100000
01000000
00000000
,
10000000
00000000
00100000
01000000
00000000
01000000
00010000
00100000
,
00001000
00010000
00000100
00000010
00000001
00000010
00000100
00000000
,
00001000
00000010
00000100
00001000
00000000
00000000
00100000
00001000
,
00010000
01000000
00000000
00000000
00000000
00000000
00000000
00000000
,
20000000
00000000
00000000
32000000
00000000
00000000
03100000
00000000
,
00002000
00000000
00000000
00023000
00000000
00000000
00031000
00000000
,
00020000
00000000
00000000
00030200
00000000
00000000
00000310
00000000
,
00000002
00000000
00000000
00000203
00000000
00000000
00001300
00000000
,
00020000
00000000
00000000
00030200
00000000
00000000
00010300
00000000
,
00002000
00000000
00000000
02003000
00000000
00000000
03100000
00000000
,
20000000
00000000
00000000
32000000
00000000
00000000
03010000
00000000
,
00002000
00000000
00000000
00023000
00000000
00000000
00030100
00000000
,
00001100
00000000
00000000
00001100
00000000
00000000
00000110
00000000
,
00000000
00000001
00000000
00000000
00001001
00000000
00000000
00000000
,
00001010
00000000
00000000
00001010
00000000
00000000
00011000
00000000
,
00000000
00010000
00000000
00000000
01001000
00000000
00000000
00000000
,
01010000
00000000
00000000
01010000
00000000
00000000
10010000
00000000
,
00000000
00100000
00000000
00000000
01100000
00000000
00000000
00000000
,
10000000
00000000
00000000
00010000
00000000
00000000
00100000
00001000
,
00010000
00001000
00010000
00000000
00010100
00000000
00000000
00000000
,
00000100
00000010
00000001
00001000
00000000
00000000
00000010
00001000
,
00000001
00000000
00000000
00000000
00000100
00001000
00010000
00000000
,
01000000
10000000
00010000
00100000
00000000
00000000
01000000
10000000
,
00010000
00000000
00000000
00000000
00100000
00010000
00001000
00000000
,
00000100
00000010
00000001
00000100
00000000
00000000
00001000
00010000
,
00001000
00000000
00000000
00000000
00010000
01000000
10000000
00000000
,
00100000
01000000
00010000
00100000
00000000
00000000
01000000
00100000
,
00010000
00000000
00000000
00000000
00001000
00000100
00000010
00000000
,
00000001
00000100
00001000
00000100
00000000
00000000
00000001
00000010
,
00000100
00000000
00000000
00000000
00010000
00001000
00010000
00000000
,
00001000
00100000
01000000
00100000
00000000
00000000
00010000
01000000
,
00100000
00000000
00010000
00000000
00000100
00000000
00000110
00000000
00000000
00000000
00000000
00000000
,
00000001
00000100
00000001
00000100
,
00000010
00010000
00000010
00010000
,
00010100
00000000
00000000
00011000
00000000
00000000
01010000
00000000
,
01100000
00000000
00000000
00000000
,
10010000
00000000
00010000
00100000
00000000
00100000
01000000
00000000
,
10000000
00000000
00100000
01000000
00000000
01000000
00001000
00000000
,
00010000
00000000
00000100
00000010
00000000
00000010
00000100
00000000
,
00001000
00000100
00000010
00000100
00010000
00001000
00010000
00000000
,
01000000
00000000
10000000
00100000
00000000
00100000
01000000
00000000
,
00010000
00000000
00100000
01000000
00000000
01000000
10000000
00000000
,
00010000
00000000
00100000
00001000
00000000
00001000
00010000
00000000
,
00000100
00000010
00000001
00000100
00000010
00001000
00000100
00000000
,
00000010
00000000
00000001
00000100
00000000
00000100
00000010
00000000
,
00001000
00000000
00000001
00000010
00000000
00000010
00000100
00000000
,
00001000
00000000
00000100
00010000
00000000
00010000
00001000
00000000
,
00100000
00010000
00100000
00001000
00100000
00010000
01000000
00000000
,
00100000
00000000
10000000
00010000
00000000
00010000
00100000
00000000
,
01000000
00000000
10000000
00100000
00000000
00100000
01000000
00000000
,
00010000
00000000
00100000
00001000
00000000
00001000
00010000
00000000
,
00000100
00000010
00000001
00001000
00000100
00010000
00001000
00000000
,
00011000
00000000
00000000
00101000
00000000
00000000
00011000
00000000
,
00000010
00001000
00000100
00000010
00000002
00000000
00001003
00000010
,
00000200
00000000
00000000
00001300
,
00100000
00010000
00100000
00001000
00100000
00010000
00100000
01000000
,
20000000
00000000
30010000
00100000
02000000
00000000
03100000
01000000
,
20000000
00000000
00000000
00000000
30010000
00000000
01000000
00100000
,
00020000
00000000
00000000
00030100
,
00002000
00000000
00000000
00003020
00000000
00000000
00000130
00000000
,
00002000
00000000
00000000
00023000
00000000
00000000
00030100
00000000
,
00000020
00000000
00000000
00000000
00000030
00000000
00000001
00001000
,
00000010
00001000
00000010
00000100
00000010
00001000
00000010
00000100
,
00000010
00010000
00001000
00010000
00000100
00001000
00010000
01000000
,
00200000
00000000
10300000
01000000
,
00020000
00000000
00000000
00032000
00000000
00000000
00003100
00000000
,
00000020
00000030
00000220
00000000
,
00000000
00000000
00000330
00000000
00000000
00000100
00000001
00000100
,
00000110
00000000
00000000
00001010
00000000
00000000
00001100
00000000
,
00022000
00033000
00010000
01000000
,
01100000
00000000
00000000
11000000
00000000
00000000
10010000
00000000
,
00220000
00000000
00000000
00000000
00000000
00330000
00010000
00000000
,
00202000
00000000
00000000
00303000
,
00011000
00000000
00000000
00001100
00000000
00000000
00000110
00000000
,
00000011
00000000
00000001
00000100
00000000
00000100
00000010
00000000
,
00001000
00000100
00000010
00000100
00001000
00000100
00000010
00000000
,
00000001
00000000
00000100
00000010
00000000
00000010
00001000
00000000
,
00000100
00010000
00001000
00010000
00000100
00010000
00001000
00000000
,
00000100
00000000
00000010
00001000
00000000
00001000
00000010
00000000
,
00000100
00001000
00010000
00000000
01000000
00000000
10000000
00010000
,
00100000
00000000
00001000
00010000
00000000
00010000
00001000
00000000
,
01000000
00000000
00100000
10000000
00000000
10000000
00010000
00000000
,
00100000
00000000
00001000
00010000
00000000
00010000
00000100
00000000
,
00000010
00000001
00000100
00000001
00000010
00000001
00001000
00000000
,
00000100
00000000
00000010
00000001
00000000
00000001
00000100
00000000
,
00000010
00000000
00001000
00000100
00000000
00000100
00010000
00000000
,
00001000
00000000
01000000
00100000
00000000
00100000
10000000
00000000
,
00010000
00100000
01000000
10000000
01000000
00100000
00010000
00000000
,
00011000
00000000
00000000
00011000
00000000
00000000
00110000
00000000
,
01100000
00000000
00000000
00110000
,
00011000
00000000
00001000
00010000
00000000
00010000
00000100
00000010
,
00000001
00000010
00001000
00000010
00000001
00000100
00000010
00000000
,
00010000
00000000
00001000
00010000
00000000
00010000
01000000
00100000
,
00010000
01000000
10000000
01000000
00010000
00100000
00001000
00000000
,
00010000
00000000
00000100
00000010
00000000
00000010
00000001
00000010
,
00000100
00001000
00010000
00100000
01000000
10000000
00010000
00000000
,
00100000
00000000
00001000
00010000
00000000
00010000
00001000
00000010
,
00000001
00000100
00001000
00010000
01000000
10000000
00010000
00000000
,
01010000
00000000
01000000
00100000
00000000
00100000
00010000
00001000
,
00000010
00000001
00000100
00000010
00001000
00000100
00000010
00000000
,
00000001
00000000
00000100
00001000
00000000
00001000
00100000
00010000
,
00100000
01000000
10000000
01000000
00010000
00001000
00000100
00000000
,
00000001
00000000
00000010
00000100
00000000
00000100
00001000
00000100
,
00010000
01000000
10000000
00100000
01000000
00010000
00100000
00000000
,
01000000
00100000
00010000
00001000
00000000
00000000
00000010
00000100
,
00001000
00010000
00000000
00000000
00000000
00000000
00000000
00000000
;
