#TITLE:Drivessover;
#SUBTITLE:;
#ARTIST:Taishi;
#TITLETRANSLIT:;
#SUBTITLETRANSLIT:;
#ARTISTTRANSLIT:;
#GENRE:;
#CREDIT:yindesu;
#MUSIC:Drivessover.ogg;
#BANNER:;
#BACKGROUND:;
#CDTITLE:;
#SAMPLESTART:64.856;
#SAMPLELENGTH:21.099;
#SELECTABLE:YES;
#OFFSET:1.057;
#BPMS:0.000=182.000;
#STOPS:;
#DISPLAYBPM:182.000;
#BGCHANGES:;
#FGCHANGES:;

//--------------- dance-double - yindesu ----------------
#NOTES:
     dance-double:
     yindesu:
     Hard:
     11:
     0,0,0,0,0:
00000000
00000000
00000000
00000000
,
00000000
00000000
00000000
00000000
,
00000000
00000000
00000000
00000000
,
00000000
00000000
00000000
00000000
,
00000000
00000000
00000000
00000000
,
10000000
01000000
00100000
00000000
01000000
00000000
20000000
00000000
00000000
00000000
30010000
00000000
00100000
00000000
00001000
00000000
,
00000010
00000100
00001000
00000000
00000010
00000000
00000200
00000000
00000000
00000000
00000301
00000000
00000010
00000000
00000001
00000000
,
00000100
00000010
00001000
00000000
00000001
00000000
00000020
00000000
00000000
00000000
00000130
00000000
00010000
00000000
00001000
00000000
,
00010000
00000010
00000100
00000010
00001000
00000001
00000010
00000001
,
00001000
00000100
00001000
00000100
00001000
00000100
00001000
00000100
,
00010000
00000100
00001000
00000100
00001000
00000100
00001000
00000100
,
00000010
00000001
00000010
00000001
00000010
00000001
00000010
00000001
,
00000100
00000001
00000010
00000001
00000010
00000001
00000010
00000001
,
00000100
00000010
00000100
00000010
00001000
00000100
00001000
00000100
,
00010000
00001000
00010000
00001000
00100000
00010000
00100000
00010000
,
01000000
00100000
01000000
00000000
00100000
10000000
00100000
00000000
10000000
01000000
10000000
00000000
01000000
00100000
01000000
00000000
,
00100000
00010000
00100000
00001000
00010000
00000010
00001000
00000010
00000100
00000000
00000001
00000000
00000010
00000000
00000000
00000000
,
00001001
00000000
00000000
00000001
00000010
00000000
00000010
00000001
,
00000000
00000001
00000100
00001000
00020000
00031000
00000000
00000000
,
00100000
00000000
00000000
01000000
10000000
00000000
10000000
00100000
,
00000000
00000000
00100000
00000000
01000000
00000000
00010000
00000000
00100000
00001000
00100000
00000000
00000000
00000000
00000000
00000000
,
00001000
00000000
00000000
00000100
00000001
00000000
00000001
00000010
,
00000000
00000010
00000100
00010000
00002000
00103000
00000000
00000000
,
00010000
00000000
00000000
01000000
00100000
00000000
00100000
00010000
,
00000000
00000000
00010000
00000000
00000100
00000000
00000010
00000000
00000200
00000000
00001300
00000010
00001000
00000010
00001000
00000000
,
00000100
00000010
00000000
00000010
00000100
00000000
00001000
00001000
,
00001000
00000000
00001000
00000000
00000100
00000000
00001000
00000000
00001000
00000100
00001000
00000000
00000000
00000000
00000000
00000000
,
00000010
00000100
00000000
00000100
00001000
00000000
00100000
00001000
,
00010000
00000000
00000000
00001000
00000000
00000000
00010000
00000000
00000000
00000000
00000000
00000000
00001000
00000000
00000000
00000000
00000000
00000000
00001000
00000000
00000000
00000000
00000000
00000000
00001000
00000000
00000000
00000000
00000000
00000000
00000000
00000000
00010000
00000000
00000000
00000000
00000000
00000000
00000000
00000000
00000000
00000000
01000000
00000000
00000000
00000000
00000000
00000000
,
10000000
00010000
00000000
00010000
01000000
00000000
00100000
00100000
,
00100000
00000000
00100000
00000000
10000000
00000000
00100000
00000000
00100000
10000000
00100000
00000000
00000000
00000000
00000000
00000000
,
10000000
01000000
00000000
01000000
00010000
00000000
00001000
00001000
,
00001000
00000000
00000000
00010000
00000000
00000000
00001000
00000000
00000000
00000000
00000000
00000000
00000100
00000000
00000000
00000000
00000000
00000000
00001000
00000000
00000000
00000000
00000000
00000000
00010000
00000000
00000000
00000000
00000000
00000000
00000000
00000000
00000100
00000000
00000000
00000000
00000000
00000000
00000000
00000000
00000000
00000000
00000010
00000000
00000000
00000000
00000000
00000000
,
00000001
00000010
00000001
00000000
00000100
00000000
00000010
00001000
00000000
00000000
00010000
00000000
01000000
00000000
00100000
10000000
,
00000000
00000000
01000000
00000000
00100000
00000000
00001000
00010000
00000000
00000000
00001000
00000000
00100000
00000000
00000000
00000000
,
01000000
00100000
00010000
00000000
01000000
00000000
00100000
10000000
00000000
00000000
01000000
00000000
00100000
00000000
00001000
00010000
,
00000000
00000000
00100000
00000000
00010000
00000000
00000100
00001000
00000000
00000000
00000010
00000000
00000100
00000000
00000000
00000000
,
00000110
00000000
00000100
00000000
00000001
00000000
00000010
00000100
00000000
00000000
00010000
00000000
00001000
00000000
00010000
00100000
,
00000000
00000000
01000000
00000000
00010000
00000000
00100000
01000000
00000000
00000000
10000000
00000000
00100000
00000000
00000000
00000000
,
00010000
00000000
00001000
00000000
00010000
00000000
00000100
00000010
00000000
00000000
00000001
00000000
00000100
00000000
00000010
00001000
,
00000000
00000000
00000100
00000000
00010000
00000000
00001000
00100000
00000000
00000000
02000000
00000000
13000000
00000000
00000000
00000000
,
00010000
00000000
00100000
00000000
00001000
00000000
00010000
00000100
00000000
00000000
00000010
00000000
00000100
00000000
00010000
00001000
,
00000000
00000000
00000100
00000000
00000010
00000000
00010000
00001000
00000000
00000000
00010000
00000000
00000010
00000000
00000000
00000000
,
00000100
00000000
00001000
00000000
00010000
00000000
00001000
00100000
00000000
00000000
01000000
00000000
00010000
00000000
00001000
00010000
,
00000000
00000000
00001000
00000000
00000100
00000000
00000010
00001000
00000000
00000000
00000100
00000000
00000010
00000000
00000000
00000000
,
00000110
00000000
00001001
00000000
,
00000000
00000100
00010100
00000000
,
00011000
00000000
00101000
00000000
,
00000000
00000000
00001000
01000000
01100000
00000000
00200000
00000000
,
20300000
00000000
32000000
03100000
,
00210000
00000000
00310000
00000000
00100000
00001000
00010000
00002000
,
00000000
00003100
00000000
00000001
00000010
00000000
00000100
00000000
,
00020000
00000000
00031000
00000000
01000000
00100000
10000000
02000000
,
00000000
00000000
03100000
00000000
00000000
00000000
00001000
00000000
00100000
00000000
00000000
00001000
00000000
00000000
00010000
00000000
,
00002000
00000000
00000000
00000000
00010000
00000000
00000000
00000000
00010000
00000000
00000000
00000000
00013000
00000000
00001000
00010000
,
00002000
00000000
00000000
00000000
01000000
00000000
00000000
00000000
01000000
00000000
00000000
00000000
01003000
00000000
00001000
01000000
,
00020000
00000000
00000000
00000000
00130000
00000000
01000000
10000000
00200000
00000000
00000000
00000000
01300000
00000000
00010000
00100000
,
02000000
00000000
00000000
00000000
13000000
00000000
00000000
00000000
00200000
00000000
00000000
00000000
10300000
00000000
00010000
00100000
,
01000000
00000000
10000000
00000000
00100000
00010000
00000010
00000200
,
00000000
00010300
00000000
00100000
00001000
00000000
00010000
00000000
,
00002000
00000000
00003010
00000000
00000001
00000100
00000010
00002000
,
00000000
00000000
00003100
00000000
00000000
00000000
00000010
00000000
00000100
00000000
00000000
00010000
00000000
00000000
00001000
00000000
,
02000000
00100000
00100000
00100000
,
00100000
00100000
00100000
00100000
00100000
00100000
03100000
00000000
,
20000000
00000000
00000000
30000000
,
00010000
00100000
01000000
00100000
00001000
00010000
00001000
00000000
00010000
00000100
00000010
00000100
00001000
00000010
00001000
00000000
,
00000002
00000000
00000103
00000000
00000001
00000010
00000100
00001000
,
00000100
00000000
00000000
00010000
00000000
00000000
00001000
00000000
01000000
00000000
00000000
00000000
00100000
00000000
20000000
00000000
,
00000000
00000000
00000000
00000000
00000000
00000000
31000000
00000000
00000000
00000000
00000000
00000000
00100000
00000000
00000000
01000000
00000000
00000000
00100000
00000000
00000000
00000000
00000000
00000000
00010000
00000000
00000000
00100000
00000000
00000000
00010000
00000000
00000000
00100000
00000000
00000000
00010000
00000000
00000000
00000000
00100000
00000000
00000000
00000000
00001000
00000000
00000000
00000000
,
00010000
00000000
00000100
00000010
00000001
00000000
00000100
00000000
00000010
00000000
00000000
00001000
00000000
00000000
00000001
00000000
,
00000020
00000000
00000000
00000000
00000130
00000000
00020000
00000000
00000000
00000000
00031000
01000000
00100000
00000000
20000000
00000000
,
30000000
00000000
00010000
00000000
00100000
00000000
01000000
00000000
00200000
00000000
00000000
00320000
00000000
00000000
01030000
00000000
,
00100000
10000000
01000000
00010000
00001000
00010000
00000100
00000010
00000001
00000100
00000010
00001000
,
00000200
00000000
00000000
00000000
00000000
00000000
00000000
00000000
00000000
00002300
00000000
00000000
00000000
00000000
00000000
00000000
00000000
00000000
00003100
00000000
00000000
00000000
00000000
00000000
00010000
00000000
00000000
00000000
00001000
00000000
00000000
00000000
00010000
00000000
00000000
00000000
00001000
00000000
00000000
00000000
01000000
00000000
00000000
00000000
00010000
00000000
00000000
00000000
,
00100000
01000000
10000000
00000000
00010000
00000000
00100000
01000000
10000000
00000000
01000000
00100000
00001000
00010000
00001000
00000000
,
00000100
00000000
00000000
00000000
00000000
00000000
00000002
00000000
00000000
00000000
00000000
00000000
00000003
00000000
00000000
00000010
00000000
00000000
00000100
00000000
00000000
00001000
00000000
00000000
00000100
00000000
00000000
00000000
00000010
00000000
00000000
00000000
00000000
00000000
00000000
00000000
00000001
00000000
00000000
00000000
00000000
00000000
00000100
00000000
00000000
00000010
00000000
00000000
,
00001000
00000100
00001000
00000100
00010000
00000000
00001000
00000000
00100000
00000000
01000000
00000000
10000000
00000000
01000000
00000000
,
00200000
00000000
00000000
00301000
00000000
00000000
00010000
00000000
00000200
00000000
00000000
00000000
00000310
00000000
00000001
00000000
,
00000100
00000000
00001000
00000000
00010000
00000000
00000100
00000000
00010000
00000000
00000100
00000000
00002000
00000000
00000000
00000000
00000000
00000000
00003100
00000000
00000000
00010000
00000000
00000000
,
00001000
00010000
00001000
02000000
00000000
03000000
00100000
00010000
,
00000100
00000010
00000001
00000200
00000300
00001000
00010000
00002000
,
00000000
00000000
00103000
00000000
01000000
00000000
10000000
00000000
00010000
10000000
00010000
00000000
00100000
00000000
00000000
00000000
,
01010000
01000000
00000000
00000000
00001000
00000000
00010000
00010000
,
00010000
00000000
00010000
00000000
00001000
00000000
00010000
00000000
00010000
00001000
00010000
00000000
00000000
00000000
00000000
00000000
,
00000100
00000010
00000000
00000001
00000100
00000000
00001000
00001000
,
00001000
00010000
00001000
00000000
00010000
00000000
00000100
00000000
00001000
00000000
00000010
00000000
00000100
00000000
00000000
00000000
,
00001000
00000000
00010000
00000000
00001000
00010000
01000000
00000000
00100000
00000000
00001000
00000000
00010000
00000100
00000010
00000000
,
00000100
00000000
00010000
00000000
00001000
00010000
00001000
00000000
00010000
00000000
00000100
00000000
00020000
00000000
00000000
00000000
,
00031000
00000000
00100000
00000000
01000000
00100000
00010000
00000000
00100000
00000000
00001000
00000000
00000010
00000100
00001000
00000000
,
00000100
00000000
00000010
00000000
00000100
00001000
00000100
00000000
00000010
00000000
00000001
00000000
00000200
00000000
00000000
00000000
,
00001300
00010000
00000000
00000000
00100000
00000000
00010000
00010000
,
00010000
00000000
00010000
00000000
00001000
00000000
00010000
00000000
00010000
00001000
00010000
00000000
00000000
00000000
00000000
00000000
,
00000100
00000010
00000000
00000000
00000001
00000000
00000100
00000100
,
00000100
00000010
00000100
00000000
00000001
00000000
00000100
00000000
00001000
00000000
00010000
00000000
00001000
00000000
00000000
00000000
,
00010000
00001000
00010000
00000000
00001000
00000000
00100000
00010000
00000000
00000000
00001000
00000000
00000100
00000000
00000010
00000100
,
00000000
00000000
00010000
00000000
00001000
00000000
01000000
00100000
00000000
00000000
00010000
00000000
00001000
00000000
00000000
00000000
,
00000010
00000100
00000010
00000000
00000001
00000000
00000100
00000010
00000000
00000000
00001000
00000000
00000100
00000000
00000010
00000100
,
00000000
00000000
00010000
00000000
00001000
00000000
00100000
01000000
10000000
00000000
00100000
00000000
00010000
00000000
00001000
00000000
,
00020000
00000000
00000000
00000000
,
00000000
00000000
00000000
00000000
,
00000000
00000000
00000000
00000000
,
00000000
00000000
00000000
00000000
,
00030000
00000000
00000000
00000000
;
