#TITLE:あ・え・い・う・え・お・あお!!;
#SUBTITLE:TVアニメ「ひなこのーと」オープニングテーマ;
#ARTIST:劇団ひととせ;
#TITLETRANSLIT:A-E-I-U-E-O-AO!!;
#SUBTITLETRANSLIT:TV Animation "Hinako Note" Opening Theme;
#ARTISTTRANSLIT:Gekidan Hitotose;
#GENRE:アニソン;
#CREDIT:yindesu;
#MUSIC:A-E-I-U-E-O-AO!!.ogg;
#BANNER:;
#BACKGROUND:;
#CDTITLE:;
#SAMPLESTART:0.505;
#SAMPLELENGTH:19.700;
#SELECTABLE:YES;
#OFFSET:0.973;
#BPMS:0.000=145.000;
#STOPS:;
#DISPLAYBPM:145.000;
#BGCHANGES:2.354=A-E-I-U-E-O-AO!!.mkv=1.000=0=0=0=StretchNoLoop====,
99999.000=-nosongbg-=1.000=0=0=0=StretchNoLoop====
;
#FGCHANGES:;

//--------------- dance-double - yindesu (v2) ----------------
#NOTES:
     dance-double:
     yindesu (v2):
     Hard:
     10:
     0.701034,0.806791,0.307388,0.625755,0.746514,447,419,28,57,0,0,0.701034,0.806791,0.307388,0.625755,0.746514,447,419,28,57,0,0:
00000000
00000000
00000000
00000000
,
00000000
00000000
00000000
00000000
,
10100000
10100000
10010000
10010000
00110000
00110000
00010000
00000000
,
20000000
00000000
00000000
30000000
,
22000000
33000000
00102000
00013000
,
00020100
00030100
00001000
00000010
,
00000110
00000000
00000000
00000000
00010010
00000000
00000000
00000000
01001000
00000000
00000000
10100000
00000000
00000000
11000000
00000000
,
01000000
00100000
00000000
01000000
10000000
01000000
00000000
00010000
00001000
00100000
00010000
01000000
00100000
20000000
00000000
31000000
,
00000000
00000000
00000000
00000000
01100000
00000000
00000000
00000000
10000000
00100000
10000000
00100000
01000000
00010000
01000000
00010000
,
00100000
00000000
01000000
00010000
00000000
00010000
00000010
00000000
00000100
00000001
00000010
00000001
00000100
00000010
00002000
00000000
,
00003200
00000000
00010300
00002000
00000000
01003000
00100000
10000000
00100000
01000000
00010000
00000000
00100000
00000000
00001000
00000000
,
00000100
00000001
00000010
00000001
00000100
00000000
00001000
00010000
00000000
00010000
00001000
00000000
01000000
00010000
00100000
00010000
,
10000000
00100000
10000000
00010000
00100000
00001000
00100000
01000000
00010000
00000000
00000000
00000000
00000001
00000000
00000010
00000100
,
00001000
00000200
00000000
00010300
00000200
00000000
00000310
00000200
00000000
00000300
00001000
00000000
00010000
00000000
00100000
00000000
,
01000000
10000000
00010000
10000000
00020000
00000000
10030000
00020000
00000000
00030000
10000000
01000000
00200000
00000000
00000000
00302000
,
00000000
00000000
00003100
00000010
00000100
00000000
00000010
00000000
00000100
00000000
00001000
00000000
00010000
00000000
00100000
00000000
,
00000000
00000000
10000000
00000000
01000000
00100000
00010000
00100000
02000000
00000000
00000000
23000000
00000000
00000000
30010000
01000000
,
00010000
00000000
00100000
00000000
00001000
00010000
00001000
00000000
00000020
00000000
00000000
00000130
00000000
00000000
00001000
00000010
,
00000200
00000000
00000000
00001300
00000000
00000000
00100000
00000000
01000000
00000000
10000000
00000000
00100000
00000000
01000000
00000000
,
00010000
00001000
00000000
00000000
00000000
00011000
00011000
00000000
,
00000110
00000000
00000000
00000000
00000002
00000000
00000000
00000000
00000103
00000000
00001000
00000000
00010000
00000000
00000000
00100000
,
02000000
00000000
00000000
00000000
03100000
00000000
10000000
00000000
01000000
00000000
00000000
00100000
00002000
00000000
00000000
00000000
,
00003100
00000000
00000001
00000000
00000010
00000000
00000000
00000100
00020000
00000000
00000000
00000000
00031000
00000000
00000100
00000000
,
00000002
00000000
00000000
00000000
00000013
00000100
00001000
00000000
00000000
00000000
00000000
00000000
00000010
00000000
00001000
00000000
,
00000100
00010000
00001000
10000000
00010000
01000000
00001000
00100000
,
00010000
00000000
00000000
00001000
00000000
00000000
00000100
00000000
00000000
00000010
00000000
00000000
00000001
00000000
00000000
00000100
00000000
00000000
00000010
00000000
00010000
00000000
00001000
00000000
,
00001000
00000100
00010000
00001000
00000000
00000000
00100000
00001000
00010000
00010000
01000000
00100000
,
10000000
00000000
00100000
01000000
00001000
01000000
00100000
10000000
,
01000000
00000000
00010000
00000000
00001000
00000000
00000100
00000020
00000000
00000030
00000000
00000000
00100000
00000000
01000000
20000000
,
00000000
30000000
00100000
00000000
01000000
00000000
00010000
00000000
10000000
02000000
00000000
03000000
00100000
00000000
00001000
00020000
,
00000000
00030000
00000200
00000000
00000310
00000000
00000110
00000000
00000000
00000000
00200000
00000000
01300000
00000000
01100000
00000000
,
00000000
00000000
00000000
00000000
00010000
00000100
00010000
00000000
00001000
00000000
00000010
00000000
00000002
00000000
00001003
00000000
,
00002000
00003100
00000110
00000000
00001001
00000000
00010100
00010000
,
01000000
00000000
00000000
00000000
20000000
00000000
00000000
00000000
30000000
01000000
00100000
00000000
00001000
00010000
00000000
00000200
,
00000000
00000300
00000010
00000000
00000001
00000000
00000100
00000000
00000010
00001000
00000000
00000100
00000020
00000000
00000000
00000000
,
00000031
00000000
00000000
00000000
00000100
00000000
00000010
00000000
00010000
00001000
00000000
00100000
00010000
00000000
01000000
00000000
,
00100000
00000000
10000000
00000000
00100000
00000000
00010000
00000000
00001000
00010000
00000000
00000100
00000010
00000000
00000001
00000000
,
00000100
00000000
00000010
00001000
00000200
00000000
00000000
00000000
01000300
00000000
00100000
20000000
00000000
30000000
01000000
00000000
,
00100000
00000000
00001000
00010000
00000100
00000000
00000010
00000000
00000001
00000200
00000000
00000310
00002000
00000000
00003000
00000000
,
00001001
00000000
00000000
00000000
00000001
00000010
00000100
00000010
00000001
00000000
00000010
00000100
00001000
00000100
00000010
00000000
,
00000100
00000000
00010000
00000000
00001000
00100000
01000000
00100000
00001000
00000000
00010000
00001000
01000000
00001000
00010000
00000000
,
00001000
00000100
00000002
00000000
00000023
00000000
00002030
00000000
,
00023000
00000000
02030000
00000000
03100000
00000000
00001000
00010000
,
00000100
00001000
00000000
00011000
00000000
00000000
00000000
00000000
01000000
00010000
00000000
00110000
00000000
00000000
00000000
00000000
,
01000000
10000000
00000000
01000000
00100000
00010000
00000000
00100000
00001000
00000000
00010000
00000100
00000000
00000010
00000001
00000010
,
00000100
00000000
00001000
00000010
00010000
00001000
00100000
00001000
00010000
00002000
00000000
00103000
00000000
00000000
00000000
00000000
,
01100000
00000000
00000000
00000000
00010000
00001000
00010000
00000100
00001000
00000100
00010000
00001000
00020000
00000000
00030100
00000020
,
00000000
00000031
00000100
00000000
00000010
00001000
00000100
00000010
00000100
00001000
00000002
00000000
00000203
00000000
00000310
00020000
,
00000000
00031000
01000000
00010000
00100000
01000000
10000000
00000000
00200000
00000000
02300000
00000000
03001000
00010000
00001000
00000100
,
00000002
00000000
00000013
00000200
00000000
00001300
00000001
00000000
00000100
00001000
00010000
00000100
00000010
00000001
00001000
00000010
,
00000100
00000000
00000000
00001000
00000000
00000000
00010000
00000000
00000000
00100000
00000000
00000000
10000000
00000000
00000000
00000000
00000000
00000000
00000000
00000000
00000000
00000000
00000000
00000000
00010000
00000000
00000000
00000000
10000000
00000000
00000000
00000000
01000000
00000000
00000000
00000000
01000000
00000000
00000000
00000000
00010000
00000000
00000000
00000000
00100000
00000000
00000000
00000000
,
00001000
00000000
00000000
00010000
00000010
00000100
00000100
00001000
00000001
00000010
00000000
00000000
,
00002200
00000000
00000000
00000000
,
00000000
00000000
00000000
00000000
,
00000000
00000000
00000000
00000000
00000000
00000000
00000000
00003300
00000000
00000000
00000000
00000000
00000000
00000000
00000000
00000000
;
