#TITLE:UPSIDE DOWN;
#SUBTITLE:;
#ARTIST:ROSE & JOHN;
#TITLETRANSLIT:;
#SUBTITLETRANSLIT:;
#ARTISTTRANSLIT:;
#GENRE:;
#CREDIT:;
#BANNER:banner.png;
#BACKGROUND:bg.png;
#LYRICSPATH:;
#CDTITLE:cdtitle.png;
#MUSIC:UPSIDE DOWN.mp3;
#OFFSET:-1.424999;
#SAMPLESTART:33.482044;
#SAMPLELENGTH:11.252989;
#SELECTABLE:YES;
#BPMS:0.000000=172.199997
;
#STOPS:
;
#BGCHANGES:;
#KEYSOUNDS:;
#ATTACKS:;

//---------------dance-single - ----------------
#NOTES:
     dance-single:
     :
     Hard:
     8:
     0.611062,0.590717,0.460045,0.352375,0.063623,437.000000,390.000000,47.000000,36.000000,0.000000,0.000000,0.611062,0.590717,0.460045,0.352375,0.063623,437.000000,390.000000,47.000000,36.000000,0.000000,0.000000:
0000
0000
0000
0000
,
0000
0000
0000
0000
,
0000
0000
0000
0000
,
1000
0100
1000
0010
0100
0001
0010
0000
,
0010
0001
0100
0010
1000
0100
0010
0000
,
0001
0100
0010
0000
0010
1000
0100
0000
,
0010
0001
1000
0100
1000
0001
0100
0000
,
1010
0100
0011
0001
,
1100
0000
0010
0000
0001
0010
0001
0100
,
0110
0010
1001
0100
,
0110
0000
0000
0000
0010
0000
0000
0010
1000
0000
0100
0000
1000
0000
0010
0000
,
0101
0001
1001
1000
,
1100
0010
0011
0001
,
0001
1000
0001
0000
1000
0001
1000
0000
,
0100
0010
0100
0010
1000
0100
0010
0001
,
0102
0013
2100
3010
,
2001
0000
0000
0000
3001
0000
0000
0001
1000
0000
0100
0000
0010
0000
0001
0000
,
0201
0310
1200
0310
,
1002
0000
1003
0000
1000
0100
0001
0100
,
1020
0130
0102
0013
,
2100
0000
0000
0000
3010
0000
0000
0010
1000
0000
0100
0000
1000
0000
0000
0000
,
0001
0100
0001
0000
1000
0010
1000
0000
,
0001
0010
0001
0000
2002
0000
3003
0000
,
2001
3002
1003
0110
,
1000
0010
0100
0001
0010
0100
1000
0000
,
1000
0100
1000
0000
0001
0010
0001
0000
,
1000
0010
0100
0001
0000
1001
0000
0000
,
0210
0000
0000
0000
0310
0000
0000
0000
0120
0000
0000
0000
0130
0000
0000
0001
,
1000
0000
0000
1000
0001
0000
0010
0000
0100
0000
1000
0000
0010
0000
0100
0000
,
0000
0001
0000
0100
0000
0010
0000
1000
,
0100
0010
0001
0001
0100
0010
1000
0000
,
1000
0100
1000
0010
0100
0001
0010
0000
,
0010
0001
0010
0001
0100
0010
1000
0000
,
1000
0100
0010
0100
1000
0001
0010
0100
,
0010
0001
0100
0010
1000
0100
1000
0010
,
0100
0001
0100
1000
0100
0001
0010
0000
,
0100
1000
0100
0010
0001
0100
0010
0000
,
0010
1000
0100
1000
0010
0100
0001
0010
,
0100
1000
0100
0010
0001
0100
0020
0000
,
0230
0000
0000
0001
0302
0000
0000
0010
,
0023
0000
0000
0000
0000
0000
0130
1000
0100
0000
1000
0000
0001
0000
0100
0000
,
0020
0000
0000
1030
2000
0000
0000
3001
,
0002
0000
0000
0000
0000
0000
0013
0100
0010
0000
0001
0000
0100
0000
1000
0000
,
0200
0000
0000
0310
2000
0000
0000
3100
,
0200
0000
0000
0310
1000
0100
0010
1100
,
0000
1001
0000
0101
0000
1001
0000
1000
,
0100
1000
0001
0010
0001
1000
0010
0100
,
0102
0000
0000
0000
0013
0000
0000
1000
,
2100
0000
0000
0000
0000
0000
3010
0100
0010
0000
0100
0000
0001
0000
0010
0000
,
0012
0000
0000
0000
0103
0000
0000
1000
,
2010
0000
0000
0000
0000
0000
3100
0010
0100
0000
0010
0000
0001
0000
1000
0000
,
2001
0000
0000
0000
3100
0000
0000
0001
,
1002
0000
0000
0000
0103
0010
1000
0100
,
0000
1000
0000
0100
0000
0010
0000
0001
,
0000
0100
0000
0010
0110
0000
0000
0000
,
0012
1000
0103
1001
,
1000
0010
0100
0001
0010
0100
0010
0000
,
0001
0010
0100
0000
1000
0010
0100
0000
,
1000
0001
0100
0010
1000
0100
0010
0000
,
2010
0000
0000
0000
0001
0000
0000
0000
3100
0000
0000
0000
0110
0000
0000
0001
,
1000
0000
0000
0100
0010
0000
0010
0000
0100
0000
1000
0000
0001
0000
0000
0000
,
1000
0100
0010
0100
1000
0100
0010
0001
,
0000
1000
0000
0001
0000
1000
0000
0000
,
0012
1000
0103
0110
,
0010
1000
0100
0001
0100
1000
0010
0000
,
0100
0010
1000
0010
0100
0001
0010
0000
,
0100
1000
0100
0011
0000
1100
0000
0000
,
2010
0000
0000
0000
0001
0000
0000
0000
3100
0000
0000
0000
0101
0000
0000
0010
,
1000
0000
0000
1000
0010
0000
0100
0000
0001
0000
0010
0000
0001
0000
1001
0000
,
0000
0100
0000
0010
0000
1000
0000
0001
,
0010
0001
0100
0010
1000
0001
0200
0000
,
0310
0000
0000
0000
;

//---------------dance-single - ----------------
#NOTES:
     dance-single:
     :
     Easy:
     4:
     0.307629,0.349928,0.185975,0.274069,0.000000,220.000000,201.000000,19.000000,28.000000,0.000000,0.000000,0.307629,0.349928,0.185975,0.274069,0.000000,220.000000,201.000000,19.000000,28.000000,0.000000,0.000000:
0000
0000
0000
0000
,
0000
0000
0000
0000
,
0000
0000
0000
0000
,
0002
0000
0013
0000
,
0200
0000
1300
0000
,
1000
0001
1000
0001
,
0100
0010
0100
0010
,
1001
0000
0100
0000
,
1000
0000
0001
0100
,
0010
0000
1000
0000
,
0100
0000
0010
0001
,
1000
0001
0100
0001
,
0010
0100
1000
0010
,
0100
0001
0100
0010
,
2002
0000
0000
3003
,
0110
0000
0100
0000
,
0010
0000
1000
0100
,
0010
0000
0001
0000
,
0100
0000
0010
1000
,
0001
1000
0100
0010
,
0100
1000
0001
0010
,
0100
0010
0001
1000
,
0020
0000
0130
0000
,
0010
0010
1001
0000
,
0100
0100
1001
0000
,
1000
1000
1001
0000
,
0001
0001
1001
0000
,
0010
0010
0110
0000
,
0100
0100
0110
0000
,
0010
0010
0110
0000
,
0001
1000
0002
0003
,
1000
1000
1000
0010
,
0100
0100
0100
0001
,
0010
0010
0010
0100
,
2000
0000
3200
0000
,
0310
0010
0010
0100
,
0001
0001
0001
1000
,
0010
0010
0010
0100
,
0002
0000
0023
0000
,
0130
0000
1100
0000
,
0010
0000
0101
0000
,
0010
0000
1001
0000
,
0100
0000
1001
0002
,
1003
0000
0110
0000
,
0001
0000
1001
0000
,
1000
0100
1000
0010
,
0200
0000
0000
0000
,
0302
0000
1003
0000
,
0200
0000
0310
0010
,
2000
0000
3100
0000
,
0020
0000
0031
0001
,
2000
0000
3010
0010
,
0200
0000
0301
0001
,
2000
0000
0000
0000
,
0200
0000
3300
0000
,
0001
1000
0010
0100
,
0001
1000
0100
0000
,
1000
0100
1000
0010
,
0100
0001
0010
0000
,
0001
1000
0001
0100
,
0010
0010
1000
0000
,
1001
0000
0110
0000
,
1000
0001
2000
0000
,
3100
0010
0100
1000
,
0001
0010
0100
0000
,
0001
0100
0010
0100
,
0001
1000
0001
0000
,
1000
0100
2000
3001
,
0100
0010
0200
0301
,
1001
0000
0000
0000
,
2000
3002
2003
3002
,
0203
0000
0300
0000
;

//---------------dance-single - ----------------
#NOTES:
     dance-single:
     :
     Medium:
     5:
     0.418095,0.486473,0.440468,0.440468,0.000000,299.000000,254.000000,45.000000,45.000000,0.000000,0.000000,0.418095,0.486473,0.440468,0.440468,0.000000,299.000000,254.000000,45.000000,45.000000,0.000000,0.000000:
0000
0000
0000
0000
,
0000
0000
0000
0000
,
0000
0000
0000
0000
,
1002
1000
1003
0000
,
0210
0010
0310
0000
,
2000
3200
0320
0032
,
1003
0000
0001
0000
1000
0001
0200
0000
,
0310
1000
0001
1000
,
0100
0000
0010
0000
0001
0010
0100
1000
,
0001
0100
0010
1000
,
0010
0000
0100
0000
0001
1000
0100
0010
,
0001
1000
0100
1000
,
0001
0000
0010
0000
0001
0000
1000
0001
,
0000
0101
0000
1001
0000
1100
0000
1000
,
0002
0000
0000
0000
,
0103
0001
0010
0100
,
1000
0000
1000
0100
0010
0000
0100
0010
,
0001
1000
0010
1000
,
0001
0000
0010
0001
1000
0000
0010
0001
,
1000
0001
1000
0010
,
1000
0000
0001
0010
0100
0000
1000
0010
,
0100
0001
0100
0010
,
2001
0000
3002
0000
,
0103
0110
1001
0000
,
1000
0100
1000
0000
0001
0010
0001
0000
,
1000
0001
0100
0010
,
1000
0100
0110
0000
,
0011
0110
1100
0000
,
1000
0001
1000
0000
0001
1000
0001
0000
,
0000
1000
0000
0100
0000
0010
0000
0001
,
0200
0302
2003
3010
,
2100
0100
3100
0000
,
0012
0010
0013
0000
,
2000
3002
0203
0320
,
1030
0000
0100
0000
1000
0100
0010
0001
,
0200
0001
0301
0000
,
1020
1000
1030
0000
,
2000
3002
0203
0320
,
1030
0001
0100
0110
,
1001
0000
0110
0000
,
1001
0000
0000
0000
1000
0100
1000
0100
,
1000
0000
0110
0000
,
0011
0000
0000
0000
0001
0100
0001
0100
,
0001
0000
0110
0000
,
1010
0000
0000
0000
1001
0000
0000
1100
,
0000
0101
0000
1100
0000
0101
0000
0000
,
2000
3002
0203
0320
,
0230
0000
0001
0000
,
0302
0000
1000
0000
,
2003
0000
0010
0000
,
3020
0000
0100
0000
,
0230
0000
0001
0000
,
0302
0000
1000
0000
,
2003
0000
0001
0000
,
3001
0000
0000
0000
,
0110
1100
0110
0101
,
1000
0001
1000
0000
,
0001
1000
0001
0000
1000
0001
1000
0000
,
2000
3002
0203
0300
,
0110
0101
0110
1010
,
1000
0001
0010
0000
,
0001
0010
0100
0000
0100
1000
0001
0000
,
1000
0001
0100
0000
1001
0000
0000
0000
,
1001
0110
1001
0110
,
1000
0001
1000
0000
,
0001
0100
0010
0000
0010
1000
0001
0000
,
2000
3002
2003
3000
,
1100
0101
0011
1010
,
1000
0001
0100
0000
,
1000
0001
1000
0000
0001
0100
0000
0020
,
0000
2030
0000
3002
0000
0000
0000
0000
,
1003
0000
0000
0000
;
