#TITLE:THE QUESTION IS...WHAT IS THE QUESTION?;
#SUBTITLE:(Flip & Fill Remix);
#ARTIST:SCOOTER;
#TITLETRANSLIT:;
#SUBTITLETRANSLIT:;
#ARTISTTRANSLIT:;
#GENRE:;
#CREDIT:;
#BANNER:THE QUESTION IS...WHAT IS THE QUESTION (Flip & Fill Remix)-banner.png;
#BACKGROUND:THE QUESTION IS...WHAT IS THE QUESTION (Flip & Fill Remix)-bg.png;
#LYRICSPATH:;
#CDTITLE:;
#MUSIC:THE QUESTION IS...WHAT IS THE QUESTION (Flip & Fill Remix).mp3;
#OFFSET:-1.511001;
#SAMPLESTART:78.783920;
#SAMPLELENGTH:13.168000;
#SELECTABLE:YES;
#DISPLAYBPM:147.000000;
#BPMS:0.000000=147.000000
;
#STOPS:
;
#BGCHANGES:;
#KEYSOUNDS:;
#ATTACKS:;

//---------------dance-single - ----------------
#NOTES:
     dance-single:
     :
     Hard:
     9:
     0.578595,0.564793,0.334417,0.092894,0.287970,436.000000,400.000000,36.000000,10.000000,0.000000,0.000000,0.578595,0.564793,0.334417,0.092894,0.287970,436.000000,400.000000,36.000000,10.000000,0.000000,0.000000:
0000
0000
0000
0000
,
0000
0000
0000
0000
,
0000
0000
0000
0000
,
0000
0000
0000
0000
,
2000
3000
0020
0030
,
2000
3000
0002
0003
,
0020
0030
0200
0300
,
1000
0101
0101
0101
,
0010
1000
0100
0010
0100
1000
0010
0100
,
0001
0010
0001
0100
0010
0100
0001
0000
,
1000
0100
0001
0100
1000
0010
0001
0010
,
1000
0100
0010
0001
0100
0010
1000
0000
,
1000
0010
0100
0001
0010
0001
0100
0010
,
1000
0100
0010
0001
0100
1000
0100
0000
,
0001
0010
0100
1000
0010
0100
0010
1000
,
0001
1010
1010
1010
,
1000
0000
0000
1000
0100
0000
0000
0100
0010
0000
0000
0010
0001
0000
0000
0001
,
0100
0000
0000
0100
0010
0000
0000
0010
1000
0000
0001
0000
0010
0000
0100
0000
,
1000
0000
0000
0100
0010
0000
0000
0001
0010
0000
0000
0010
0100
0000
0000
1000
,
0001
0000
0000
0001
0100
0000
0000
0010
1000
0000
0010
0000
0100
0000
0001
0000
,
0010
0000
0000
0100
1000
0000
0000
1000
0100
0000
0000
0100
0010
0000
0000
0010
,
0100
0000
0000
0100
0010
0000
0000
0001
0100
0000
0010
0000
0100
0000
0001
0000
,
0100
0000
0000
0100
0010
0000
0000
0010
1000
0000
0000
1000
0001
0000
0000
0001
,
0010
0000
0000
0010
0100
0000
0000
1000
0100
0000
1000
0000
0001
0000
0100
0000
,
0001
0100
0010
0100
0001
0010
0100
0000
,
1000
0100
0010
0010
0001
1000
0001
0000
,
0001
0100
1000
0100
0001
0010
0100
0000
,
1000
0100
0010
0100
0001
0100
1000
0000
,
1000
0010
0001
0010
1000
0010
0001
0010
,
1000
0100
0001
0100
1000
0100
0001
0100
,
1000
0010
0100
0001
0100
0010
1000
0100
,
0010
0001
0200
0000
0000
0000
0000
0000
,
0310
1010
1000
1010
,
1000
1001
0001
1001
,
0001
0100
0010
0100
0001
0010
0100
0000
,
0100
1000
0010
0100
0001
0010
0001
0000
,
1100
0101
1100
0101
,
0011
1010
0011
1010
,
1001
1100
0110
0011
,
0102
1000
0010
1000
,
0013
0100
0010
0001
0100
0010
1000
0010
,
0100
0000
0000
0001
0010
0000
0000
0100
1000
0000
0000
1000
0001
0000
0001
0000
,
0100
0100
0100
0010
1000
1000
1000
0001
,
0010
0000
0000
0010
0100
0000
0000
0100
1000
0000
0000
1000
0010
0000
0010
0000
,
1000
0100
0010
0100
0010
0001
0100
0010
,
1000
0000
0000
0001
1000
0000
0000
0100
0010
0000
0000
0001
1000
0000
0100
0000
,
0010
0001
0100
0010
1000
1000
0001
0010
,
0012
1003
2010
3001
,
1001
0000
0001
1000
0100
0100
1000
1000
,
0010
0000
0000
0100
0001
0000
0000
0001
1000
0000
0000
1000
0001
0000
0010
0000
,
0100
0100
1000
0100
0100
1000
0100
0010
,
0001
0000
0000
0001
0100
0000
0000
0100
0010
0000
0000
0010
0100
0000
0100
0000
,
0001
1000
0001
1000
0100
0010
0100
1000
,
0001
0000
0000
1000
0100
0000
0000
0010
0001
0000
0000
0100
0010
0000
1000
0000
,
0001
0001
0100
0010
1000
0010
0010
0100
,
0001
1001
0110
1001
,
1000
0000
0000
1000
0000
0000
1000
0000
0010
0000
0000
0010
0000
0000
0010
0000
,
0100
0000
0000
0100
0000
0000
0100
0000
0001
0000
1000
0001
0000
1000
0001
0000
,
0100
0000
0000
0100
0000
0000
0001
0000
1000
0000
0000
0100
0000
0000
0010
0000
,
0100
0000
0000
1000
0000
0000
0100
0000
0010
0000
0001
0100
0000
0100
0001
0000
,
0010
0000
0000
0110
0000
0000
0100
0000
1000
0000
0000
1001
0000
0000
0001
0000
,
0100
0000
0000
0110
0000
0000
0010
0000
1000
0000
1000
0010
0000
1000
0010
0000
,
0100
0000
0000
0101
0000
0000
0001
0000
1000
0000
0000
1100
0000
0000
0100
0000
,
0010
0000
0000
0011
0000
0000
1000
0000
0001
0000
0001
0100
0000
0001
0100
0000
,
0101
0000
0000
0000
;

//---------------dance-single - ----------------
#NOTES:
     dance-single:
     :
     Medium:
     6:
     0.400770,0.445889,0.241523,0.139340,0.000000,302.000000,276.000000,26.000000,15.000000,0.000000,0.000000,0.400770,0.445889,0.241523,0.139340,0.000000,302.000000,276.000000,26.000000,15.000000,0.000000,0.000000:
0000
0000
0000
0000
,
0000
0000
0000
0000
,
0000
0000
0000
0000
,
0000
0000
0000
0000
,
0010
0000
1000
0000
,
0001
0000
0010
0010
,
0100
0000
0010
0000
,
0001
1001
0110
1001
,
0020
1030
0200
0301
,
0001
0000
0010
0000
0100
1000
0100
0010
,
0200
1300
0002
0013
,
0100
0000
0010
0000
1000
0010
0100
0001
,
0020
0031
2000
3100
,
0010
0000
0100
0000
1000
0001
1000
0001
,
0200
0310
2000
3001
,
0100
0110
1001
0110
,
0010
1000
0001
0100
,
0001
0000
0010
0000
0100
1000
0100
0010
,
0001
0100
0010
1000
,
0100
0000
0001
0000
0100
1000
0001
0100
,
0010
1000
0001
0100
,
0001
0000
0010
0000
0100
1000
0100
0010
,
0001
0100
0010
0100
,
0002
1000
0010
1000
,
0013
0000
0100
0000
0010
1000
0001
0000
,
0100
0000
0001
0000
0010
0100
1000
0000
,
0100
0000
0010
0000
0001
1000
0010
0000
,
0100
0001
0100
0001
0200
0000
0310
0000
,
1000
0100
0010
0001
,
0100
0001
0100
0000
0010
1000
0010
0000
,
0100
0001
0010
0100
,
1000
0100
0020
0000
0000
0000
0000
0000
,
0031
0000
0100
0000
0010
1000
0001
0000
,
0100
0000
0010
0000
1000
0001
0010
0000
,
0100
1000
0100
0000
0010
0001
0100
0000
,
0100
0010
1000
0001
0010
0000
0100
0000
,
1000
1000
0100
0100
,
0010
0010
0001
0001
,
0200
0001
0010
0001
,
0310
1001
0110
1001
,
0110
1000
0001
1000
,
0100
0001
0101
0101
,
1000
0100
0010
0100
,
0010
0100
0011
0011
,
0100
0010
1000
0001
,
0010
0100
1100
1100
,
0010
0110
0100
0110
,
1000
1001
0101
1001
,
1100
0010
0001
0100
,
0010
1000
0010
0000
0100
0001
0100
0000
,
0001
0100
0010
1000
,
0100
1000
0100
0000
0010
0100
0010
0001
,
1000
0010
0100
0001
,
0100
0010
1000
0000
0100
0010
0100
0000
,
1000
0100
0010
0001
,
0100
0001
0200
0000
0302
0000
2003
0000
,
3010
1000
0100
0010
,
0001
0000
0100
0000
0001
1000
0001
1000
,
0001
0100
0010
1000
,
0100
0000
0010
0000
0100
0010
0100
0010
,
0100
1000
0001
0100
,
0010
0000
1000
0000
0010
1000
0010
0100
,
0001
1001
0100
0110
,
0010
0000
1010
0000
1000
0100
0010
0001
,
1001
0000
0000
0000
;

//---------------dance-single - ----------------
#NOTES:
     dance-single:
     :
     Easy:
     3:
     0.207020,0.297260,0.195077,0.260102,0.000000,156.000000,135.000000,21.000000,28.000000,0.000000,0.000000,0.207020,0.297260,0.195077,0.260102,0.000000,156.000000,135.000000,21.000000,28.000000,0.000000,0.000000:
// measure 0
0000
0000
0000
0000
,  // measure 1
0000
0000
0000
0000
,  // measure 2
0000
0000
0000
0000
,  // measure 3
0000
0000
0000
0000
,  // measure 4
0010
0000
0000
0000
,  // measure 5
0100
0000
0000
0000
,  // measure 6
0001
0000
0100
0000
,  // measure 7
1000
0000
0010
1000
,  // measure 8
0001
0000
0110
0000
,  // measure 9
1000
0000
0110
0000
,  // measure 10
0001
0000
0110
0000
,  // measure 11
0100
0000
1001
0110
,  // measure 12
1001
0000
0100
0000
,  // measure 13
1001
0000
0010
0000
,  // measure 14
1001
0000
0100
0000
,  // measure 15
1001
0000
0010
0100
,  // measure 16
0002
0003
0200
0300
,  // measure 17
0020
0030
1000
1000
,  // measure 18
0200
0300
0020
0030
,  // measure 19
0002
0003
0100
0001
,  // measure 20
0200
0300
0002
0003
,  // measure 21
2000
3000
0100
0010
,  // measure 22
0002
0003
2000
3000
,  // measure 23
0020
0000
0000
0000
,  // measure 24
1030
1000
1000
0000
,  // measure 25
0010
0010
0010
0000
,  // measure 26
0100
0100
0100
0000
,  // measure 27
0001
0001
0001
0000
,  // measure 28
0001
1000
0001
1000
,  // measure 29
0010
0100
0010
0100
,  // measure 30
0001
1000
0001
1000
,  // measure 31
0010
0200
0000
0000
,  // measure 32
0310
0000
0100
0000
,  // measure 33
1001
0000
0000
0000
,  // measure 34
0020
0030
0000
0000
,  // measure 35
0100
0000
0002
0003
,  // measure 36
2000
3000
0000
0000
,  // measure 37
0020
0030
0000
0000
,  // measure 38
0200
0300
0000
0000
,  // measure 39
0002
0000
0000
0000
,  // measure 40
1003
1000
1000
1000
,  // measure 41
0010
0010
0010
0010
,  // measure 42
1000
1000
1000
1000
,  // measure 43
0001
0001
0002
0000
,  // measure 44
0013
0010
0010
0010
,  // measure 45
0100
0100
0100
0100
,  // measure 46
1000
1000
1000
1000
,  // measure 47
0001
0000
0110
0000
,  // measure 48
1001
0000
0110
0000
,  // measure 49
1001
0000
0100
0010
,  // measure 50
0110
0000
1001
0000
,  // measure 51
0110
0000
0001
1000
,  // measure 52
1001
0000
0100
0000
,  // measure 53
0010
0001
0010
0000
,  // measure 54
0110
0000
0100
0000
,  // measure 55
1100
0000
0000
0000
,  // measure 56
0020
0000
0000
0030
,  // measure 57
2000
0000
0000
3000
,  // measure 58
0002
0000
0000
0003
,  // measure 59
0200
0000
0000
0300
,  // measure 60
0002
0000
0000
0003
,  // measure 61
2000
0000
0000
3000
,  // measure 62
0020
0000
0000
0030
,  // measure 63
0200
0000
0000
0300
,  // measure 64
1001
0000
0000
0000
;
