#VERSION:0.83;
#TITLE:THE NAME OF THE GAME (Definitive Mix);
#SUBTITLE:;
#ARTIST:ABBACADABRA;
#TITLETRANSLIT:;
#SUBTITLETRANSLIT:;
#ARTISTTRANSLIT:;
#GENRE:;
#ORIGIN:;
#CREDIT:;
#BANNER:banner.png;
#BACKGROUND:bg.png;
#PREVIEWVID:;
#JACKET:jacket.png;
#CDIMAGE:;
#DISCIMAGE:;
#LYRICSPATH:;
#CDTITLE:;
#MUSIC:THE NAME OF THE GAME (Definitive Mix).mp3;
#OFFSET:-0.049000;
#SAMPLESTART:57.889996;
#SAMPLELENGTH:14.980000;
#SELECTABLE:YES;
#DISPLAYBPM:142.000000;
#BPMS:0.000=142.000;
#STOPS:;
#DELAYS:;
#WARPS:;
#TIMESIGNATURES:0.000=4=4;
#TICKCOUNTS:0.000=4;
#COMBOS:0.000=1;
#SPEEDS:0.000=1.000=0.000=0;
#SCROLLS:0.000=1.000;
#FAKES:;
#LABELS:0.000=Song Start;
#BGCHANGES:;
#KEYSOUNDS:;
#ATTACKS:
;

//---------------dance-single - ----------------
#NOTEDATA:;
#CHARTNAME:;
#STEPSTYPE:dance-single;
#DESCRIPTION:;
#CHARTSTYLE:;
#DIFFICULTY:Hard;
#METER:8;
#RADARVALUES:0.560432,0.523885,0.234795,0.156530,0.039132,401.000000,377.000000,24.000000,16.000000,0.000000,0.000000,0.000000,0.000000,0.000000,0.560432,0.523885,0.234795,0.156530,0.039132,401.000000,377.000000,24.000000,16.000000,0.000000,0.000000,0.000000,0.000000,0.000000;
#CREDIT:;
#DISPLAYBPM:142.000000;
#NOTES:
0000
0000
0000
0000
,
0000
0000
0000
0000
,
0000
0000
0000
0000
,
0000
0000
0000
0000
,
1000
0000
0001
0000
0100
0010
1000
0000
,
0001
0000
0010
0000
0100
1000
0001
0000
,
1000
0001
0100
0000
0100
0010
1000
0000
,
2002
0000
0000
0003
,
3001
0100
0001
0100
0001
0100
0001
0100
,
1000
0100
1000
0100
1100
0000
1001
0000
,
1000
0010
1000
0010
1000
0010
1000
0010
,
0001
0010
0001
0010
0011
0000
1001
0000
,
1000
0100
0001
0100
1000
0010
0001
0010
,
1000
0100
0010
0100
1000
0001
0010
0001
,
0100
0010
1000
0100
0001
0100
1000
0010
,
0100
0001
1000
0100
1000
0010
0200
0000
,
0301
0010
0001
0100
0001
0010
0001
0100
,
0001
1000
0010
1000
1100
0000
0110
0000
,
0010
1000
0100
0001
0100
1000
0010
0001
,
0010
1000
0001
0010
0110
0000
1100
0000
,
1000
0100
1000
0010
0100
0010
0100
0001
,
0010
0001
0100
0010
0100
0001
1000
0100
,
0010
0001
0100
0001
0010
0100
1000
0010
,
0100
0001
1000
0001
0100
0010
2000
0000
,
3001
0100
0001
0010
0100
0010
0001
1000
,
0010
0100
0001
0010
0100
0000
1001
0000
,
1000
0010
0100
0001
0100
0010
1000
0100
,
0010
0100
0010
0001
1000
0000
0101
0000
,
0100
0001
0010
0001
0100
0010
1000
0001
,
0010
0001
1000
0100
0010
0000
1010
0000
,
0001
0100
0010
1000
0100
0010
0001
0000
,
0001
0100
1000
0100
0001
0000
0101
0000
,
1000
0100
0001
0100
1000
0010
0100
0000
,
0001
0100
0020
0000
1030
0100
0020
0000
,
0031
1000
0010
0010
1000
1000
0001
0001
,
1000
0000
0100
0000
0010
0000
0000
0001
0000
0000
0100
0000
0001
0000
0100
0000
,
0010
0000
1000
0000
0001
0000
0000
0100
0000
0000
0010
0000
1000
0000
0010
0000
,
0100
0000
0001
0000
1000
0000
0000
0001
0000
0000
0010
0000
0001
0000
0100
0000
,
0001
0000
1000
0000
0100
0000
0000
1000
0000
0000
0001
0000
0010
0000
0001
0000
,
0100
0000
0010
0000
0100
0000
0000
0001
0000
0000
1000
0000
0100
0000
1000
0000
,
0010
0000
0100
0000
0001
0000
0000
1000
0000
0000
0001
0000
0010
0000
0100
0000
,
1000
0000
0001
0000
0100
0000
0000
1000
0000
0000
0001
0000
0100
0000
0010
0000
,
0100
0000
0001
0000
1000
0000
0000
0100
0000
0000
1000
0000
0001
0000
0010
0000
,
2001
0000
3020
0000
0130
0001
0100
0010
,
1000
0100
0010
0000
0011
0000
0110
0000
,
2100
0000
3002
0000
0103
0010
0100
0001
,
0010
0100
1000
0000
1100
0000
1001
0000
,
0102
0000
0023
0000
0130
1000
0100
0010
,
0100
0010
0001
0000
0101
0000
1001
0000
,
2100
0000
3002
0000
0013
0100
0010
0001
,
0100
0010
1000
0001
0100
0010
0200
0000
,
0301
0100
0001
0100
0001
0100
0001
0100
,
0010
1000
0010
1000
0010
1000
0010
1000
,
0100
0010
0100
0010
0100
0010
0100
0010
,
0001
0100
1000
0100
0001
0010
0011
0000
,
1000
0100
0001
0100
1000
0100
0001
1000
,
0001
0100
1000
0100
0001
0100
1000
0001
,
1000
0010
0001
0010
1000
0010
0001
1000
,
0001
0010
1000
0010
0001
0010
1000
0001
,
0200
0000
0300
0000
;

//---------------dance-single - ----------------
#NOTEDATA:;
#CHARTNAME:;
#STEPSTYPE:dance-single;
#DESCRIPTION:;
#CHARTSTYLE:;
#DIFFICULTY:Medium;
#METER:6;
#RADARVALUES:0.398312,0.432903,0.264144,0.264144,0.000000,285.000000,258.000000,27.000000,27.000000,0.000000,0.000000,0.000000,0.000000,0.000000,0.398312,0.432903,0.264144,0.264144,0.000000,285.000000,258.000000,27.000000,27.000000,0.000000,0.000000,0.000000,0.000000,0.000000;
#CREDIT:;
#DISPLAYBPM:142.000000;
#NOTES:
0000
0000
0000
0000
,
0000
0000
0000
0000
,
0000
0000
0000
0000
,
0000
0000
0000
0000
,
1000
0001
0100
0010
,
1000
0100
0010
0001
,
0100
0001
1000
0100
,
0002
2003
3020
0230
,
0301
0010
0100
1000
,
1000
0010
0100
0001
2000
0000
3001
0000
,
0001
0010
0001
0100
,
0010
1000
0001
0010
0200
0000
0310
0000
,
1000
0001
0010
0000
0001
1000
0010
0000
,
1000
0010
0100
0000
0001
0010
0100
0000
,
1000
1100
0001
0101
,
1001
0110
1001
0200
,
0301
0000
0100
0000
0010
1000
0010
0000
,
0100
0001
0100
0001
0200
0000
0310
0000
,
1000
0000
0100
0000
0010
0001
0010
0000
,
0100
1000
0100
1000
0200
0000
1300
0000
,
1000
0010
1000
0000
0001
0100
0001
0000
,
1000
0100
1000
0000
0001
0010
0002
0000
,
1003
0020
0130
0200
,
0301
1001
1000
1002
,
0013
0100
1000
0100
,
1000
1100
0001
0101
,
1000
0001
0010
0100
,
1000
0110
0001
0110
,
1000
0100
1000
0010
,
0100
0001
0100
0000
0010
1000
0010
0000
,
1000
0001
0010
0100
,
0010
0001
0100
0000
0010
1000
0200
0000
,
1300
0000
0002
0203
,
0310
0010
0010
0000
1000
1000
1000
0000
,
0010
0010
0020
0000
1000
0000
0100
0000
,
1030
0100
1000
0010
,
0102
0013
2100
3010
,
1000
0100
1000
0000
0001
0100
0001
0000
,
1000
0001
1000
0000
1002
0000
0103
0000
,
1000
0100
1000
0010
,
0102
1003
2100
3001
,
0001
0100
0010
0000
1000
0010
0100
0000
,
0100
0001
1000
0000
1001
0000
0000
0000
,
0100
0101
0100
0110
,
0010
0000
1010
0000
1000
0001
1000
0100
,
0020
0031
2000
3100
,
0200
0310
0002
0103
,
0001
0100
0001
1000
,
0100
1000
0100
0000
1000
0001
0100
0000
,
0010
1000
0001
0000
0100
0001
1000
0000
,
1002
0100
1000
0013
,
1001
0000
1100
0000
0000
1000
0000
0001
,
0000
0100
0000
0010
0000
1000
0000
0001
,
0000
0010
0000
0100
0000
1000
0000
0001
,
0000
0100
0001
0100
0000
0010
1000
0010
,
1010
0000
1001
0000
0000
1000
0000
0001
,
0000
0010
0000
0100
0000
0010
0000
0011
,
0000
1000
0000
0010
0000
0100
0000
0101
,
0000
0001
0000
1000
0000
0010
0000
0100
,
0001
0000
0000
0000
;

//---------------dance-single - ----------------
#NOTEDATA:;
#CHARTNAME:;
#STEPSTYPE:dance-single;
#DESCRIPTION:;
#CHARTSTYLE:;
#DIFFICULTY:Easy;
#METER:4;
#RADARVALUES:0.287903,0.349257,0.264144,0.303276,0.000000,206.000000,179.000000,27.000000,31.000000,0.000000,0.000000,0.000000,0.000000,0.000000,0.287903,0.349257,0.264144,0.303276,0.000000,206.000000,179.000000,27.000000,31.000000,0.000000,0.000000,0.000000,0.000000,0.000000;
#CREDIT:;
#DISPLAYBPM:142.000000;
#NOTES:
// measure 0
0000
0000
0000
0000
,  // measure 1
0000
0000
0000
0000
,  // measure 2
0000
0000
0000
0000
,  // measure 3
0000
0000
0000
0000
,  // measure 4
0002
0000
0000
0000
,  // measure 5
0203
0000
0000
0000
,  // measure 6
0320
0000
0000
0000
,  // measure 7
2030
0000
0000
0000
,  // measure 8
3010
0000
1000
0000
,  // measure 9
0001
0000
1001
1001
,  // measure 10
0100
0000
0001
0000
,  // measure 11
0010
0000
0110
0110
,  // measure 12
0100
0000
1000
0000
,  // measure 13
0001
0000
1000
0000
,  // measure 14
0001
0100
0001
1000
,  // measure 15
0100
1000
0001
0100
,  // measure 16
0110
0000
1000
0000
,  // measure 17
0001
0000
1001
1001
,  // measure 18
1000
0000
0100
0000
,  // measure 19
0010
0000
0110
0110
,  // measure 20
0001
0000
0100
0000
,  // measure 21
0010
0000
1000
0000
,  // measure 22
1000
0010
1000
0010
,  // measure 23
0100
0001
0020
0230
,  // measure 24
1300
0100
1000
0010
,  // measure 25
0010
0010
2000
0000
,  // measure 26
3001
0100
0001
0010
,  // measure 27
0001
0001
0200
0000
,  // measure 28
0310
1000
0001
0100
,  // measure 29
0010
1000
0200
0000
,  // measure 30
0310
0001
0100
0001
,  // measure 31
2000
0000
3002
0000
,  // measure 32
0103
0001
0000
0100
,  // measure 33
0010
0010
1000
1000
,  // measure 34
0001
0002
0203
0320
,  // measure 35
1030
0001
0010
0001
,  // measure 36
0100
0010
0110
0000
,  // measure 37
1000
0010
1000
0001
,  // measure 38
0100
0001
1001
0000
,  // measure 39
1000
0100
0010
0001
,  // measure 40
0100
0010
0110
0000
,  // measure 41
0001
1000
0001
0010
,  // measure 42
0100
0020
0032
0203
,  // measure 43
0310
1001
0100
1001
,  // measure 44
2000
3002
0203
0310
,  // measure 45
0010
0110
0100
0110
,  // measure 46
2000
3002
0023
0130
,  // measure 47
1000
1100
0100
1100
,  // measure 48
2000
3002
2003
0000
,  // measure 49
3001
0100
0100
0001
,  // measure 50
0001
2000
3002
0023
,  // measure 51
0031
0001
0001
0001
,  // measure 52
0001
1001
1000
1001
,  // measure 53
1000
1000
1000
1000
,  // measure 54
1000
1100
0100
1100
,  // measure 55
0100
0100
0100
0100
,  // measure 56
0100
0110
0010
0110
,  // measure 57
0010
0010
0010
0010
,  // measure 58
0010
0011
0001
0101
,  // measure 59
2002
0000
3003
0000
;
